#VERSION:0.83;
#TITLE:Life;
#SUBTITLE:;
#ARTIST:ConKi;
#TITLETRANSLIT:;
#SUBTITLETRANSLIT:;
#ARTISTTRANSLIT:;
#GENRE:Deep House;
#CREDIT:Wrland;
#MUSIC:Life.ogg;
#BANNER:Life.png;
#BACKGROUND:Life-bg.png;
#CDTITLE:Wrland Season 3 CITYGHT + last one night.png;
#LYRICSPATH:Life.lrc;
#SAMPLESTART:25.714;
#SAMPLELENGTH:12.000;
#SELECTABLE:YES;
#OFFSET:-0.000;
#BPMS:0.000=56.000
,16.000=112.000
,30.000=56.000
,31.000=112.000
,125.000=56.000
,134.000=112.000
;
#STOPS:148.000=0.536;
#DISPLAYBPM:56.000:112.000;
#JACKET:Life-jacket.png;
#CDIMAGE:Life-cd.png;
#METERTYPE:DDR X;
#BGCHANGES:;
#FGCHANGES:;

//--------------- dance-single - Wrland ----------------
#NOTEDATA:;
#STEPSTYPE:dance-single;
#DESCRIPTION:Wrland;
#DIFFICULTY:Beginner;
#METER:2;
#RADARVALUES:0,0,0,0,0;
#NOTES:
0000
0000
0000
0000
,
0000
0000
0000
0000
,
1000
0000
1000
0000
,
0001
0000
0001
0000
,
0010
0000
0000
0000
,
0100
0000
0000
0000
,
1000
0000
0000
0000
,
0100
0000
0000
0100
,
0100
0000
0100
0010
,
0000
0100
0000
1000
,
0000
0000
1000
0010
,
0100
0001
0100
0010
,
0000
0000
0100
1000
,
0000
0100
0000
0010
,
0000
0001
0000
0010
,
0000
0100
0000
1000
,
0000
0000
0000
0100
,
0000
0000
0000
0010
,
0000
0000
0000
0001
,
0000
0000
0000
0100
,
0000
0000
0000
0100
,
0000
0000
0000
1000
,
0000
0000
0000
0010
,
0000
0000
0000
0001
,
0000
0000
0000
1000
,
0000
0000
0000
0010
,
0000
0000
0000
0100
,
0000
0000
0000
0010
,
0000
0000
0000
0001
,
0000
0000
0000
1000
,
0000
0000
0000
0100
,
0000
0000
0020
0030
,
0200
0300
2000
3000
,
0020
0030
0100
0000
,
0000
0100
0000
0000
,
1000
0000
0000
0000
,
0010
0000
0100
0000
,
0000
0010
0100
0000
,
0100
0010
0000
0001
,
0000
1000
0000
1000
,
0100
0010
0100
0010
,
0100
0010
0000
0000
,
0001
0010
0000
0100
,
0000
1000
0001
1000
,
0000
1000
0001
1000
,
0000
0100
0000
0100
,
0000
0010
0000
0001
,
0000
0100
0000
1000
,
0000
0100
0000
1000
,
0000
0100
0000
0010
,
0000
0001
0000
0100
,
0000
1000
0000
0100
,
0000
0010
0000
0100
,
0000
0010
0000
0000
;

//--------------- dance-single - Wrland ----------------
#NOTEDATA:;
#STEPSTYPE:dance-single;
#DESCRIPTION:Wrland;
#DIFFICULTY:Easy;
#METER:4;
#RADARVALUES:0,0,0,0,0;
#NOTES:
0000
0000
0000
0000
,
0000
0000
0000
0000
,
0100
0100
1000
0100
,
0010
0001
0100
1000
,
0100
0000
0100
0000
,
0010
0000
0100
0000
,
1000
0000
0100
0000
,
0010
0000
0000
0000
0002
0003
1000
0000
,
1000
0100
1000
0100
,
0000
0100
0010
0001
,
0100
0000
0001
0000
0100
0001
0100
0000
,
0010
0100
0000
0100
,
1000
0100
1000
0100
,
0000
0100
0010
0001
,
0100
0000
0001
0000
0100
0001
0100
0000
,
0010
0100
0000
1000
,
1000
0100
1000
0100
,
0000
0010
0001
0010
,
0000
0100
1000
0100
,
0000
0100
0010
0100
,
0000
0100
0010
0001
,
0000
0010
0100
1000
,
0000
1000
0100
0010
,
0000
0100
0010
0100
,
1000
0000
1000
0000
,
0100
0000
0000
0001
,
0000
0010
0000
0100
,
0000
1000
0000
0100
,
0000
0100
0000
0010
,
0000
0100
0000
1000
,
0000
0100
0000
0010
,
0000
0001
1000
0000
,
1000
0000
0001
0000
,
0001
0000
1000
0000
,
0000
1000
0100
0000
,
0100
0010
0001
0000
,
0100
0010
0001
0000
,
0000
0100
0100
1000
,
0100
1000
0100
0010
,
0001
0000
0100
0001
0100
0000
0010
0100
,
0010
1000
0100
1000
,
0000
1000
0100
0010
,
0001
0100
0001
0010
,
0100
0000
0001
0100
0001
0000
0010
0100
,
0010
0000
1000
0100
1000
0000
0100
0010
,
0100
0010
0100
0010
,
0000
0001
0100
0001
,
0000
1000
0010
1000
,
0000
0100
0010
0100
,
0000
0001
0100
0001
,
0000
0010
0001
0010
,
0000
0100
1000
0100
,
0000
0010
0100
0010
,
0000
0001
0000
0000
;

//--------------- dance-single - Wrland ----------------
#NOTEDATA:;
#STEPSTYPE:dance-single;
#DESCRIPTION:Wrland;
#DIFFICULTY:Medium;
#METER:7;
#RADARVALUES:0,0,0,0,0;
#NOTES:
0000
0000
0000
0000
,
0000
0000
0000
0000
,
1000
0000
0100
0000
1000
0000
0100
0000
0020
0030
0100
0000
0010
0000
0001
0000
,
0020
0030
0100
0000
0010
0000
0100
0000
2000
3000
0100
0000
0010
0000
0001
0000
,
0100
0100
0010
0100
,
0010
0001
0010
0100
,
1000
0100
1000
0100
,
0010
0000
0100
0000
0020
0030
0100
0000
,
1000
0100
1000
0100
,
0010
0100
0010
0001
,
0100
0001
0100
0000
0010
0000
0100
1000
,
0100
0000
0010
0000
0001
0000
0100
0000
0001
0100
0001
0000
0010
0000
0000
0000
,
0100
1000
0100
1000
,
0100
0000
0010
0000
0100
0000
0010
0100
,
0010
0000
1000
0100
1000
0000
0100
0010
,
0001
0000
0100
0000
0001
0000
0100
0000
0001
0100
0001
0000
0010
0000
0000
0000
,
0100
0000
0000
0000
1000
0000
0000
0100
0000
0010
0000
0002
0000
0000
0000
0000
,
0003
0000
0000
0000
0001
0000
0000
0010
0000
0100
0000
2000
0000
0000
0000
0000
,
3000
0000
0000
0000
1000
0000
0000
0100
0000
0010
0000
0002
0000
0000
0000
0000
,
0003
0000
0000
0000
0001
0000
0000
0010
0000
0100
0000
2000
0000
0000
0000
0000
,
3000
0000
0000
0000
0100
0000
0000
0010
0000
0100
0000
0020
0000
0000
0000
0000
,
0030
0000
0000
0000
0010
0000
0000
0100
0000
0010
0000
0200
0000
0000
0000
0000
,
0300
0000
0000
0000
0001
0000
0000
0100
0000
0001
0000
0200
0000
0000
0000
0000
,
0300
0000
0000
0000
0010
0000
0000
1000
0000
0010
0000
2000
0000
0000
3000
0000
,
1000
0100
1000
0100
,
0010
0100
0010
0001
,
0100
0010
0100
0010
,
0001
0100
1000
0100
,
1000
0100
0010
0100
,
0010
0001
0100
0010
,
0100
1000
0100
0100
,
0010
0000
0200
0300
0020
0030
0200
0300
,
0020
0030
0002
0003
0200
0300
2000
3000
,
0200
0300
0020
0030
0100
0000
0100
0000
,
0010
0010
0001
0001
,
0100
0100
0010
0010
,
0100
0100
0010
0010
,
0000
0000
0100
0001
0010
0000
0000
0000
0100
0000
0000
0000
1000
0000
0000
0000
,
0100
0000
1000
0000
0100
0010
0001
0000
,
0100
0010
0100
0010
,
0001
0000
0100
0001
0100
0001
0010
0100
,
0010
0100
0010
0000
0100
0000
0000
0000
1000
0000
0000
0000
0100
0000
0000
0000
,
1000
0100
0001
0010
,
0100
1000
0100
1000
,
0100
0000
1000
0100
0010
0001
0100
0001
,
0100
0001
0100
0000
0010
0000
0000
0000
0100
0000
0000
0000
1000
0000
0000
0100
,
0000
0010
0000
0002
0000
0000
0000
0000
0103
0000
0000
0000
0001
0000
0000
0010
,
0000
0100
0000
2000
0000
0000
0000
0000
3100
0000
0000
0000
1000
0000
0000
0100
,
0000
1000
0000
0200
0000
0000
0000
0000
0310
0000
0000
0000
0010
0000
0000
0100
,
0000
0010
0000
0200
0000
0000
0000
0000
0310
0000
0000
0000
0010
0000
0000
0001
,
0000
0010
0000
0200
0000
0000
0000
0000
0320
0030
0000
0000
0010
0000
0000
0100
,
0000
1000
0000
0200
0000
0000
0000
0000
1300
0000
0000
0000
0100
0000
0000
0010
,
0000
0001
0000
0200
0000
0000
0000
0000
0310
0000
0000
0000
0100
0000
0000
0010
,
0000
0100
0000
0010
0000
0000
0000
0000
0000
0000
0000
0000
0000
0000
0000
0000
;

//--------------- dance-single - Wrland ----------------
#NOTEDATA:;
#STEPSTYPE:dance-single;
#DESCRIPTION:Wrland;
#DIFFICULTY:Hard;
#METER:11;
#RADARVALUES:0,0,0,0,0;
#NOTES:
0000
0000
0000
0000
,
0000
0000
0000
0000
,
1000
0000
0001
0000
1000
0000
0001
0000
1000
0000
0100
0010
0000
0100
0000
0020
0000
0000
0030
0000
0100
0000
0010
0100
0000
0010
0000
0001
0000
0010
0000
0200
,
0000
0000
0300
0000
1000
0000
0100
0000
1000
0000
0100
0000
0010
0000
0001
0000
0200
0000
0300
0000
0010
0000
0100
0000
0010
0000
0100
0001
0000
0010
0000
2000
,
0000
0000
3000
0000
0100
0000
0010
0000
0001
0000
0010
0100
0000
0010
0000
0002
,
0000
0000
0003
0000
0100
0000
0001
0010
0000
0100
0000
1000
0000
0100
0000
2000
,
0000
0000
3000
0000
1000
0000
0100
0010
0000
0001
0000
0100
0000
0010
0000
0200
,
0000
0000
0000
0000
0300
0000
1000
0000
0100
0000
0000
0000
0100
0000
0010
0000
1000
0000
0000
0010
0000
0000
0100
0000
0100
0000
0000
0000
0010
0000
0100
0000
,
0010
0000
0001
1000
0100
0000
0010
0000
0100
0000
0010
0000
0100
0000
0010
0000
,
0100
0000
0010
0000
0001
0000
1000
0000
0100
0000
0010
0000
0100
0000
0001
0100
,
0001
0010
0100
1000
0100
0010
0001
0100
,
0001
0000
0100
0000
0001
0000
0100
0000
0001
0100
0001
0000
0010
0000
0100
0000
,
0010
1000
0100
0010
0001
0100
0010
0100
,
0010
0001
0100
0001
0100
0010
1000
0100
,
1000
0100
0010
0100
0010
0001
0100
0001
,
0100
0000
0001
0000
0100
0000
0001
0000
0100
0001
0100
0000
0010
0000
1000
0000
,
0100
0000
1000
0000
0100
0000
0000
1000
0000
0100
0000
0020
0000
0030
0100
0000
,
0010
0000
0100
0000
0010
0000
0000
0001
0000
0010
0000
0200
0000
0300
0000
0000
,
0010
0000
0100
0000
0010
0000
0000
0001
0000
0100
0000
0020
0000
0000
0030
0000
,
0100
0000
0010
0000
0001
0000
0000
0010
0000
0100
0000
1000
0100
0000
1000
0000
,
0100
0000
0010
0000
0100
0000
0000
0010
0000
0100
0000
0010
0001
0000
0100
0000
,
0100
0000
0010
0000
0100
0000
0000
0010
0000
0100
0000
0020
0000
0030
1000
0000
,
0100
0000
0010
0000
0001
0000
0000
0100
0000
0010
0000
0100
0000
0000
0010
0000
,
1000
0000
0100
0000
0010
0000
0000
0100
0000
0010
0000
0002
0000
0003
0100
0000
,
0010
0000
0100
0000
0010
0000
0100
0010
0000
0001
0000
0020
0000
0000
0030
0000
,
0100
0000
1000
0000
0100
0000
1000
0100
0000
1000
0000
0100
0000
0000
0000
0000
,
0100
0000
0010
0000
0001
0000
0100
0001
0000
0100
0000
0010
0000
0000
0000
0000
,
0100
0010
0001
0100
0010
0000
0100
1000
,
0100
0000
0010
0000
0001
0000
0100
0001
0000
1000
0000
0100
0000
0000
0000
0000
,
0100
0000
0010
1000
0000
0000
0000
0000
0100
0000
0010
0200
0000
0000
0300
0000
,
0001
0000
0100
1000
0000
0000
0000
0000
0100
0000
0010
0100
0000
0000
0000
0000
,
0010
0000
0000
0000
0100
0000
0010
0000
0000
1000
0000
0010
0000
0200
0000
0300
0020
0000
0000
0030
0200
0000
0000
0000
0300
0000
0000
0000
0000
1000
0000
0000
,
0200
0000
0000
0000
0000
0000
0300
0000
0020
0000
0000
0000
0000
0030
0000
0200
0000
0000
0000
0000
0000
0000
0000
0000
0300
0000
0000
0000
0100
0000
0000
0020
,
0000
0030
0100
0010
,
0100
0000
0010
0001
0100
0000
0010
0000
,
0100
0000
1000
0100
1000
0000
0100
0000
,
0001
0000
0000
0000
0100
0000
0000
0000
0010
0000
0100
0000
0010
0000
0100
0010
,
0100
0000
0010
0100
0010
0000
0001
0000
0100
0000
0001
0000
0010
0000
0100
0000
,
0010
0100
0010
0000
1000
0000
0100
0000
1000
0000
0100
0000
0010
0000
0001
0000
,
0100
0000
0010
0000
0100
0000
0010
0000
0001
0100
0001
0000
0010
0000
0100
0000
,
1000
0100
1000
0100
1000
0100
0010
0001
,
0100
0001
0100
0000
0010
0000
0100
0000
1000
0000
0100
0000
1000
0000
0100
0000
,
0010
0001
0100
0010
0100
0010
0100
1000
,
0100
0010
0001
0100
0010
0100
0010
1000
,
0100
0010
0001
0100
0010
0100
0010
0001
,
0100
0001
0100
0000
0010
0000
0100
0000
1000
0000
0100
0000
1000
0000
0000
0100
,
0000
0010
0000
0200
0000
0000
0300
0000
0010
0000
0100
0000
0010
0000
0000
0001
,
0000
0100
0000
0020
0000
0000
0030
0000
0100
0000
1000
0000
0200
0000
0300
1000
,
0000
0100
0000
0010
0000
0000
0001
0000
0100
0010
1000
0000
0100
0000
0000
0010
,
0000
0100
0000
0020
0000
0030
1000
0000
0001
0100
0010
0000
0100
0000
0000
0010
,
0000
0100
0000
0020
0000
0000
0030
0000
0001
0000
0100
0000
0010
0000
0000
0100
,
0000
1000
0000
0200
0000
0000
0300
0000
0100
0000
0010
0000
0001
0000
0000
0100
,
0000
0010
0000
0200
0000
0000
0300
0000
0010
0000
0001
0000
0100
0000
0000
0010
,
0000
0100
0000
0110
0000
0000
0000
0000
0000
0000
0000
0000
0000
0000
0000
0000
;
