#TITLE:La Tortura ft. Alejandro Sanz;
#SUBTITLE:;
#ARTIST:Shakira;
#TITLETRANSLIT:;
#SUBTITLETRANSLIT:;
#ARTISTTRANSLIT:;
#GENRE:Latin;
#CREDIT:Wrland;
#MUSIC:La Tortura ft. Alejandro Sanz.ogg;
#BANNER:La Tortura ft. Alejandro Sanz.png;
#BACKGROUND:BG.png;
#CDTITLE:Wrland Season 3 CITYGHT + last one night.png;
#PREVIEWVID:preview.mp4;
#SAMPLESTART:69.600;
#SAMPLELENGTH:12.000;
#SELECTABLE:YES;
#OFFSET:0.000;
#BPMS:0.000=100.000
,86.000=50.000
,87.000=100.000
,167.000=25.000
,168.000=100.000
;
#STOPS:;
#DISPLAYBPM:100.000;
#LYRICSPATH:La Tortura ft. Alejandro Sanz.lrc;
#JACKET:La Tortura ft. Alejandro Sanz-jacket.png;
#CDIMAGE:La Tortura ft. Alejandro Sanz-cd.png;
#METERTYPE:DDR X;
#BGCHANGES:0.000=La Tortura ft. Alejandro Sanz.avi=1.000=0=0=0=StretchNoLoop====,
99999.000=-nosongbg-=1.000=0=0=0=StretchNoLoop====
;
#FGCHANGES:;

//--------------- dance-single - Wrland ----------------
#NOTES:
     dance-single:
     Wrland:
     Beginner:
     1:
     0,0,0,0,0:
0000
0000
0000
0000
,
0000
0000
0000
0000
,
0000
0000
0000
0000
,
0000
0000
0000
0000
,
0100
0000
0000
0000
,
0000
0000
0000
0000
,
0010
0000
0000
0000
,
0000
0000
0000
0000
,
0100
0000
0000
0000
,
0000
0000
0000
0000
,
0100
0000
0000
0000
,
0000
0000
0000
0000
,
1000
0000
0000
0000
,
0000
0000
0000
0000
,
0001
0000
0000
0000
,
0000
0000
0000
0000
,
0001
0000
0000
0000
,
0000
0000
0000
0000
,
1000
0000
0000
0000
,
0000
0000
0000
0000
,
0100
0000
0000
0000
,
0000
0000
0000
0010
,
0000
0000
0000
0000
,
0000
0000
0000
1000
,
0000
0000
0000
0000
,
0000
0000
0000
0010
,
0000
0000
0000
0000
,
0000
0000
0000
0100
,
0000
0000
0000
0000
,
0000
0000
0000
0001
,
0000
0000
0000
0000
,
0000
0000
0000
1000
,
0000
0000
0000
0000
,
0000
0000
0000
0100
,
0000
0000
0000
0000
,
0000
0000
0000
0010
,
0000
0000
0000
0000
,
0000
0000
0000
0100
,
0000
0000
0000
0000
,
0000
0000
0000
0001
,
0000
0000
0000
0000
,
0000
0000
0000
0000
0000
0000
2000
3000
,
0000
0000
0000
0000
,
0010
0000
0000
0000
,
0000
0000
0000
0000
,
0100
0000
0000
0000
,
0000
0000
0000
0000
,
0010
0000
0000
0000
,
0000
0000
0000
0000
,
0100
0000
0000
0000
,
0000
0000
0000
0000
,
0010
0000
0000
0000
,
0000
0000
0000
0000
,
0100
0000
0000
0000
,
0000
0000
0000
0000
,
0001
0000
0000
0000
,
0000
0000
0000
0000
,
1000
0000
0000
0000
,
0000
0000
0000
0000
,
0001
0000
0000
0000
,
0000
0000
0000
0000
,
1000
0000
0000
0000
;

//--------------- dance-single - Wrland ----------------
#NOTES:
     dance-single:
     Wrland:
     Easy:
     4:
     0,0,0,0,0:
0000
0000
0000
0000
,
0000
0000
0000
0000
,
0000
0000
0000
0000
,
0000
0000
0000
0000
,
1000
0000
1000
0000
,
0100
0000
0010
0000
,
0001
0000
0010
0000
,
0100
0000
0100
0000
,
1000
0000
1000
0000
,
0100
0000
1000
0000
,
0100
0000
0010
0000
,
0001
0000
0100
0000
,
0010
0000
0100
0000
,
1000
0000
1000
0000
,
0100
0000
0100
0000
,
0010
0000
0010
0000
,
0001
0000
0001
0000
,
1000
0000
1000
0000
,
0100
0000
1000
0000
,
0100
0000
1000
0000
,
0010
0000
0001
0000
,
0100
0000
0000
0000
0220
0330
0001
0000
,
0000
0001
0000
1000
,
0000
1000
0000
0100
,
0000
0100
0000
0010
,
0000
0001
0000
0010
,
0000
0100
0000
1000
,
0000
1000
0000
0100
,
0000
0100
0000
0010
,
0000
0001
0000
1000
,
0000
1000
0000
0100
,
0000
0100
0000
1000
,
0000
1000
0000
0100
,
0000
0010
0000
0100
,
0000
0100
0000
1000
,
0000
1000
0000
1000
,
1000
1000
0000
0001
,
0001
0001
0000
0100
,
0100
0100
0000
0010
,
0010
0010
0000
0100
,
0100
0100
0000
0010
,
0100
0000
0000
0000
0000
0000
0000
0000
0010
0000
0000
0000
0000
0000
0000
0000
0000
0000
0000
0000
0000
0000
0000
0000
0220
0000
0000
0000
0330
0000
0000
0001
,
1100
0000
0100
0000
,
1000
0000
0100
0000
,
0010
0000
0001
0000
,
0001
0000
0010
0000
,
0100
0000
1000
0000
,
0100
0000
0100
0000
,
1000
0000
0100
0000
,
0010
0000
0001
0000
,
0010
0000
0100
0000
,
1000
0000
1000
0000
,
0100
0000
1000
0000
,
0100
0000
0001
0000
,
0100
0000
0010
0000
,
0100
0000
1000
0000
,
0100
0000
0010
0000
,
0100
0000
1000
0000
,
0100
0000
1000
0000
,
0010
0000
0001
0000
,
0010
0000
0001
0000
;

//--------------- dance-single - Wrland ----------------
#NOTES:
     dance-single:
     Wrland:
     Medium:
     7:
     0,0,0,0,0:
0000
0000
0000
0000
,
0000
0000
0000
0000
,
0000
0000
0000
0000
,
0000
0000
0000
0000
,
1000
0000
1000
0000
0100
1000
0100
0000
,
0001
0000
0000
0100
0000
0000
0010
0000
0100
0000
0000
0000
0010
0000
0000
0000
,
0100
0000
0100
0000
1000
0100
0010
0000
,
0100
0000
0000
0010
0000
0000
0100
0000
0000
0000
0000
0010
0000
0000
0100
0000
,
0010
0100
0010
0001
,
0200
0000
0300
0010
0000
0000
0000
0000
1000
0000
0000
0001
1000
0000
0000
0100
,
0020
0000
0030
0100
0000
0000
0010
0000
0000
0000
0000
0100
0000
0000
0010
0000
,
0001
0000
0000
0100
0000
0000
0010
0000
0200
0000
0300
0000
0220
0000
0330
0000
,
0001
0000
0000
1000
0000
0000
0100
0000
1000
0000
0000
0000
0100
0000
0000
1000
,
0200
0000
0300
0010
0000
0000
0100
0000
0020
0000
0030
0000
0001
0000
0000
0000
,
0100
0000
0000
0100
0000
0000
0220
0000
0330
0000
0000
0000
0010
0000
0000
0000
,
0001
0000
0000
0001
0000
0000
0101
0000
0200
0000
0300
0000
0010
0000
0000
0000
,
0200
0000
0000
0000
2300
0000
0000
0000
3100
0000
0000
1000
0100
0010
0000
0100
,
0000
0010
0000
0002
0000
0000
0103
0000
0010
0000
0000
0100
0000
0000
0010
0000
,
0100
0000
0000
0020
0000
0000
0031
0000
0100
0000
0010
0100
0010
0000
0100
0000
,
0100
0010
0000
1000
0100
0010
0000
0100
0001
0100
0000
0010
1000
0010
0000
0100
,
0002
0000
0000
0000
0203
0000
0000
1300
0000
0000
0000
0100
0000
0000
0010
0000
,
0010
0000
0000
0000
0000
0000
0100
0000
0010
0000
0000
0000
0100
0000
0000
0000
0010
0000
0000
0010
0100
0000
0010
0000
1000
0000
0000
0000
0000
0000
0100
0000
,
0000
0100
0010
0000
0100
0000
0010
0000
0001
0000
2000
3000
0001
0000
0000
2000
,
0000
0000
3010
0000
0100
0000
1000
0000
0100
0000
0020
0000
0030
0100
0000
0010
,
0000
0001
0100
0001
0100
0000
0010
0000
0100
0000
0020
0000
0030
0001
0000
0100
,
0000
0001
0100
0000
0010
0000
0100
0000
1000
0000
0100
0000
0010
0000
0000
0001
,
0000
0000
1000
0000
0100
0000
0001
0000
0100
0000
0020
0000
0030
0100
0000
0010
,
0000
0100
0010
0000
0100
0000
0010
0000
0001
0000
0200
0000
0000
0310
0000
0100
,
0000
0010
0100
0010
0001
0000
1000
0000
0100
0000
0010
0000
1100
0000
0000
0011
,
0000
0000
1001
0000
0101
0000
0000
0011
0000
0000
1100
0000
1100
0000
0100
0000
,
0001
0000
0020
0000
0030
0000
0100
0000
1000
0000
0100
0000
2000
0000
0000
3100
,
0000
0000
0100
0000
0000
0000
0100
0000
0010
0000
0100
0000
0010
0000
0001
0100
,
0001
0100
0002
0000
0003
0000
0010
0000
0100
0000
0000
0000
0200
0000
0000
0310
,
0000
0000
0200
0000
0300
0000
0000
0100
0000
0000
0010
0000
0100
0000
0010
0001
,
0100
0000
0001
0000
0100
0000
1000
0100
1000
0000
0100
0000
0010
0000
0001
0000
,
0100
0001
0100
0001
0000
0010
0000
0100
0010
0000
0100
0000
0020
0000
0000
0030
,
0100
0000
0010
0000
0001
0000
0000
0010
0100
0000
1000
0000
0200
0000
0300
1000
,
0100
0000
1000
0000
0200
0000
0300
0001
0000
0000
0100
0000
0020
0000
0030
0000
,
0200
0000
0300
0000
0010
0100
0000
0010
0000
0100
0001
1000
0100
0000
0010
0000
,
0100
0000
0010
0000
0100
0010
0000
0002
0000
0000
0003
0000
0200
0000
0300
0000
,
2000
0000
3000
0000
0100
0000
1000
0000
0100
0000
0010
0000
0000
1000
0010
0100
,
1000
0000
0000
0000
0010
0000
0000
0000
0200
0000
0000
0000
0000
0000
0300
0000
0020
0000
0000
0000
0030
0000
0000
0000
0220
0000
0000
0000
0000
0000
0330
1000
,
0101
0000
0000
0010
0000
0100
0010
0000
0200
0000
0000
0300
0010
0000
0200
0000
,
0300
0010
0000
0002
0000
0000
0003
0000
0100
0000
1000
0000
0100
0000
2000
0000
,
3000
0010
0000
0100
0000
0010
0100
0000
0010
0000
0001
0000
0100
0000
0001
0000
,
0200
0000
0300
0000
2000
0000
3000
0000
0100
0000
1000
0000
0100
0000
2000
3000
,
0000
0100
0000
0010
0000
0100
0010
0000
0100
0000
0010
0000
0001
0000
0100
0000
,
0010
0100
0000
0000
1000
0000
1100
0000
,
0100
0000
0000
0000
0110
0000
0000
0000
0001
0000
0000
0100
0000
0000
0001
0000
,
0100
0000
0000
0010
0000
0100
0020
0000
0000
0000
0030
1000
0000
0000
2000
0000
,
0000
3000
0000
0100
0000
0010
0100
0000
0010
0000
0001
0000
0100
0000
0002
0000
,
0003
0000
0000
0010
0000
0100
0010
0000
0100
0000
1000
0000
0100
0000
2000
0000
,
3000
0100
0000
0010
0000
0100
0010
0000
0100
0000
0010
0000
0010
0000
0001
0000
,
0020
0000
0030
1000
0000
0100
0001
0000
0010
0000
0100
0000
0010
0000
0200
0000
,
0300
0000
0000
0100
0000
0010
0100
0010
0002
0000
0000
0003
0100
0000
1000
0100
,
2000
0000
3000
0200
0000
0300
0010
0000
0100
0000
0010
0000
0100
0000
0000
0000
,
1000
1000
0100
0010
,
0100
1000
1000
0100
,
1000
0000
0100
0000
0100
0010
0100
0000
,
0001
0001
0010
0100
,
1000
0000
0100
0000
1000
0100
0010
0000
;

//--------------- dance-single - Wrland ----------------
#NOTES:
     dance-single:
     Wrland:
     Hard:
     10:
     0,0,0,0,0:
0000
0000
0000
0000
,
0000
0000
0000
0000
,
0000
0000
0000
0000
,
0000
0000
0000
0000
0000
0000
0000
0000
1000
0000
0001
0000
1000
0001
1000
0001
,
1000
0000
0100
0010
0100
0010
0200
0000
0300
0000
0010
0100
0000
0010
0001
0000
,
0200
0000
0300
0020
0000
0030
0200
0300
0001
0000
0010
0001
0000
0001
0020
0030
,
1100
0000
0100
0010
0100
0010
0200
0000
0300
0000
0001
0010
0000
0010
0001
0000
,
0022
0033
0000
0220
0330
0000
2200
3300
1100
0000
0000
0202
0303
0000
1010
0100
,
0101
0010
0000
0010
0100
0001
0000
0010
0100
0010
0000
0001
0000
0100
0000
0001
,
0200
0300
0000
0010
0000
0000
1000
0010
0200
0300
0000
0010
0100
0010
0000
0001
,
0200
0000
0300
0020
0000
0030
0100
0000
0020
0000
0030
0100
0010
0000
1000
0010
,
0000
0000
0000
0002
0000
0000
0003
0000
0000
2000
0000
0000
0000
0000
0000
3000
0000
0000
0100
0000
0000
0000
0000
0000
0101
0000
0000
0000
1100
0000
0000
0000
0011
0000
0000
0000
2200
0000
0000
3300
0000
0000
0010
0000
0000
0100
0000
0000
,
0010
0200
0300
0100
0020
0030
0000
1000
0100
0010
0000
0001
1000
0100
0000
0001
,
2000
0000
3000
0200
0000
0300
0010
0001
0100
1000
0000
0010
0100
0010
0100
0000
,
0020
0000
0030
0200
0000
0300
0010
0000
0002
0000
0003
0100
0001
0000
1000
0002
,
0003
0020
0030
0200
0000
0300
0010
0000
0100
0000
0010
0000
0100
0000
0010
0001
,
0200
0300
0010
0100
0020
0030
0001
0100
0002
0000
0003
0100
1000
0200
0300
0010
,
0000
0100
0000
0020
0000
0030
0100
0000
0020
0000
0030
0100
0001
0200
0300
0020
,
0030
0200
0300
0020
0030
0000
0200
0300
0020
0000
0030
0100
0020
0030
0001
0100
,
0001
0200
0300
0010
0100
0020
0030
1000
0100
2000
3000
0100
0010
0200
0300
0001
,
2002
3003
0100
0010
2200
3300
0100
1000
0022
0000
0033
0200
0000
0300
0010
0000
,
0100
0000
0010
0000
0000
0000
0010
0000
0100
0000
0000
0000
0001
0000
0000
0000
2002
0000
3003
0001
1000
0000
1001
0000
0110
0000
0000
0000
0000
0000
0100
0000
,
0000
0010
0200
0300
0020
0030
0002
0003
0200
0300
0002
0000
0003
0020
0030
0100
,
0000
1000
0200
0300
2000
3000
0200
0300
0002
0003
0200
0300
0000
0002
0003
0100
,
0000
0001
0100
0001
0200
0300
0020
0030
0200
0300
2000
3000
0000
0100
0000
1000
,
0000
0100
0020
0030
0200
0300
0020
0030
0002
0003
0200
0300
0020
0030
0000
0100
,
0000
1000
0200
0300
2000
3000
0200
0300
0002
0003
0200
0300
0000
0002
0003
0100
,
0000
0010
0200
0300
0020
0030
0002
0003
0200
0300
2000
0000
3000
0200
0300
1000
,
0000
0100
1000
0100
1000
0000
0100
0000
0020
0030
0002
0003
0100
0001
0100
0001
,
0100
0001
0100
0001
0010
1000
0010
1000
0010
1000
0010
1000
1001
0000
0010
0100
,
0010
0100
0020
0030
0100
0000
0010
0001
0000
0001
0200
0300
0002
0000
0003
0020
,
0000
0030
0200
0300
1000
0000
0100
1000
0000
0100
0010
0000
0001
0000
0100
0001
,
0100
0001
0100
1000
0100
1000
0200
0000
0300
0000
0100
0000
0022
0033
0000
0220
,
0330
0000
2002
3003
0101
0000
0000
0022
0000
0033
2200
3300
0220
0330
0010
1000
,
0200
0300
0010
0000
0100
0000
0010
1000
0200
0300
0001
0000
0010
0100
0010
0100
,
0010
0100
0010
0100
0000
0010
0000
0001
0200
0300
0001
0000
0100
0000
0010
0001
,
0100
0000
0010
0100
0010
0000
0001
0100
0001
0000
0001
0000
1001
0000
1000
0100
,
1000
0000
0100
0000
0010
0100
0010
0100
0010
0001
0100
0001
0100
0000
0001
0000
,
0001
0000
0100
0010
0100
0010
0000
0100
0000
1000
0100
1000
0200
0300
2000
3000
,
0100
0000
0010
0100
0001
0200
0300
0002
0000
0000
0003
0000
0100
0000
0010
0000
,
0100
0000
0010
0000
0001
0100
0001
0000
0010
0000
0100
0000
0100
0000
1000
0000
,
0100
0000
0000
0000
1000
0000
0000
0000
0100
0000
1000
0000
0100
0000
0000
0000
0010
0000
0000
0000
0100
0000
0000
0000
0220
0000
0000
0000
0000
0000
0330
1001
,
2002
0000
3003
0100
0000
0010
0100
0000
0020
0030
0200
0300
0020
0030
0002
0000
,
0003
0200
0300
0010
0000
0100
0010
0100
0020
0030
0200
0300
2000
3000
0200
0300
,
0000
1000
0000
0100
0000
1000
0100
0000
0020
0030
0002
0003
0200
0300
0002
0003
,
0200
0000
0300
0010
0000
0100
0020
0030
0100
0000
0010
0000
0001
0000
0200
0000
,
0300
0010
0000
0100
0000
1000
0100
0000
1000
0000
0100
0000
0010
0000
0001
1000
,
0000
0010
0000
0100
0010
0100
0010
0000
0101
0000
1000
0010
0001
0100
0010
0000
,
1100
0000
0100
0010
0100
0010
0100
0000
0202
0000
0303
0220
0000
0330
2002
3003
,
0110
0000
0100
0010
0000
0100
0010
0000
0001
0000
0100
0001
0000
0000
0200
0000
,
0000
0300
0000
0010
0000
0100
0010
0000
0100
0000
0010
0000
0001
0000
0200
0300
,
0020
0000
0030
1000
0000
0100
1000
0000
0100
0000
0010
0000
0001
0000
0200
0000
,
0300
0010
0000
0100
0000
0010
0100
0000
0010
0000
0001
0000
0100
0000
0010
0000
,
0200
0000
0300
1000
0000
0100
1000
0000
0100
0000
0010
0000
0002
0003
0100
0000
,
0010
0000
0001
0000
1000
0001
1000
0000
1001
0000
0100
0010
1000
0100
0010
0001
,
0020
0000
0030
0200
0000
0300
0010
0000
0100
0000
0010
0100
0010
0000
0001
0000
,
0220
0000
0330
0202
0000
0303
2002
3003
2200
3300
0220
0330
0202
0303
1001
0000
,
0000
1000
0100
0010
0000
1000
0100
1000
0000
0010
0001
0010
0000
0100
0010
0100
,
0000
1000
0100
1000
0000
0001
0010
0100
0000
0010
0100
0010
0000
0001
0100
0001
,
0000
0010
0100
0010
0000
1000
0100
1000
0000
0100
0010
0100
0000
0001
0100
0001
,
0000
0010
0100
0010
0000
1000
0100
1000
0000
1000
0001
1000
0000
0001
1000
0001
;
