#TITLE:LOVE DIVE;
#SUBTITLE:;
#ARTIST:아이브;
#TITLETRANSLIT:;
#SUBTITLETRANSLIT:;
#ARTISTTRANSLIT:IVE;
#GENRE:K-Pop;
#CREDIT:;
#BANNER:LOVE DIVE-vb.avi;
#BACKGROUND:LOVE DIVE-bg.png;
#LYRICSPATH:;
#CDTITLE:Wrland Season 3 CITYGHT.png;
#MUSIC:LOVE DIVE.ogg;
#OFFSET:-0.019000;
#SAMPLESTART:40.692001;
#SAMPLELENGTH:12.000000;
#SELECTABLE:YES;
#DISPLAYBPM:59.000000:118.000000;
#BPMS:0.000000=118.013000
,144.000000=59.007000
,160.000000=118.013000
;
#STOPS:
;
#BGCHANGES:0.000=LOVE DIVE.avi=1.000=0=0=0=StretchNoLoop====,
99999.000=-nosongbg-=1.000=0=0=0=StretchNoLoop====,
99999=-nosongbg-=1.000=0=0=0 // don't automatically add -songbackground-
;
#KEYSOUNDS:;
#ATTACKS:;

//---------------dance-single - ----------------
#NOTES:
     dance-single:
     :
     Beginner:
     1:
     0.033846,0.065609,0.009112,0.000000,0.000000,26.000000,25.000000,1.000000,0.000000,0.000000,0.000000,0.000000,0.000000,0.000000,0.033846,0.065609,0.009112,0.000000,0.000000,26.000000,25.000000,1.000000,0.000000,0.000000,0.000000,0.000000,0.000000,0.000000:
// measure 0
0000
0000
0000
0000
,  // measure 1
0000
0000
0000
0000
,  // measure 2
0000
0000
0000
0000
,  // measure 3
0000
0000
0000
0000
,  // measure 4
1000
0000
0000
0000
,  // measure 5
0000
0000
0000
0000
,  // measure 6
1000
0000
0000
0000
,  // measure 7
0000
0000
0000
0000
,  // measure 8
0001
0000
0000
0000
,  // measure 9
0000
0000
0000
0000
,  // measure 10
0001
0000
0000
0000
,  // measure 11
0000
0000
0000
0000
,  // measure 12
0100
0000
0000
0000
,  // measure 13
0000
0000
0000
0000
,  // measure 14
0010
0000
0000
0000
,  // measure 15
0000
0000
0000
0000
,  // measure 16
0100
0000
0000
0000
,  // measure 17
0000
0000
0000
0000
,  // measure 18
0010
0000
0000
0000
,  // measure 19
0000
0000
0000
0000
,  // measure 20
0100
0000
0000
0000
,  // measure 21
0000
0000
0000
0000
,  // measure 22
0001
0000
0000
0000
,  // measure 23
0000
0000
0000
0000
,  // measure 24
1000
0000
0000
0000
,  // measure 25
0000
0000
0000
0000
,  // measure 26
0001
0000
0000
0000
,  // measure 27
0000
0000
0000
0000
,  // measure 28
0100
0000
0000
0000
,  // measure 29
0000
0000
0000
0000
,  // measure 30
0010
0000
0000
0000
,  // measure 31
0000
0000
0000
0000
,  // measure 32
0100
0000
0000
0000
,  // measure 33
0000
0000
0000
0000
,  // measure 34
0010
0000
0000
0000
,  // measure 35
0000
0000
0000
0000
,  // measure 36
0100
0000
0000
0000
,  // measure 37
0010
0000
0000
0000
,  // measure 38
1000
0000
0000
0000
,  // measure 39
0001
0000
0000
0000
,  // measure 40
0100
0000
0000
0000
,  // measure 41
0000
0000
0000
0000
,  // measure 42
0010
0000
0000
0000
,  // measure 43
0000
0000
0000
0000
,  // measure 44
0100
0000
0000
0000
,  // measure 45
0000
0000
0000
0000
,  // measure 46
0010
0000
0000
0000
,  // measure 47
0000
0000
0000
0000
,  // measure 48
1001
0000
0000
0000
;

//---------------dance-single - ----------------
#NOTES:
     dance-single:
     :
     Easy:
     2:
     0.065088,0.109348,0.009112,0.072899,0.000000,50.000000,49.000000,1.000000,8.000000,0.000000,0.000000,0.000000,0.000000,0.000000,0.065088,0.109348,0.009112,0.072899,0.000000,50.000000,49.000000,1.000000,8.000000,0.000000,0.000000,0.000000,0.000000,0.000000:
0000
0000
0000
0000
,
0000
0000
0000
0000
,
0000
0000
0000
0000
,
0000
0000
0000
0000
,
0100
0000
0000
0000
,
0100
0000
0000
0000
,
0010
0000
0000
0000
,
0010
0000
0000
0000
,
0001
0000
0000
0000
,
1000
0000
0000
0000
,
0001
0000
0000
0000
,
1000
0000
0000
0000
,
0100
0000
0000
0000
,
1000
0000
0000
0000
,
0100
0000
0000
0000
,
0010
0000
0000
0000
,
0001
0000
0000
0000
,
0100
0000
0000
0000
,
0010
0000
0000
0000
,
0100
0000
0000
0000
,
1000
0000
0000
0000
,
1000
0000
0000
0000
,
0100
0000
0000
0000
,
1000
0000
0000
0000
,
0001
0000
0000
0000
,
0010
0000
0000
0000
,
0100
0000
0000
0000
,
0100
0000
0000
0000
,
0010
0000
0000
0000
,
0001
0000
0000
0000
,
1000
0000
0000
0000
,
0100
0000
0000
0000
,
1000
0000
0000
0000
,
0001
0000
0000
0000
,
1000
0000
0000
0000
,
0100
0000
0000
0000
,
2000
3000
0002
0003
,
2000
3000
0200
0300
,
0002
0003
0020
0030
,
0200
0300
0020
0030
,
0100
0000
0000
0000
,
1000
0000
0000
0000
,
0100
0000
0000
0000
,
0010
0000
0000
0000
,
0001
0000
0000
0000
,
0100
0000
0000
0000
,
0001
0000
0000
0000
,
0010
0000
0000
0000
,
1001
0000
0000
0000
;

//---------------dance-single - ----------------
#NOTES:
     dance-single:
     :
     Medium:
     5:
     0.253844,0.282825,0.018225,0.100236,0.009112,195.000000,193.000000,2.000000,11.000000,0.000000,0.000000,0.000000,0.000000,0.000000,0.253844,0.282825,0.018225,0.100236,0.009112,195.000000,193.000000,2.000000,11.000000,0.000000,0.000000,0.000000,0.000000,0.000000:
0000
0000
0000
0000
,
0000
0000
0000
0000
,
0000
0000
0000
0000
,
0000
0000
0000
0000
,
1000
0100
1000
0100
,
0001
0100
0010
0100
,
0000
0100
0010
0001
,
0100
1000
0100
0010
,
0000
0100
0010
0001
,
1000
0100
1000
0100
,
0000
0100
0010
0001
,
0100
0010
0100
1000
,
0100
0010
0100
0010
,
0002
0003
1000
0100
,
1000
0100
0010
0001
,
2000
3000
0100
1000
,
0100
1000
0100
0010
,
0002
0000
0003
1000
0000
0000
0100
0010
,
0100
0000
0000
0001
1000
0000
0000
0100
,
0010
0100
0010
0001
,
0100
0001
0000
1000
0000
1000
0000
0100
,
0010
1000
0000
0010
0000
0100
0000
0100
,
0010
0100
0000
0001
0000
1000
0000
0001
,
1000
0001
0100
1000
,
0100
0010
0000
0100
0000
0100
0000
0010
,
0001
0100
0000
0010
0000
1000
0100
0000
,
0001
0100
1000
0000
0010
0100
0001
0000
,
0100
0010
0000
1000
0100
0000
0001
0000
,
1000
0100
0010
0100
,
0020
0000
0000
0000
0030
0000
1000
0000
0001
0000
0100
0000
0010
0000
0100
0010
,
0000
0001
0100
0010
,
0200
0000
0300
0001
1000
0010
0100
0001
,
1000
0100
0010
0001
,
0100
0010
0100
0010
0001
0100
0020
0000
,
0030
0000
0100
0010
0200
0000
0300
0000
,
1000
0100
0000
0010
0001
0000
1001
0000
,
0100
0000
0010
0000
0100
0000
0010
0100
,
0010
0000
0001
0000
0010
0000
0100
0010
,
0100
0000
1000
0000
1000
0000
0100
0001
,
0010
0000
0100
0000
0010
0000
0100
0010
,
0001
1000
0100
1000
,
0200
0000
0000
0000
0300
0000
0010
0000
0100
0000
0010
0000
0001
0000
0100
0010
,
0000
0100
0010
0100
,
0002
0003
1000
0001
,
1000
0100
1000
0100
,
1000
0001
1000
0001
0010
0100
0020
0000
,
0030
0000
0000
0100
0020
0000
0030
0000
,
0001
1000
0000
0100
1000
0000
0110
0000
;

//---------------dance-single - ----------------
#NOTES:
     dance-single:
     :
     Hard:
     8:
     0.369702,0.523505,0.091124,0.783663,0.141242,284.000000,274.000000,10.000000,86.000000,0.000000,0.000000,0.000000,0.000000,0.000000,0.369702,0.523505,0.091124,0.783663,0.141242,284.000000,274.000000,10.000000,86.000000,0.000000,0.000000,0.000000,0.000000,0.000000:
0000
0000
0000
0000
,
0000
0000
0000
0000
,
0000
0000
0000
0000
,
0000
0000
0000
0000
0000
0000
2002
3003
,
0100
0010
0100
0010
0100
0010
0002
0003
,
0100
0000
0010
0000
0100
0000
0010
0000
1000
0000
0100
0000
0100
0000
0000
0100
,
0010
0001
0100
0010
0100
0010
0200
0300
,
0010
0100
1000
0100
0010
0001
0100
0010
,
0100
0010
0100
0100
1000
0100
0020
0030
,
0100
0010
0001
0010
0100
1000
0200
0300
,
0100
0010
0001
0100
0100
0010
2000
3000
,
0100
0010
0001
0100
0010
1000
0200
0300
,
0020
0030
0002
0003
0020
0030
0002
0003
,
0020
0000
0030
0000
0100
0010
0100
0010
,
0002
0003
0200
0300
0020
0030
0200
0300
,
0020
0000
0000
0000
0030
0000
0000
0000
0100
0000
0010
0001
0100
0000
0010
0000
,
0200
0300
0020
0030
0200
0300
2000
3000
,
0200
0000
0300
0020
0030
0000
0100
0010
,
0200
0300
1000
0100
0020
0030
0101
0100
,
0110
0100
0101
0100
1010
0010
0110
0010
,
1001
0020
0030
0200
0300
2000
3000
0100
,
0010
0200
0300
0200
0300
0020
0030
0001
,
0100
0020
0030
0200
0300
0020
0030
0100
,
0010
0000
0000
0000
0110
0000
0000
0000
0010
0000
0001
0010
0100
0000
0010
0001
,
0100
0020
0030
0200
0300
0020
0030
1000
,
0100
0020
0030
0002
0003
0100
0010
1000
,
0010
0000
0100
0010
0001
0000
0100
0000
0010
0000
0100
0010
0001
0000
0000
0000
,
0100
0020
0030
0001
0020
0030
0200
0300
,
2000
3000
0200
0300
0020
0030
0200
0300
,
0020
0000
0030
0000
0000
0000
0010
0001
0100
0000
0010
0000
0100
0000
1000
0200
,
0000
0300
0000
0000
0200
0000
0300
0000
2000
0000
3000
0000
0200
0000
0300
0000
,
0020
0000
0030
0000
0000
0000
0100
0000
0010
0000
0100
0000
0010
0000
0100
0010
,
0200
0300
0020
0030
0002
0003
0020
0030
,
0100
0010
0100
0010
0100
1000
0200
0000
,
0300
0000
0100
0010
0200
0300
0000
0000
,
0100
0020
0030
0001
0200
0300
2000
3000
,
0100
0000
0010
0100
0010
0000
0001
0010
0100
1000
0000
0100
0010
0000
0100
0000
,
0100
0000
0010
0100
1000
0000
0100
0010
0001
0100
0000
0010
0100
0000
1000
0000
,
0100
0000
0100
0100
1000
0000
0100
0010
0001
0100
0000
1000
0100
0000
0010
0000
,
0100
0000
1000
0100
0010
0000
0001
0010
0100
2000
3000
0100
0020
0030
0200
0300
,
0220
0330
0002
0003
0020
0030
0200
0300
,
2000
0000
3000
0000
0000
0000
1000
0100
1000
0000
0100
0000
0100
0000
0010
0001
,
0200
0300
0200
0300
0020
0030
0200
0300
,
0200
0000
0300
0000
0000
0000
0010
0000
0100
0000
0010
0000
0100
0000
0010
0100
,
0020
0030
0002
0003
0020
0030
0200
0300
,
1000
0100
0100
1000
0100
0010
0002
0000
,
0003
0000
0000
0100
0020
0030
0000
0000
,
0100
0020
0030
0001
0020
0030
2002
3003
;

//---------------dance-single - ----------------
#NOTES:
     dance-single:
     :
     Beginner:
     1:
     0.033846,0.065609,0.009112,0.000000,0.000000,26.000000,25.000000,1.000000,0.000000,0.000000,0.000000,0.000000,0.000000,0.000000,0.033846,0.065609,0.009112,0.000000,0.000000,26.000000,25.000000,1.000000,0.000000,0.000000,0.000000,0.000000,0.000000,0.000000:
0000
0000
0000
0000
,
0000
0000
0000
0000
,
0000
0000
0000
0000
,
0000
0000
0000
0000
,
1000
0000
0000
0000
,
0000
0000
0000
0000
,
1000
0000
0000
0000
,
0000
0000
0000
0000
,
0001
0000
0000
0000
,
0000
0000
0000
0000
,
0001
0000
0000
0000
,
0000
0000
0000
0000
,
0100
0000
0000
0000
,
0000
0000
0000
0000
,
0010
0000
0000
0000
,
0000
0000
0000
0000
,
0100
0000
0000
0000
,
0000
0000
0000
0000
,
0010
0000
0000
0000
,
0000
0000
0000
0000
,
0100
0000
0000
0000
,
0000
0000
0000
0000
,
0001
0000
0000
0000
,
0000
0000
0000
0000
,
1000
0000
0000
0000
,
0000
0000
0000
0000
,
0001
0000
0000
0000
,
0000
0000
0000
0000
,
0100
0000
0000
0000
,
0000
0000
0000
0000
,
0010
0000
0000
0000
,
0000
0000
0000
0000
,
0100
0000
0000
0000
,
0000
0000
0000
0000
,
0010
0000
0000
0000
,
0000
0000
0000
0000
,
0100
0000
0000
0000
,
0010
0000
0000
0000
,
1000
0000
0000
0000
,
0001
0000
0000
0000
,
0100
0000
0000
0000
,
0000
0000
0000
0000
,
0010
0000
0000
0000
,
0000
0000
0000
0000
,
0100
0000
0000
0000
,
0000
0000
0000
0000
,
0010
0000
0000
0000
,
0000
0000
0000
0000
,
1001
0000
0000
0000
;

//---------------dance-single - ----------------
#NOTES:
     dance-single:
     :
     Easy:
     2:
     0.065088,0.109348,0.009112,0.072899,0.000000,50.000000,49.000000,1.000000,8.000000,0.000000,0.000000,0.000000,0.000000,0.000000,0.065088,0.109348,0.009112,0.072899,0.000000,50.000000,49.000000,1.000000,8.000000,0.000000,0.000000,0.000000,0.000000,0.000000:
0000
0000
0000
0000
,
0000
0000
0000
0000
,
0000
0000
0000
0000
,
0000
0000
0000
0000
,
0100
0000
0000
0000
,
0100
0000
0000
0000
,
0010
0000
0000
0000
,
0010
0000
0000
0000
,
0001
0000
0000
0000
,
1000
0000
0000
0000
,
0001
0000
0000
0000
,
1000
0000
0000
0000
,
0100
0000
0000
0000
,
1000
0000
0000
0000
,
0100
0000
0000
0000
,
0010
0000
0000
0000
,
0001
0000
0000
0000
,
0100
0000
0000
0000
,
0010
0000
0000
0000
,
0100
0000
0000
0000
,
1000
0000
0000
0000
,
1000
0000
0000
0000
,
0100
0000
0000
0000
,
1000
0000
0000
0000
,
0001
0000
0000
0000
,
0010
0000
0000
0000
,
0100
0000
0000
0000
,
0100
0000
0000
0000
,
0010
0000
0000
0000
,
0001
0000
0000
0000
,
1000
0000
0000
0000
,
0100
0000
0000
0000
,
1000
0000
0000
0000
,
0001
0000
0000
0000
,
1000
0000
0000
0000
,
0100
0000
0000
0000
,
2000
3000
0002
0003
,
2000
3000
0200
0300
,
0002
0003
0020
0030
,
0200
0300
0020
0030
,
0100
0000
0000
0000
,
1000
0000
0000
0000
,
0100
0000
0000
0000
,
0010
0000
0000
0000
,
0001
0000
0000
0000
,
0100
0000
0000
0000
,
0001
0000
0000
0000
,
0010
0000
0000
0000
,
1001
0000
0000
0000
;

//---------------dance-single - ----------------
#NOTES:
     dance-single:
     :
     Hard:
     8:
     0.369702,0.523505,0.091124,0.783663,0.141242,284.000000,274.000000,10.000000,86.000000,0.000000,0.000000,0.000000,0.000000,0.000000,0.369702,0.523505,0.091124,0.783663,0.141242,284.000000,274.000000,10.000000,86.000000,0.000000,0.000000,0.000000,0.000000,0.000000:
0000
0000
0000
0000
,
0000
0000
0000
0000
,
0000
0000
0000
0000
,
0000
0000
0000
0000
0000
0000
2002
3003
,
0100
0010
0100
0010
0100
0010
0002
0003
,
0100
0000
0010
0000
0100
0000
0010
0000
1000
0000
0100
0000
0100
0000
0000
0100
,
0010
0001
0100
0010
0100
0010
0200
0300
,
0010
0100
1000
0100
0010
0001
0100
0010
,
0100
0010
0100
0100
1000
0100
0020
0030
,
0100
0010
0001
0010
0100
1000
0200
0300
,
0100
0010
0001
0100
0100
0010
2000
3000
,
0100
0010
0001
0100
0010
1000
0200
0300
,
0020
0030
0002
0003
0020
0030
0002
0003
,
0020
0000
0030
0000
0100
0010
0100
0010
,
0002
0003
0200
0300
0020
0030
0200
0300
,
0020
0000
0000
0000
0030
0000
0000
0000
0100
0000
0010
0001
0100
0000
0010
0000
,
0200
0300
0020
0030
0200
0300
2000
3000
,
0200
0000
0300
0020
0030
0000
0100
0010
,
0200
0300
1000
0100
0020
0030
0101
0100
,
0110
0100
0101
0100
1010
0010
0110
0010
,
1001
0020
0030
0200
0300
2000
3000
0100
,
0010
0200
0300
0200
0300
0020
0030
0001
,
0100
0020
0030
0200
0300
0020
0030
0100
,
0010
0000
0000
0000
0110
0000
0000
0000
0010
0000
0001
0010
0100
0000
0010
0001
,
0100
0020
0030
0200
0300
0020
0030
1000
,
0100
0020
0030
0002
0003
0100
0010
1000
,
0010
0000
0100
0010
0001
0000
0100
0000
0010
0000
0100
0010
0001
0000
0000
0000
,
0100
0020
0030
0001
0020
0030
0200
0300
,
2000
3000
0200
0300
0020
0030
0200
0300
,
0020
0000
0030
0000
0000
0000
0010
0001
0100
0000
0010
0000
0100
0000
1000
0200
,
0000
0300
0000
0000
0200
0000
0300
0000
2000
0000
3000
0000
0200
0000
0300
0000
,
0020
0000
0030
0000
0000
0000
0100
0000
0010
0000
0100
0000
0010
0000
0100
0010
,
0200
0300
0020
0030
0002
0003
0020
0030
,
0100
0010
0100
0010
0100
1000
0200
0000
,
0300
0000
0100
0010
0200
0300
0000
0000
,
0100
0020
0030
0001
0200
0300
2000
3000
,
0100
0000
0010
0100
0010
0000
0001
0010
0100
1000
0000
0100
0010
0000
0100
0000
,
0100
0000
0010
0100
1000
0000
0100
0010
0001
0100
0000
0010
0100
0000
1000
0000
,
0100
0000
0100
0100
1000
0000
0100
0010
0001
0100
0000
1000
0100
0000
0010
0000
,
0100
0000
1000
0100
0010
0000
0001
0010
0100
2000
3000
0100
0020
0030
0200
0300
,
0220
0330
0002
0003
0020
0030
0200
0300
,
2000
0000
3000
0000
0000
0000
1000
0100
1000
0000
0100
0000
0100
0000
0010
0001
,
0200
0300
0200
0300
0020
0030
0200
0300
,
0200
0000
0300
0000
0000
0000
0010
0000
0100
0000
0010
0000
0100
0000
0010
0100
,
0020
0030
0002
0003
0020
0030
0200
0300
,
1000
0100
0100
1000
0100
0010
0002
0000
,
0003
0000
0000
0100
0020
0030
0000
0000
,
0100
0020
0030
0001
0020
0030
2002
3003
;
