#VERSION:0.83;
#TITLE:風の辿り着く場所;
#SUBTITLE:;
#ARTIST:彩菜;
#TITLETRANSLIT:Kaze no Tadoritsuku Basho;
#SUBTITLETRANSLIT:;
#ARTISTTRANSLIT:Ayana;
#GENRE:J-Pop;
#CREDIT:;
#MUSIC:Kaze no Tadoritsuku Basho.ogg;
#BANNER:Kaze no Tadoritsuku Basho.png;
#BACKGROUND:Kaze no Tadoritsuku Basho-bg.png;
#CDTITLE:Wrland Season 3 CITYGHT.png;
#SAMPLESTART:73.882;
#SAMPLELENGTH:12.000;
#SELECTABLE:YES;
#OFFSET:-7.420;
#BPMS:0.000=130.000;
#STOPS:;
#CDIMAGE:Kaze no Tadoritsuku Basho-cd.png;
#JACKET:Kaze no Tadoritsuku Basho-jacket.png;
#BGCHANGES:;
#FGCHANGES:;

//--------------- dance-single - ----------------
#NOTEDATA:;
#STEPSTYPE:dance-single;
#DESCRIPTION:;
#DIFFICULTY:Beginner;
#METER:4;
#RADARVALUES:0,0,0,0,0;
#NOTES:
0000
0000
0000
0000
,
0000
0000
0000
0000
,
0000
0000
0000
0000
,
0000
0000
0000
0000
,
1000
0000
0100
0000
,
0001
0000
1000
0001
,
0100
0000
0010
0000
,
0100
0000
0100
0100
,
1000
0000
0100
0000
,
1000
0000
1000
0010
,
0010
0000
0001
0000
,
0100
0001
0010
0100
,
0100
0000
1000
0000
,
0100
0000
1000
0100
,
0001
0000
0100
0000
,
0010
0000
0001
0010
,
0010
0000
0100
0000
,
1000
0100
1000
0100
,
0100
0000
0010
0000
,
0100
0000
0000
0000
0010
0000
0001
1000
,
0010
0001
1000
0000
0001
0000
0000
0000
,
0000
1000
0001
0010
0100
1000
0000
0001
,
0000
1000
0000
0001
0000
0000
0000
0000
,
0000
0100
0010
0100
0010
0100
0000
0010
,
0001
0010
0100
0000
1000
0100
0010
0100
,
0000
0010
0001
0100
0000
0010
0100
0010
,
1000
0100
0010
0000
0001
0010
0100
1000
,
0000
0100
0000
0010
0000
0100
1000
0010
,
0100
0010
0001
0000
0100
0000
0000
0000
,
0000
0010
0100
0010
0001
0100
0000
1000
,
0010
0100
0001
0100
0010
0000
0010
0100
,
0000
0010
0100
0010
0001
0010
0000
1000
,
0100
0010
0100
0000
0010
0100
0010
0001
,
0000
0010
0100
1000
0000
0100
0010
0010
,
0001
0100
0010
0000
0001
0100
0010
1000
,
0000
0100
0000
0010
0000
0100
0010
0100
,
1001
0000
0100
0000
,
0010
0000
0100
0000
,
0110
0000
0001
0000
,
1000
0001
1000
0001
,
1000
0000
0100
0000
,
0010
0000
0100
0000
,
0010
0100
0010
0001
,
0001
0010
0100
1000
0100
0010
0001
0000
,
0100
0000
1000
0000
,
0100
0000
0100
0000
,
0001
0000
0100
0000
,
0010
0000
0100
0010
,
1000
0000
0100
0000
,
0010
0000
0001
0000
,
0100
0100
1000
0100
,
1000
0100
0010
0001
0010
0100
1000
0000
,
1000
0000
0100
0000
,
0010
0000
0100
0000
,
0010
0000
0100
0000
,
0010
0000
0001
0000
,
0100
0000
1000
0000
,
0100
0000
0010
0000
,
0001
0000
0010
0000
,
0100
0000
0010
0000
,
0100
0000
0001
0000
,
0010
0000
1000
0000
,
0010
0000
0100
0000
,
0010
0000
0100
0000
,
0110
0000
0000
0000
;

//--------------- dance-single - ----------------
#NOTEDATA:;
#STEPSTYPE:dance-single;
#DESCRIPTION:;
#DIFFICULTY:Easy;
#METER:7;
#RADARVALUES:0,0,0,0,0;
#NOTES:
0000
0000
0000
0000
,
0000
0000
0000
0000
,
0000
0000
0000
0000
,
0000
0000
0000
0000
,
1000
0000
1000
0001
0100
1000
0010
0100
,
0020
0000
0030
0000
0000
0100
0010
0100
,
0020
0000
0000
0000
0030
0001
0010
0200
,
0000
0000
0300
0000
0000
0100
0010
0200
,
0300
1000
0100
2000
0000
3000
0000
0000
,
0000
1000
0100
0000
0100
0010
0001
0010
,
0200
0000
0000
0300
0000
0100
0010
0200
,
0300
0100
0010
0001
0010
0100
1000
0100
,
0010
0000
0100
0010
0100
0010
0100
0010
,
0020
0000
0030
0000
0000
0100
0010
0001
,
0020
0000
0000
0000
0030
1000
0100
2000
,
0000
0000
3000
0000
0000
1000
0100
0020
,
0030
0100
0010
0002
0000
0000
0003
0000
,
0000
0100
0010
0000
0100
0020
0030
0010
,
0200
0000
0300
0000
0000
0100
0010
0200
,
0000
0000
0000
0000
0000
0000
0300
0010
,
0100
0010
0001
0000
0010
0000
0000
0000
,
0000
1000
0001
1000
0001
2000
3000
0100
,
0000
0010
0000
0200
0000
0000
0300
0000
,
0000
0100
0010
0001
0010
0200
0300
0100
,
0010
0001
1000
0000
0100
0010
0100
0020
,
0030
0001
0010
2000
3000
0100
0010
0001
,
0100
0010
0010
0000
1000
0100
0010
0002
,
0003
2000
3000
0002
0003
1000
0001
1000
,
0100
0010
0200
0300
0010
0010
0100
0010
,
0000
0001
0100
0010
1000
0200
0300
0020
,
0030
0002
0003
0020
0000
0000
0030
0000
,
0000
0100
0010
0100
0010
0002
0003
1000
,
0001
1000
0001
0000
0100
0010
0100
0020
,
0030
0001
0010
0200
0300
1000
0100
0010
,
0100
0010
0010
0000
0001
0100
0010
0200
,
0300
0020
0030
0002
0003
0010
0100
1000
,
0200
0000
0300
0000
0000
0100
0010
0200
,
0000
0300
0000
0020
0030
0001
1000
0001
,
2000
0000
3000
0000
0200
0300
0010
0200
,
0300
0100
0020
0000
0000
0000
0030
0000
,
0200
0000
0300
0000
0000
1000
0100
0020
,
0000
0000
0030
0002
0003
0010
0100
2000
,
0000
0000
3000
0000
,
2000
0000
3000
0000
,
2000
0000
0000
3000
0000
0100
0010
0200
,
0000
0000
0300
0020
0030
0001
0010
0200
,
0000
0000
0300
0000
0200
0300
0010
0200
,
0300
0010
0002
0000
0000
0000
0003
0000
,
0200
0000
0000
0300
0000
0100
0010
0002
,
0000
0000
0003
0200
0300
0010
0100
1000
,
0200
0000
0300
0000
2000
3000
0001
1000
,
0002
0000
0003
2002
0000
0000
0000
3003
,
0020
0000
0030
0200
0000
0300
0020
0000
,
0000
0030
0000
0000
,
0200
0000
0300
0020
0000
0030
0002
0000
,
0000
1003
2000
0000
,
3200
0000
0300
0020
0000
0030
0002
0000
,
0000
0000
0003
0000
0000
0100
0010
0100
,
0020
0000
0030
0000
0200
0000
0300
0020
,
0000
0030
0000
0002
0000
0000
0003
0000
,
2000
0000
3000
0200
0000
0300
0020
0000
,
0000
0030
0000
0000
,
0200
0000
0300
0020
0000
0030
0002
0000
,
0000
0000
0203
0300
0020
0000
0000
0000
,
0031
0000
0000
0000
;

//--------------- dance-single - ----------------
#NOTEDATA:;
#STEPSTYPE:dance-single;
#DESCRIPTION:;
#DIFFICULTY:Medium;
#METER:10;
#RADARVALUES:0,0,0,0,0;
#NOTES:
0000
0000
0000
0000
,
0000
0000
0000
0000
,
0000
0000
0000
0000
,
0000
0000
0000
0000
,
1000
0000
0001
1000
0001
1000
0001
1000
,
0002
0000
0000
0000
1003
0100
1000
0010
0001
0000
0100
0000
0010
0000
0100
0000
,
0020
0000
0030
0000
0000
0100
0010
0002
,
0000
0000
0003
0000
1000
0001
1000
0001
1000
0000
0100
0000
0010
0000
0200
0000
,
0300
0010
0001
0200
0000
0000
0300
0000
,
0000
1000
0100
0000
0100
0010
0001
0100
,
0020
0000
0000
0000
0030
0100
0010
0100
,
0000
0000
0010
0000
0001
0000
0010
0000
0001
0000
0010
0000
0001
0000
0010
0001
,
0100
0000
0010
0001
0010
0100
1000
0100
,
0020
0000
0030
0000
1000
0001
1000
0001
1000
0000
0100
0000
0010
0000
0001
0000
,
0200
0000
0000
0000
0300
0010
0100
0020
,
0000
0000
0030
0000
0010
0001
0010
0001
0010
0000
0001
0000
1000
0000
0002
0000
,
0003
0100
0010
0200
0000
0000
0300
0000
,
0000
0100
0020
0030
0001
0020
0030
0100
,
0020
0000
0030
0000
0000
1000
0001
1000
,
0002
0000
0000
0000
0000
0000
0000
0000
0100
1000
0100
1000
0100
0000
1000
0000
,
0103
0000
0010
0000
0200
0000
0300
0000
0002
0000
0003
0000
1000
0001
1000
0001
,
1000
0100
0010
0100
0010
0002
0003
0010
,
0001
0000
0100
0000
0010
0000
2000
0000
3020
0000
0030
0000
0100
0010
0001
0010
,
0100
0100
0010
0100
0010
0200
0300
0010
,
0001
0010
0200
0300
1000
0100
0010
0002
,
0003
0010
0100
2000
3000
0100
0010
0002
,
0013
0100
0020
0030
0001
0100
0010
0200
,
0300
0020
0030
0002
0003
0010
0100
1000
,
0100
0000
0010
0000
0002
0000
0003
0000
0200
0000
0300
0000
0010
0100
0010
0001
,
0010
0100
0010
0001
0100
0020
0030
0200
,
0310
0000
2000
0000
3001
0000
0200
0000
0310
0000
0000
0000
0010
0001
0100
1000
,
0100
0100
0010
0001
0100
0020
0030
1000
,
0100
0010
0002
0003
0100
0010
0100
2000
,
3000
0100
0010
0002
0003
0100
0010
0100
,
1000
0100
0020
0030
0001
0100
0010
0200
,
0300
2000
3000
0200
0300
0001
1000
0001
,
2000
0000
0000
0000
0100
0010
0100
0010
3100
0000
0001
0000
0010
0000
0001
0010
,
0001
0000
0010
0001
0010
0000
0200
0000
0300
0000
0100
0000
1000
0000
0100
0000
,
0010
0000
0100
0010
0100
0000
0001
0010
0200
0000
0300
0000
0010
0000
0200
0000
,
0300
0000
0010
0000
0200
0000
0000
0000
0010
0001
0010
0001
0310
0000
0000
0000
,
2000
0000
0010
0100
0010
0000
0100
0010
3001
0000
0100
0000
0010
0000
0002
0000
,
0100
0000
0010
0100
0013
0000
0010
0001
0010
0000
0100
0000
0010
0000
0001
0000
,
0200
0000
1000
0010
1000
0000
0010
0001
0010
0000
0010
0001
0310
0000
0010
0100
,
0012
0000
0010
0100
0010
0000
0010
0100
0010
0100
1000
0100
1003
0000
0100
0000
,
0002
0000
0000
0000
1000
0100
1000
0100
1003
0000
0100
0000
0010
0000
0002
0000
,
1000
0000
0100
0010
0103
0000
0200
0000
0300
0000
0010
0000
0100
0000
2000
0000
,
0010
0000
0100
0010
3001
0000
0100
0010
0200
0000
0300
0000
0010
0000
0002
0000
,
0003
0000
0100
0000
0020
0000
0000
0000
1000
0001
1000
0001
1030
0000
0000
0000
,
0200
0000
0001
0010
0001
0000
0010
0001
0310
0000
0100
0000
0010
0000
0200
0000
,
0010
0000
0001
0010
0301
0000
0002
1000
0103
0000
0010
0000
0100
0000
1000
0000
,
0200
0010
0001
0010
0301
0010
0001
0010
0200
1000
0310
0001
0010
1000
0100
0001
,
0020
0100
0100
0100
0130
0100
2010
0001
0010
0001
0010
0001
0010
0100
0010
0001
,
3020
0000
0030
0002
0000
0003
2000
0000
,
0010
0000
0001
0010
3001
0000
0010
0100
0010
0000
0100
0010
0001
0010
0100
0010
,
2000
0000
3000
0200
0000
0300
2000
0000
,
3100
0000
0001
0010
0200
0000
0301
1000
0020
0000
0100
0001
0130
0001
0010
0100
,
0002
0000
0003
0020
0000
0030
0200
0000
,
0010
0000
0001
0010
0301
0000
0010
0100
0010
0000
0010
0000
0100
0000
0010
0000
,
0002
0000
0010
1000
0013
0000
0010
0001
0200
0000
0010
0001
0310
0000
0020
0000
,
0100
0001
0130
0010
0001
0010
0200
0010
0001
0010
0001
0010
0301
0010
0001
0100
,
0020
0000
0030
0002
0000
0003
0020
0000
,
0100
0000
0001
0100
0031
0000
0001
0100
0001
0000
0001
0000
0100
0010
0001
1000
,
0020
0000
0030
0200
0000
0300
0002
0000
,
0013
0000
0010
0100
2000
0000
3100
0010
0002
0000
0010
0000
0103
0000
0001
0000
,
0020
0000
0030
0000
;

//--------------- dance-single - ----------------
#NOTEDATA:;
#STEPSTYPE:dance-single;
#DESCRIPTION:;
#DIFFICULTY:Hard;
#METER:14;
#RADARVALUES:0,0,0,0,0;
#NOTES:
2010
0100
0010
0000
3010
0100
2010
0000
0010
0001
3010
0000
2000
0000
0000
0000
,
3001
0010
0001
0000
0010
0100
0010
0000
0100
0010
2000
3000
0002
0003
2000
3000
,
0002
0100
0010
0000
0100
0010
1003
0000
0200
0010
0001
0000
1300
0100
1020
0000
,
0001
0100
0001
0100
0001
0100
0001
0100
1030
0100
0010
0001
0200
0010
0001
0010
0001
0010
0001
0010
0001
0010
0001
0010
1300
1000
0100
0010
0001
0010
0100
1000
,
0220
0000
0330
0000
0200
0300
0020
0030
0200
0300
0020
0030
0002
0003
0200
0300
,
0021
1000
0001
1000
0031
0100
0010
0100
0020
0030
0200
0300
0020
0030
0002
0003
,
0120
0001
1000
0100
1030
0100
0010
0001
2000
3000
0200
0300
0020
0030
0210
0000
,
0001
0010
0301
0001
0010
0100
0010
0100
0002
0013
0200
0310
2000
3010
0002
1003
,
0202
0303
0020
0030
0200
0300
0021
0100
0001
0100
0031
0100
0010
0001
0010
0100
,
0020
0030
0200
0300
0020
0000
0000
0030
0002
0003
0020
0030
0200
0300
2000
3000
,
0201
0010
0001
0010
1000
0010
0001
1000
0302
0003
0020
0030
0002
0003
0020
0000
,
1000
0100
0031
0001
1000
0010
0100
1000
0010
0010
0100
0001
0010
0001
0010
1000
,
0200
0300
0020
0030
0200
0300
0020
0030
0002
0003
0020
0030
0200
0300
2000
3000
,
0200
0010
0001
0010
0301
0001
0010
0100
1000
0000
0200
0300
0020
0030
0002
0003
,
0021
1000
0001
1000
0001
1000
0001
1000
0031
0010
0200
0301
0020
1030
0201
0010
,
0001
0010
0301
0010
0100
0010
0001
0010
0100
0010
0200
0300
2000
3000
0200
0000
,
0300
0000
0020
0030
0002
0003
0020
0100
0001
0100
0031
0100
0010
1000
0100
0010
,
0100
0000
0200
0300
0020
0000
0030
0000
0200
0300
2000
0000
3000
0000
0020
0030
,
0012
0100
0010
0100
0013
0001
0010
0001
0010
0000
2000
3000
0002
0003
2100
0001
,
0100
0000
0001
0000
0010
0000
0100
0000
0010
0000
0001
0000
0010
0000
0100
0000
0100
0001
0010
0100
0010
0001
0010
0100
3010
0010
0100
0010
2001
0000
3000
0000
,
0002
0003
0020
0030
0200
0000
0300
0000
0021
0100
0031
0100
0001
0100
0001
0100
,
0001
0000
0200
0300
0020
0030
0200
0300
0020
0030
0002
0000
0003
0000
2020
0000
,
3230
0300
0220
0000
0332
0000
0023
0000
2000
0000
3030
0000
0100
0010
0100
0010
,
0001
0000
0200
0300
0020
0030
0200
0301
0020
0030
0002
0000
0003
0000
0020
0030
,
0200
0300
2000
3000
0200
0000
0300
0000
0020
0031
0200
1300
0020
0031
0200
1000
,
0301
0000
0020
0030
0002
0003
0020
0000
0030
0000
0200
0300
2000
3000
0200
0300
,
0020
0030
0002
0003
0020
0100
1030
0100
0002
0003
2000
3000
0200
0300
0020
0000
,
0030
0000
0200
0000
0300
0000
0020
0000
0030
0000
0002
0003
0020
0030
0200
0300
,
0020
0030
0200
0300
0020
0000
0030
0000
0012
0100
0010
0100
1003
0100
0010
0001
,
0010
0000
2000
3000
0002
0003
2000
3000
0002
0003
2000
0000
3000
0000
0202
0000
,
2303
0000
3022
0000
2033
0000
3200
0000
0302
0000
0003
0000
1000
0001
1000
0001
,
1020
0030
0002
0003
2000
3000
0200
0300
0020
0030
0200
0000
0300
0000
0020
0030
,
0002
0003
2000
3000
0020
0000
0030
0000
0200
0300
0020
0030
0200
0300
0020
0000
,
0030
0000
0002
0003
0020
0030
0200
0000
0300
0000
2000
3000
0200
0300
0020
0030
,
0002
0003
0200
0300
0020
0000
0030
0000
0201
1300
0021
0031
0210
0301
1020
0000
,
0030
0000
0012
0000
0003
0000
0021
0000
0030
0000
0210
0300
2001
3010
0201
0010
,
0002
0000
0000
0000
0313
0001
0010
0001
0020
0030
0100
0001
0020
0030
0100
0010
,
0200
0000
0010
0001
0310
0000
0020
1000
0130
0000
0002
0003
2000
3000
0002
1000
,
0010
0000
0010
1000
0023
0000
0030
0000
0200
0000
0300
0000
2000
3000
0200
0000
,
0300
0000
0200
0300
0020
0000
0000
0000
1000
0001
1000
0001
1030
0000
0000
0000
,
0200
0000
0010
0001
0010
0000
0010
0001
0310
0000
2000
3000
0200
0300
2000
0010
,
0100
0000
0010
0100
3010
0000
0200
0000
0300
0000
0020
0030
0200
0300
0020
0000
,
0100
0000
1000
0100
1000
0000
0100
1000
0130
0000
0001
0010
0001
0000
0010
0100
,
0200
0010
0001
0010
0001
0010
0001
0010
0301
0010
1000
0100
0020
0031
0200
1300
,
0200
0000
0000
0000
0001
0010
0001
0010
0301
0000
1000
0010
0200
0300
0001
0010
,
0002
0000
1000
0100
1003
0000
0200
0000
0300
0000
0020
0030
0200
0300
0021
0100
,
0001
0000
0001
0100
0031
0000
0000
0000
0020
0000
0030
0000
0100
0000
0020
0000
,
0030
0000
0001
0000
0020
0000
0000
0000
0100
0100
0100
1000
0130
0000
0000
0000
,
0200
0000
0010
0001
0010
0000
0001
0010
0301
0000
1000
0000
0100
0000
2000
0010
,
0100
0000
0010
0100
3010
0000
0200
0000
0300
0000
0020
0030
0200
0300
0020
0000
,
0001
1000
0001
1000
0001
1000
0001
1000
0031
0100
0010
0100
0010
0001
0010
0100
0012
0100
0010
0100
0013
0100
0010
0001
2000
0100
3010
0100
0002
0010
0103
0010
,
2000
0001
0010
0100
3010
0001
0010
0100
2000
0100
3010
0100
0002
0010
0103
0010
2000
0010
0100
0010
0001
0010
0100
0010
0001
0010
0100
0010
0001
0010
0100
0010
,
3200
0000
0010
0001
0310
0000
0020
0100
1000
0000
0130
1000
0102
0000
0000
0000
,
1003
0000
0100
0010
0001
0000
0001
0010
0001
0000
0001
0010
0200
0000
0000
0300
,
0020
0000
0001
1000
0031
0000
0200
0001
0010
0000
1300
0001
0020
0000
0000
0000
,
0130
0000
1000
0100
0002
0000
0010
0100
0013
0000
0010
0001
0020
0000
0000
0030
,
2100
0000
0010
0100
3010
0000
0200
0010
0001
0000
0310
1000
0120
0000
0000
0000
,
0031
0000
1000
0001
1000
0000
0001
1000
0200
0300
0020
0030
0002
0003
0200
0300
,
2000
0000
0100
0010
3100
0000
0010
0001
0200
0000
0001
0010
1300
0000
0020
0001
,
1000
0100
1030
0100
0010
0001
0012
0100
0010
0100
1003
0100
0001
0010
0100
1000
,
0200
0000
0001
0010
0301
0000
0020
1000
0100
0000
0031
0100
0002
0000
0000
0000
,
0103
0000
0010
0100
0010
0000
0001
0010
0002
0003
1000
0100
2000
0000
0000
3000
,
0020
0000
0001
1000
0031
0000
0200
0010
1000
0000
0301
1000
0020
0000
0000
0000
,
0130
0000
0010
0001
0200
0000
0001
0010
0301
0000
1000
0001
2000
0000
0000
3000
,
2002
0000
3003
0000
;
