#TITLE:KIZUNA Resolution;
#SUBTITLE:;
#ARTIST:TAG;
#TITLETRANSLIT:;
#SUBTITLETRANSLIT:;
#ARTISTTRANSLIT:;
#GENRE:Hardcore;
#CREDIT:Wrland;
#MUSIC:KIZUNA Resolution.ogg;
#BANNER:Kizuna Restoration-banner.png;
#BACKGROUND:KIZUNA Resolution-bg.png;
#CDTITLE:Wrland Season 3 CITYGHT + last one night.png;
#SAMPLESTART:20.349;
#SAMPLELENGTH:12.000;
#SELECTABLE:YES;
#OFFSET:-0.344;
#BPMS:0.000=120.000
,36.000=240.000
,168.000=120.000
,240.021=240.000
,252.000=120.000
,254.000=240.000
;
#STOPS:40.000=1.000
,200.000=1.500
,240.000=0.500
;
#DISPLAYBPM:120.000:240.000;
#METERTYPE:DDR X;
#JACKET:KIZUNA Resolution-jacket.png;
#CDIMAGE:KIZUNA Resolution-cd.png;
#BGCHANGES:;
#FGCHANGES:;

//--------------- dance-single - Wrland ----------------
#NOTES:
     dance-single:
     Wrland:
     Beginner:
     3:
     0,0,0,0,0:
0000
0000
0000
0000
,
0000
0000
0000
0000
,
0000
0000
0000
0000
,
0000
0000
0000
0000
,
1000
0000
1000
0000
,
0001
0000
0001
0000
,
1000
0000
1000
0000
,
0100
0000
0100
0000
,
0020
0000
0000
0030
,
0220
0000
0000
0330
,
0000
1000
0000
0000
0000
0000
0000
0000
0000
0000
0000
0000
0000
0000
0000
0000
0000
0000
0000
0000
0000
0000
0000
0000
0000
0000
0000
0000
0000
0000
0000
0000
0000
0000
0000
0000
0000
0000
0000
0000
0000
0000
0000
0000
0000
0000
0000
0000
0000
0000
0000
0000
0000
0000
0000
0000
0000
0000
0000
0000
0000
0000
0000
0000
0000
0000
0000
0000
0000
0000
0000
0000
0000
0000
0000
0000
0000
0000
0000
0000
0000
0000
0000
0000
0000
0000
0000
0000
0000
0000
0000
0000
0000
0000
0000
0000
0000
0000
0000
0000
0000
0000
0000
0000
0000
0000
0000
0000
0000
0000
0000
0000
0000
0000
0000
0000
0000
0000
0000
0000
0000
0000
0000
0000
0000
0000
0000
0000
0000
0000
0000
0000
0000
0000
0000
0000
0000
0000
0000
0000
0000
0000
0000
0000
0000
0000
0000
0000
0000
0000
0000
0000
0000
0000
0000
0000
0000
0000
0000
0000
0000
0000
0000
0000
0000
0000
0000
0000
0000
0000
0000
0000
0000
0000
0000
0000
0000
0000
0000
0000
0000
0000
0000
0000
0000
0000
0000
0000
0000
0000
0000
0000
,
1000
0000
0000
0000
,
0001
0000
0000
0000
,
0001
0000
0000
0000
,
1000
0000
0000
0000
,
1000
0000
0000
0000
,
0100
0000
0000
0000
,
0100
0000
0000
0000
,
0010
0000
0000
0000
,
0010
0000
0000
0000
,
0001
0000
0000
0000
,
0001
0000
0000
0000
,
1000
0000
0000
0000
,
1000
0000
0000
0000
,
0100
0000
0000
0000
,
0010
0000
0000
0000
,
0100
0000
0000
0000
,
0100
0000
0000
0000
,
1000
0000
0000
0000
,
1000
0000
0000
0000
,
0001
0000
0000
0000
,
0001
0000
0000
0000
,
1000
0000
0000
0000
,
0100
0000
0000
0000
,
1000
0000
0000
0000
,
0100
0000
0000
0000
,
0010
0000
0000
0000
,
0001
0000
0000
0000
,
0100
0000
0000
0000
,
0010
0000
0000
0000
,
0001
0000
0000
0000
,
1000
0000
0000
0000
,
2002
0000
0000
0000
,
0000
0000
3003
0000
,
0200
0000
0000
0000
,
0000
0000
0300
0000
,
0020
0000
0000
0000
,
0000
0000
0030
0000
,
0200
0000
0000
0000
,
0000
0000
0300
0000
,
0000
0020
0000
0000
,
0030
0200
0000
0000
,
0300
2000
0000
0000
,
3000
0002
0000
0000
,
0003
2000
0000
0000
,
3000
0002
0000
0000
,
0003
2000
0000
0000
,
3000
0002
0000
0000
,
0003
2002
0000
0000
,
0000
0000
0000
3003
,
0000
2002
0000
0000
0000
0000
0000
0000
0000
0000
0000
0000
0000
0000
0000
0000
0000
0000
0000
0000
0000
0000
0000
0000
0000
0000
0000
0000
0000
0000
0000
0000
0000
0000
0000
0000
0000
0000
0000
0000
0000
0000
0000
0000
0000
0000
0000
0000
0000
0000
0000
0000
0000
0000
0000
0000
0000
0000
0000
0000
0000
0000
0000
0000
0000
0000
0000
0000
0000
0000
0000
0000
0000
0000
0000
0000
0000
0000
0000
0000
0000
0000
0000
0000
0000
0000
0000
0000
0000
0000
0000
0000
0000
0000
0000
0000
0000
0000
0000
0000
0000
0000
0000
0000
0000
0000
0000
0000
0000
0000
0000
0000
0000
0000
0000
0000
0000
0000
0000
0000
0000
0000
0000
0000
0000
0000
0000
0000
0000
0000
0000
0000
0000
0000
0000
0000
0000
0000
0000
0000
0000
0000
0000
0000
0000
0000
0000
0000
0000
0000
0000
0000
0000
0000
0000
0000
0000
0000
0000
0000
0000
0000
0000
0000
0000
0000
0000
0000
0000
0000
0000
0000
0000
0000
0000
0000
0000
0000
0000
0000
0000
0000
0000
0000
0000
0000
0000
0000
0000
0000
0000
0000
,
0000
0000
0000
0000
,
0000
0000
0000
0000
,
3003
0000
0100
0000
,
0000
0000
1000
0000
,
0000
0000
0100
0000
,
0000
0000
0010
0000
,
0000
0000
0001
0000
,
0000
0000
0010
0000
,
0000
0000
0100
0000
,
0000
0000
0010
0000
,
0000
0000
0100
0000
,
0000
0000
1000
0000
,
0000
0000
0100
0000
,
0000
0000
0010
0000
,
0000
0000
0100
0000
,
0000
0000
0010
0000
,
0000
0000
0001
0000
,
0000
0000
1000
0000
,
0000
0000
0002
0000
,
0000
0000
0000
0000
,
0003
0000
2000
0000
,
0000
0000
0000
0000
,
3000
0000
0200
0000
,
0000
0000
0000
0000
,
0300
0000
2000
0000
,
0000
0000
0000
0000
,
3000
0000
0020
0000
,
0000
0000
0000
0000
,
0030
0000
0002
0000
,
0000
0000
0000
0000
,
0003
0000
0200
0000
,
0000
0000
0000
0000
,
0300
0000
0020
0000
,
0000
0000
0000
0000
,
0030
0000
0200
0000
,
0000
0000
0000
0000
,
0300
0000
0110
0000
;

//--------------- dance-single - Wrland ----------------
#NOTES:
     dance-single:
     Wrland:
     Easy:
     7:
     0,0,0,0,0:
0000
0000
0000
0000
,
0000
0000
0000
0000
,
0000
0000
0000
0000
,
0000
0000
0000
0000
,
1000
0000
1000
0000
,
0001
0000
0001
0000
,
1000
0000
1000
0000
,
0100
0000
0100
0000
,
0220
0000
0000
0000
0330
0000
1000
0001
,
2000
0000
0000
3000
,
0000
0100
0000
0000
0000
0000
0000
0000
0000
0000
0000
0000
0000
0000
0000
0000
0000
0000
0000
0000
0000
0000
0000
0000
0000
0000
0000
0000
0000
0000
0000
0000
0000
0000
0000
0000
0000
0000
0000
0000
0000
0000
0000
0000
0000
0000
0000
0000
0000
0000
0000
0000
0000
0000
0000
0000
0000
0000
0000
0000
0000
0000
0000
0000
0000
0000
0000
0000
0000
0000
0000
0000
0000
0000
0000
0000
0000
0000
0000
0000
0000
0000
0000
0000
0000
0000
0000
0000
0000
0000
0000
0000
0000
0000
0000
0000
0100
0000
0000
0000
0000
0000
0000
0000
0000
0000
0000
0000
0000
0000
0000
0000
0000
0000
0000
0000
0000
0000
0000
0000
0000
0000
0000
0000
0000
0000
0000
0000
0000
0000
0000
0000
0000
0000
0000
0000
0000
0000
0000
0000
0000
0000
0000
0000
0000
0000
0000
0000
0000
0000
0000
0000
0000
0000
0000
0000
0000
0000
0000
0000
0000
0000
0000
0000
0000
0000
0000
0000
0000
0000
0000
0000
0000
0000
0000
0000
0000
0000
0000
0000
0000
0000
0000
0000
0000
0000
0000
0000
0000
0000
0000
0000
,
0010
0000
0010
0000
,
0001
0000
0001
0000
,
0100
0000
0100
0000
,
0010
0000
0010
0000
,
0100
0000
0100
0000
,
1000
0000
1000
0000
,
0100
0000
0100
0000
,
1000
0000
1100
0000
,
0100
0000
0010
0000
,
0001
0000
0100
0000
,
0010
0000
0001
0000
,
0100
0000
0010
0000
,
0100
0000
1000
0000
,
0100
0000
0000
0000
,
0010
0000
0000
0000
,
0001
0000
0001
0000
,
0100
0000
0100
0000
,
1000
0000
1000
0000
,
0100
0000
0100
0000
,
0010
0000
0010
0000
,
0100
0000
0100
0000
,
1000
0000
1000
0000
,
0100
0000
0100
0000
,
0010
0000
0010
0000
,
0100
0000
0100
0000
,
1000
0000
1000
0000
,
0001
0000
0001
0000
,
0100
0000
0100
0000
,
0010
0000
0010
0000
,
0100
0000
0100
0000
,
0010
0000
0010
0000
,
0220
0000
0000
0000
,
0000
0000
0330
0000
,
2002
0000
0000
0000
,
0000
0000
3003
0000
,
1000
1000
0100
0100
,
1000
1000
0100
0100
,
0010
0010
0001
0001
,
0010
0010
0100
0100
,
0000
2000
3000
0002
,
0003
2000
3000
0002
,
0003
2000
3000
0002
,
0003
0200
0300
0020
,
0030
0200
0300
0200
,
0300
2000
3000
2000
,
3000
0200
0300
0020
,
0030
0002
0003
0200
,
0300
0020
0000
0030
,
0000
0200
0000
0300
,
0000
0002
0000
0000
0000
0000
0000
0000
0000
0000
0000
0000
0000
0000
0000
0000
0000
0000
0000
0000
0000
0000
0000
0000
0000
0000
0000
0000
0000
0000
0000
0000
0000
0000
0000
0000
0000
0000
0000
0000
0000
0000
0000
0000
0000
0000
0000
0000
0000
0000
0000
0000
0000
0000
0000
0000
0000
0000
0000
0000
0000
0000
0000
0000
0000
0000
0000
0000
0000
0000
0000
0000
0000
0000
0000
0000
0000
0000
0000
0000
0000
0000
0000
0000
0000
0000
0000
0000
0000
0000
0000
0000
0000
0000
0000
0000
0000
0000
0000
0000
0000
0000
0000
0000
0000
0000
0000
0000
0000
0000
0000
0000
0000
0000
0000
0000
0000
0000
0000
0000
0000
0000
0000
0000
0000
0000
0000
0000
0000
0000
0000
0000
0000
0000
0000
0000
0000
0000
0000
0000
0000
0000
0000
0000
0000
0000
0000
0000
0000
0000
0000
0000
0000
0000
0000
0000
0000
0000
0000
0000
0000
0000
0000
0000
0000
0000
0000
0000
0000
0000
0000
0000
0000
0000
0000
0000
0000
0000
0000
0000
0000
0000
0000
0000
0000
0000
0000
0000
0000
0000
0000
0000
,
0003
0000
1000
0001
,
2002
0000
3003
0000
,
0220
0330
1000
0000
,
0100
0000
1000
0000
,
0100
0010
0001
0000
,
0100
0000
0010
0000
,
0001
0000
0100
0000
,
0001
0000
0100
0000
,
0001
0100
0001
0000
,
0010
0000
0100
0000
,
1000
0000
0100
0000
,
1000
0000
0100
0000
,
0010
0100
0010
0000
,
0001
0000
0100
0000
,
0001
0000
0010
0000
,
0100
0000
1000
0000
,
0100
1000
0100
0000
,
0010
0000
0100
0000
,
0010
0000
0202
0000
,
0000
0000
0000
0000
,
0303
0000
1010
0000
,
0100
0000
1000
0000
,
0100
0000
0010
0000
,
0001
0000
0100
0000
,
0010
0000
0002
0000
,
0003
0000
2000
0000
,
3000
0000
1001
0000
,
0100
0000
1000
0000
,
0100
0000
0010
0000
,
0001
0000
0100
0000
,
0010
0000
0001
0000
,
0100
0000
0010
0000
,
0100
0000
0220
0000
,
0330
0000
2002
0000
,
3003
0000
2002
0000
,
0000
0000
0000
0000
,
3003
0000
0110
0000
;

//--------------- dance-single - Wrland ----------------
#NOTES:
     dance-single:
     Wrland:
     Medium:
     9:
     0,0,0,0,0:
0000
0000
0000
0000
,
0000
0000
0000
0000
,
0000
0000
0000
0000
,
0000
0000
0000
0000
,
1000
0100
1000
0000
0100
0010
0001
0000
,
0001
0100
0010
0000
0100
1000
0100
0000
,
0100
0010
0001
0000
0100
0010
0001
0000
,
0100
1000
0100
0000
0001
0100
0001
0000
,
0001
0100
0001
0100
0001
0100
0101
0000
,
2020
0000
0000
3030
,
0000
0110
0000
0000
0000
0000
0000
0000
0000
0000
0000
0000
0000
0000
0000
0000
0000
0000
0000
0000
0000
0000
0000
0000
0000
0000
0000
0000
0000
0000
0000
0000
0000
0000
0000
0000
0000
0000
0000
0000
0000
0000
0000
0000
0000
0000
0000
0000
0010
0000
0000
0000
0000
0000
0000
0000
0000
0000
0000
0000
0000
0000
0000
0000
0000
0000
0000
0000
0000
0000
0000
0000
0000
0000
0000
0000
0000
0000
0000
0000
0000
0000
0000
0000
0000
0000
0000
0000
0000
0000
0000
0000
0000
0000
0000
0000
0100
0000
0000
0000
0000
0000
0000
0000
0000
0000
0000
0000
0000
0000
0000
0000
0000
0000
0000
0000
0000
0000
0000
0000
0000
0000
0000
0000
0000
0000
0000
0000
0000
0000
0000
0000
0000
0000
0000
0000
0000
0000
0000
0000
0000
0000
0000
0000
1000
0000
0000
0000
0000
0000
0000
0000
0000
0000
0000
0000
0000
0000
0000
0000
0000
0000
0000
0000
0000
0000
0000
0000
0000
0000
0000
0000
0000
0000
0000
0000
0000
0000
0000
0000
0000
0000
0000
0000
0000
0000
0000
0000
0000
0000
0000
0000
,
0100
0010
0001
0100
,
0010
1000
0100
1000
,
0100
1000
0100
0000
0010
0100
0010
0000
,
0001
0100
0001
0100
,
0010
0100
1000
0100
,
0010
0100
0010
0000
0001
0100
0001
0000
,
0010
0100
0010
0001
,
0100
1001
0100
0010
,
0100
1000
0100
1000
,
0100
0010
0001
0001
,
0010
0100
1001
0000
,
0100
0010
0100
0010
,
0001
0100
0001
0100
,
0010
0100
0000
0010
0100
0000
0001
0100
,
0000
1000
0100
0000
0100
0010
1001
0000
,
0100
0011
0100
0100
,
1000
0100
1000
0100
,
0001
0100
0001
0100
,
0010
0000
0100
0000
0010
0000
0100
0010
,
0100
0010
0001
0100
,
0001
0100
1000
0100
,
1000
0100
0010
0001
,
0100
0000
0001
0000
0100
0000
0001
0100
,
0001
0010
1000
0100
,
0010
0000
0100
0000
0010
0000
0001
0100
,
0001
0010
0100
1000
,
0100
0000
1000
0000
0100
0000
0010
0100
,
0010
0001
0100
0010
,
1000
0000
0100
0000
1000
0000
0100
1000
,
0100
0010
0001
0100
,
0010
0100
0010
0001
,
2002
0000
0000
3003
,
2200
0000
0000
3300
,
0022
0000
0000
0033
,
0220
0000
0000
0330
,
1000
0100
1000
0000
0100
0010
0001
0000
,
0100
0010
0001
0000
0001
0100
0001
0000
,
0010
0100
0010
0000
0001
0100
0010
0000
,
0100
1000
0100
0000
1000
0100
0020
0030
,
0000
0000
0100
0010
0001
0000
0010
0100
,
1000
0000
0100
0010
0001
0000
0100
0010
,
0100
0000
1000
0100
1000
0000
0100
0010
,
0001
0000
0001
0100
0001
0000
0010
0100
,
1000
0000
0100
1000
0100
0000
0010
0001
,
0100
0000
0010
0100
1000
0000
0100
0010
,
0001
0000
1000
0100
0010
0000
0001
0100
,
0001
0000
0100
0001
0100
0000
0010
0100
,
0010
1001
1100
0110
,
0011
0000
0110
0000
1001
0000
0220
0330
,
0000
2002
0000
0000
0000
0000
0000
0000
0000
0000
0000
0000
0000
0000
0000
0000
0000
0000
0000
0000
0000
0000
0000
0000
0000
0000
0000
0000
0000
0000
0000
0000
0000
0000
0000
0000
0000
0000
0000
0000
0000
0000
0000
0000
0000
0000
0000
0000
0000
0000
0000
0000
0000
0000
0000
0000
0000
0000
0000
0000
0000
0000
0000
0000
0000
0000
0000
0000
0000
0000
0000
0000
0000
0000
0000
0000
0000
0000
0000
0000
0000
0000
0000
0000
0000
0000
0000
0000
0000
0000
0000
0000
0000
0000
0000
0000
0000
0000
0000
0000
0000
0000
0000
0000
0000
0000
0000
0000
0000
0000
0000
0000
0000
0000
0000
0000
0000
0000
0000
0000
3003
0000
0000
0000
0000
0000
0000
0000
0000
0000
0000
0000
0000
0000
0000
0000
0000
0000
0000
0000
0000
0000
0000
0000
0000
0000
0000
0000
0000
0000
0000
0000
0000
0000
0000
0000
0000
0000
0000
0000
0000
0000
0000
0000
0000
0000
0000
0000
0000
0000
0000
0000
0000
0000
0000
0000
0000
0000
0000
0000
0000
0000
0000
0000
0000
0000
0000
0000
0000
0000
0000
0000
,
2002
0000
0000
0000
0000
3003
0000
0000
,
0100
0010
0001
0100
,
0202
0303
0100
0010
,
0001
0100
0010
0100
,
1000
0100
0100
0010
,
0100
0010
0001
0100
,
0001
0000
0100
0001
0100
0000
1000
0000
,
0100
1000
0100
0010
,
0001
0100
0010
0100
,
0010
0001
0100
0001
,
0100
0000
0001
0100
0001
0000
1000
0000
,
0100
1000
0100
0010
,
0001
0100
0010
1000
,
0100
1000
0100
0010
,
0001
0000
1000
0100
,
1000
0100
0010
0001
,
0100
0000
0010
0000
0100
0010
0000
0001
,
0100
0000
0010
1000
0000
0100
0010
0001
,
0010
0100
0010
0001
0010
0000
0100
0000
,
1000
0100
1000
0100
,
0010
1000
0001
0000
0100
0000
0010
0000
,
0100
0010
0001
0100
,
0001
0000
0100
0001
0100
0000
1000
0000
,
0100
0010
1000
0100
,
1000
0000
0100
0000
1000
0100
0000
0010
,
0100
0000
0001
0010
0000
0100
0010
0100
,
0010
0001
1000
0010
0100
0000
0010
0000
,
0100
0010
0001
0000
0010
0000
0100
0000
,
1000
0100
0010
0000
0100
0000
0010
0000
,
0001
0010
0100
0000
0010
0000
0100
0000
,
0010
0001
0100
0001
,
0100
0001
0100
0000
1000
0000
0100
0000
,
1000
0100
1000
0000
0100
0010
0000
0001
,
0100
0000
1000
0100
0000
0010
0001
0000
,
0100
0010
0100
0000
2002
0000
0000
0000
,
0000
0000
3003
0000
,
2002
3003
1001
0000
;

//--------------- dance-single - Wrland ----------------
#NOTES:
     dance-single:
     Wrland:
     Hard:
     12:
     0,0,0,0,0:
0000
0000
0000
0000
,
0000
0000
0000
0000
,
0000
0000
0000
0000
,
0000
0000
0000
0000
,
0100
0000
1000
0000
0100
0010
0100
0000
0010
0000
0100
0000
0010
0100
0010
0000
,
0001
0000
0100
0000
0001
0100
0001
0000
0001
0000
0100
0000
0010
1000
0100
0000
,
0010
0000
0001
0000
0100
0001
0100
0000
0010
0000
1000
0000
0100
1000
0100
0000
,
0010
0000
0001
0000
0100
0001
0100
0000
0010
0000
0100
0000
0001
0010
0100
0000
,
0010
0100
0100
0010
0001
1000
0001
1000
,
0001
1000
0001
1000
0001
1000
0001
1000
,
0001
0100
0000
0000
0000
0000
0000
0000
0000
0000
0000
0000
0000
0000
0000
0000
0000
0000
0000
0000
0000
0000
0000
0000
0000
0000
0000
0000
0000
0000
0000
0000
0000
0000
0000
0000
0000
0000
0000
0000
0000
0000
0000
0000
0000
0000
0000
0000
0010
0000
0000
0000
0000
0000
0000
0000
0000
0000
0000
0000
0000
0000
0000
0000
0000
0000
0000
0000
0000
0000
0000
0000
0000
0000
0000
0000
0000
0000
0000
0000
0000
0000
0000
0000
0000
0000
0000
0000
0000
0000
0000
0000
0000
0000
0000
0000
0100
0000
0000
0000
0000
0000
0000
0000
0000
0000
0000
0000
0000
0000
0000
0000
0000
0000
0000
0000
0000
0000
0000
0000
0000
0000
0000
0000
0000
0000
0000
0000
0000
0000
0000
0000
0000
0000
0000
0000
0000
0000
0000
0000
0000
0000
0000
0000
0010
0000
0000
0000
0000
0000
0000
0000
0000
0000
0000
0000
0000
0000
0000
0000
0000
0000
0000
0000
0000
0000
0000
0000
0000
0000
0000
0000
0000
0000
0000
0000
0000
0000
0000
0000
0000
0000
0000
0000
0000
0000
0000
0000
0000
0000
0000
0000
,
0001
0000
0100
0000
0001
0000
0100
0001
,
0100
1000
0100
0010
,
0002
0003
0100
0000
0010
0000
0010
1000
,
0100
0010
0100
0010
,
0001
0000
0100
0000
0001
0000
0100
0010
,
0100
0010
0001
0100
,
1000
0000
0100
0001
0010
0100
0010
0100
,
0010
0100
1001
0000
0100
0010
1000
0000
,
0100
0001
0010
0000
0002
1003
0100
0000
,
0010
0001
0100
0000
0010
1000
0001
0000
,
0100
0000
0000
0001
0000
0000
0010
0000
0000
0000
0000
0000
0101
0000
0000
0000
1010
0000
0000
0000
0000
0101
0000
0000
,
0010
0100
0010
0001
1000
0010
0100
0010
,
1000
0100
0010
0001
0100
0010
1000
0100
,
0010
0002
0003
0010
0200
0300
1000
0200
,
0300
0010
0001
0000
2002
3003
0220
0330
,
2020
3030
0100
0010
0100
0010
0001
1000
,
0100
0010
0100
0010
,
0001
0100
0001
0100
0001
0000
1000
0000
,
0100
1000
0010
0100
,
0010
0100
0010
0100
0010
0000
0001
0000
,
0100
0001
0100
0001
0100
0000
1000
0000
,
0100
1000
0100
1000
0100
0000
0100
0000
,
0010
0000
0100
0001
0001
0100
0100
0000
,
0010
0001
0100
1000
0100
0000
0010
0000
,
0100
0010
0100
0010
0100
0000
0010
0000
,
0001
0100
0001
0100
0001
0000
0100
0000
,
1000
0100
1000
0100
1000
0000
0100
0000
,
0010
0100
0010
0100
0010
0000
0001
0000
,
0100
0001
0100
0001
0100
0000
0010
0000
,
0100
0010
0100
0010
0001
0000
0100
0000
,
1000
0100
1000
0100
1000
0000
0100
0000
,
0220
0000
0000
0330
,
2002
0000
3003
0000
,
2200
0000
3300
0000
,
0220
0000
0330
0000
,
0001
0100
0001
0100
1000
0100
1000
0000
,
0100
0010
0001
0100
0010
1000
0100
0000
,
1000
0100
0010
0001
0100
0010
0100
0000
,
0100
0010
0001
0100
0010
1000
0200
0000
,
0300
0000
0220
0000
0330
0000
0010
0100
,
0010
0000
2002
0000
3003
0000
1000
0001
,
1000
0000
2200
0000
3300
0000
0100
0010
,
0001
0000
0022
0000
0033
0000
0001
0010
,
0100
0000
0100
0010
0100
0000
1000
0100
,
1000
0000
0100
0010
0001
0000
0100
0001
,
0100
0000
0010
0100
1000
0000
0100
0010
,
0001
0000
0100
0001
0100
0001
0010
1000
,
0100
0000
1000
0100
1001
0000
1100
0000
0110
0000
0011
0000
0110
0000
1100
0000
,
0011
1010
1001
1100
0110
0101
1001
0110
,
1001
0100
0000
0000
0000
0000
0000
0000
0000
0000
0000
0000
0000
0000
0000
0000
0000
0000
0000
0000
0000
0000
0000
0000
0010
0000
0000
0000
0000
0000
0000
0000
0000
0000
0000
0000
0000
0000
0000
0000
0000
0000
0000
0000
0000
0000
0000
0000
0100
0000
0000
0000
0000
0000
0000
0000
0000
0000
0000
0000
0000
0000
0000
0000
0000
0000
0000
0000
0000
0000
0000
0000
0010
0000
0000
0000
0000
0000
0000
0000
0000
0000
0000
0000
0000
0000
0000
0000
0000
0000
0000
0000
0000
0000
0000
0000
0001
0000
0000
0000
0000
0000
0000
0000
0000
0000
0000
0000
0000
0000
0000
0000
0000
0000
0000
0000
0000
0000
0000
0000
0010
0000
0000
0000
0000
0000
0000
0000
0000
0000
0000
0000
0000
0000
0000
0000
0000
0000
0000
0000
0000
0000
0000
0000
0100
0000
0000
0000
0000
0000
0000
0000
0000
0000
0000
0000
0000
0000
0000
0000
0000
0000
0000
0000
0000
0000
0000
0000
1000
0000
0000
0000
0000
0000
0000
0000
0000
0000
0000
0000
0000
0000
0000
0000
0000
0000
0000
0000
0000
0000
0000
0000
,
0100
0010
0001
0010
0100
0001
1000
0100
,
0010
1000
0001
0010
0100
0001
0010
0001
0100
0010
1000
0100
0100
0001
0010
1000
,
0002
0003
0100
0010
,
0100
0010
0001
0000
1000
0000
0001
0000
,
1000
0000
0001
1000
0001
0000
0100
0000
,
1000
0010
0100
0000
0010
0000
0001
0000
,
0100
0000
0001
0100
0001
0000
0010
0000
,
0100
0010
1000
0001
0100
0000
0010
0000
,
0001
0000
0100
0001
0100
0010
0000
0001
,
0100
0000
0010
1000
0000
0001
0010
1000
,
0001
0010
0100
0001
0010
0000
0100
0000
,
0010
0001
0001
0010
0100
0000
1000
0000
,
0100
0000
1000
0100
1000
0000
0100
0000
,
0010
0001
0100
0001
,
0100
0000
0000
0000
0001
0000
0000
0000
0000
0101
0000
0000
1000
0000
0000
0000
0000
0000
0100
0000
0000
0000
0000
0000
,
0010
0001
0001
0100
0001
1000
0100
0001
,
0010
1000
0100
0001
0010
1000
0000
0100
,
0010
0000
0001
0100
0000
1000
0100
0000
,
0010
0100
0010
0001
0200
0000
0000
0000
,
0000
0000
0320
0000
,
0030
0000
0100
0010
,
0100
0010
0001
0100
1000
0000
0001
0000
,
1000
0100
0010
0001
0010
0000
0100
0000
,
1000
0100
1000
0100
0010
0000
0100
0000
,
0010
0001
0100
0001
0100
0010
0000
0001
,
0100
0000
0100
0010
0000
1000
0100
0010
,
0001
0010
0100
0010
0001
0000
1000
0000
,
0001
1000
0001
1000
0100
0000
0010
0000
,
0100
0010
0100
0010
0001
0000
1000
0000
,
0001
1000
0001
1000
0100
0000
0010
0000
,
0100
0010
0100
0010
1000
0000
0001
0000
,
0100
0010
0100
0010
0001
0000
0010
0000
,
0100
1000
0100
0010
0001
0010
0000
0100
,
1000
0000
0010
0100
0000
0001
0010
1000
,
0100
0010
0100
0010
2002
0000
0000
0000
,
0000
0000
0000
0000
,
3003
0000
1001
0000
;
