#VERSION:0.83;
#TITLE:Identity Part. 4;
#SUBTITLE:;
#ARTIST:SHK;
#TITLETRANSLIT:;
#SUBTITLETRANSLIT:;
#ARTISTTRANSLIT:;
#GENRE:Dance;
#CREDIT:;
#MUSIC:Identity Part. 4.ogg;
#BANNER:Identity Part. 4.png;
#BACKGROUND:Identity Part. 4-bg.png;
#CDTITLE:Wrland Season 3 CITYGHT + last one night.png;
#SAMPLESTART:93.865;
#SAMPLELENGTH:12.000;
#SELECTABLE:YES;
#OFFSET:-0.001;
#BPMS:0.000=139.989
,112.000=69.995
,114.000=139.989
,150.000=69.995
,168.000=139.989
;
#STOPS:;
#DISPLAYBPM:69.000:139.000;
#JACKET:Identity Part. 4-jacket.png;
#CDIMAGE:Identity Part. 4-cd.png;
#METERTYPE:DDR X;
#BGCHANGES:;
#FGCHANGES:;

//--------------- dance-single - ----------------
#NOTEDATA:;
#STEPSTYPE:dance-single;
#DESCRIPTION:;
#DIFFICULTY:Beginner;
#METER:1;
#RADARVALUES:0,0,0,0,0;
#NOTES:
0000
0000
0000
0000
,
0000
0000
0000
0000
,
0000
0000
0000
0000
,
0000
0000
0000
0000
,
0100
0000
0000
0000
,
0000
0000
0000
0000
,
0001
0000
0000
0000
,
0000
0000
0000
0000
,
0100
0000
0000
0000
,
0000
0000
0000
0000
,
1000
0000
0000
0000
,
0000
0000
0000
0000
,
1001
0000
0000
0000
,
0000
0000
0000
0000
,
0110
0000
0000
0000
,
0000
0000
0000
0000
,
0011
0000
0000
0000
,
0000
0000
0000
0000
,
1010
0000
0000
0000
,
0000
0000
0000
0000
,
1100
0000
0000
0000
,
0000
0000
0000
0000
,
0011
0000
0000
0000
,
0000
0000
0000
0000
,
0110
0000
0000
0000
,
0000
0000
0000
0000
,
1001
0000
0000
0000
,
0000
0000
0000
0000
,
2002
3003
0000
0000
,
0000
0000
1000
0000
,
0000
0000
0000
0000
,
0000
0000
0100
0000
,
0000
0000
0000
0000
,
0000
0000
1000
0000
,
0000
0000
0000
0000
,
0000
0000
0100
0000
,
0000
0000
0000
0000
,
0000
0000
0020
0030
,
0200
0000
0000
0300
,
0020
0000
0000
0030
,
0200
0000
0000
0300
,
2000
0000
0000
3000
,
0100
0000
0000
0000
,
0000
0000
0000
0000
,
0001
0000
0000
0000
,
0000
0000
0000
0000
,
0100
0000
0000
0000
,
0000
0000
0000
0000
,
1000
0000
0000
0000
,
0000
0000
0000
0000
,
1001
0000
0000
0000
,
0000
0000
0000
0000
,
0110
0000
0000
0000
,
0000
0000
0000
0000
,
1100
0000
0000
0000
,
0000
0000
0000
0000
,
0101
0000
0000
0000
,
0000
0000
0000
0000
,
2002
0000
0000
0000
,
0000
0000
0000
0000
,
3003
0000
0000
0000
;

//--------------- dance-single - ----------------
#NOTEDATA:;
#STEPSTYPE:dance-single;
#DESCRIPTION:;
#DIFFICULTY:Easy;
#METER:4;
#RADARVALUES:0,0,0,0,0;
#NOTES:
0000
0000
0000
0000
,
0000
0000
0000
0000
,
0000
0000
0000
0000
,
0000
0000
0000
0000
,
1000
0000
0000
0000
,
1000
0000
0000
0000
,
0001
0000
0000
0000
,
0001
0000
0000
0000
,
1000
0000
0000
0000
,
1000
0000
0000
0000
,
0100
0000
0000
0000
,
0100
0000
0000
0000
,
0010
0000
0000
0000
,
0010
0000
0000
0000
,
0100
0000
0000
0000
,
0100
0000
0000
0000
,
0010
0000
0000
0000
,
0010
0000
0000
0000
,
0100
0000
0000
0000
,
0100
0000
0000
0000
,
1000
0000
0000
0000
,
1000
0000
0000
0000
,
0001
0000
0000
0000
,
0001
0000
0000
0000
,
1000
0000
0000
0000
,
1000
0000
0000
0000
,
0100
0000
0000
0000
,
0100
0000
0000
0000
,
2002
3003
1001
1000
,
0001
1000
0100
0000
,
0000
0000
0010
0000
,
0000
0000
0100
0000
,
0000
0000
0010
0000
,
0000
0000
1000
0000
,
0000
0000
1000
0000
,
0000
0000
0001
0000
,
0000
0000
0001
0000
,
0000
0000
2002
3003
,
0200
0000
0000
0300
,
0020
0000
0000
0030
,
0200
0000
0000
0300
,
2000
0000
0000
3000
,
1001
0000
0000
0000
,
0110
0000
0000
0000
,
1100
0000
0000
0000
,
0101
0000
0000
0000
,
1010
0000
0000
0000
,
0101
0000
0000
0000
,
1001
0000
0000
0000
,
1001
0000
0000
0000
,
1001
0000
0000
0000
,
1010
0000
0000
0000
,
0101
0000
0000
0000
,
0110
0000
0000
0000
,
0101
0000
0000
0000
,
1010
0000
0000
0000
,
0110
0000
0000
0000
,
0101
0000
0000
0000
,
2002
0000
0000
0000
,
0000
0000
0000
0000
,
3003
0000
0000
0000
;

//--------------- dance-single - ----------------
#NOTEDATA:;
#STEPSTYPE:dance-single;
#DESCRIPTION:;
#DIFFICULTY:Medium;
#METER:7;
#RADARVALUES:0,0,0,0,0;
#NOTES:
0000
0000
0000
0000
,
0000
0000
0000
0000
,
0000
0000
0000
0000
,
0000
0000
0000
0000
,
1000
0000
0001
0000
1000
0001
1000
0000
,
0100
0000
0010
0000
0100
0010
0100
0000
,
0100
0000
0010
0000
0001
0100
0001
0000
,
0100
0000
1000
0000
0010
1000
0010
0000
,
0100
0000
0001
0000
0100
0001
0100
0000
,
0100
0000
1000
0000
0010
1000
0010
0000
,
0100
0000
0010
0000
0001
1000
0001
0000
,
0100
0000
0000
0000
0010
0000
0000
0000
1000
0000
0100
0000
0010
0001
0010
0100
,
2000
0000
3000
0200
0000
0300
0020
0000
0000
0030
0200
0000
0000
0300
0010
0000
,
0200
0000
0300
0020
0000
0030
0002
0000
0000
0003
2000
0000
0000
3000
0100
0000
,
0020
0000
0000
0030
0000
0000
0200
0000
0000
0000
0000
0300
0000
0000
0020
0000
,
0000
0030
0100
0000
0010
0000
0200
0000
0000
0300
0000
0000
0100
0000
0000
0000
,
0010
0100
0010
1000
0100
0010
0100
0010
,
0001
0100
0010
0100
1000
0100
0010
0100
,
0010
0001
0100
0010
0100
1000
0100
0010
,
1001
0000
0110
0000
0100
0010
0001
1000
,
2002
0000
3003
0200
0000
0300
0020
0000
0000
0030
0200
0000
0000
0300
0010
0000
,
0002
0000
0003
2000
0000
3000
0002
0000
0000
0003
2000
0000
0000
3000
0100
0000
,
0020
0000
0030
0200
0000
0000
0300
0020
,
0030
0100
0010
0002
0000
0000
0003
0000
,
0100
0010
0100
1000
0100
0010
0001
0100
,
0010
0100
0010
1000
0100
0010
0001
0100
,
0010
1000
0100
0010
0001
1000
0001
1000
,
0001
0100
0010
0100
0010
0100
0100
0000
,
2020
3030
0202
0303
2002
3003
0220
0330
,
1001
1001
2002
3003
0100
0010
0100
0010
,
0100
1000
0100
0010
0001
0100
0010
0100
,
0100
1000
0100
0010
0001
0100
0010
0100
,
1000
0100
0010
0000
0100
0010
0010
0100
,
1000
0100
0010
0001
0100
0010
0100
1000
,
0100
0010
0100
0010
0001
1000
0100
0010
,
0100
1000
0100
0010
0001
0100
0010
0100
,
1000
0100
0010
0000
0100
1000
0100
0010
,
0001
0000
0000
0000
0100
0000
0000
0000
0001
0000
0000
0000
0000
0000
0000
0000
2002
0000
0000
0000
0000
0000
0000
0000
3003
0000
0000
0000
0100
0010
0100
0010
,
2000
0000
3000
0200
0000
0000
0320
0000
0000
0030
0200
0000
0000
0300
0010
0000
0200
0000
0300
2000
0000
3000
0200
0000
0000
0300
0020
0000
0000
0030
0100
0000
,
0020
0000
0000
0000
0000
0030
0002
0000
0000
0000
0000
0000
0000
0003
2000
0000
3000
0000
0001
0000
1000
0000
0200
0000
0000
0000
0000
0000
0000
0300
0000
0000
,
0100
0010
0100
0010
1000
0100
0010
0001
0100
0010
0100
1000
0100
0010
0001
0100
,
0010
0100
1000
0100
0010
0001
0100
0010
0100
0100
0010
1000
0100
0010
0001
1000
,
2002
0000
3003
0200
0000
0300
0020
0000
0030
0000
0200
0000
0000
0300
0001
1000
,
0002
0000
0003
0200
0000
0300
0020
0000
0000
0030
0200
0000
0000
0300
0010
0000
,
0200
0000
0300
0002
0000
0000
0003
2000
,
3000
0100
0010
0200
0000
0000
0300
0000
,
1000
0100
0010
0100
0010
0001
0100
0010
,
0100
1000
0100
0010
0001
0100
0010
0100
,
1000
0100
0010
0001
0100
0010
0100
1000
,
0100
0000
0010
0000
0001
0000
0100
0000
0010
0000
0100
0000
1000
0010
0100
0011
,
2002
0000
3003
0200
0000
0300
0020
0000
0030
0000
0200
0000
0000
0300
1000
0010
,
0200
0000
0300
0020
0000
0030
0002
0000
0000
0003
0200
0000
0000
0300
0010
0000
,
0200
0000
0300
2000
0000
0000
3000
0200
,
0000
0300
0010
0000
0100
0000
0020
0000
0000
0000
0000
0000
0030
0000
0000
0000
,
1000
0100
0010
0100
1000
0100
0010
0001
,
0100
0010
1000
0100
0010
0100
0010
0001
,
1000
0100
0010
1000
0100
0010
0001
0100
,
0010
1000
0100
0010
0001
1000
0001
1000
,
2002
0000
0000
0000
,
0000
0000
0000
0000
,
3003
0000
0000
0000
;

//--------------- dance-single - ----------------
#NOTEDATA:;
#STEPSTYPE:dance-single;
#DESCRIPTION:;
#DIFFICULTY:Hard;
#METER:10;
#RADARVALUES:0,0,0,0,0;
#NOTES:
0000
0000
0000
0000
,
0000
0000
0000
0000
,
0000
0000
0000
0000
,
0000
0000
0000
0000
,
1000
0001
1000
0000
0100
0000
0010
0000
0100
0010
0100
0000
0100
0000
1000
0000
,
0100
0010
0100
0000
0010
0000
0100
0000
0010
0001
1000
0000
0100
0000
0010
0000
,
0100
0010
0100
0000
1000
0000
0100
0000
0001
1000
0001
0000
0100
0000
0010
0000
,
0100
0010
0100
0000
1000
0000
0100
0000
0010
0100
0010
0000
0100
0000
0010
0000
,
0001
1000
0001
0000
0100
0000
0010
0000
0100
0010
0100
0000
0010
0000
1000
0000
,
0001
1000
0001
0000
0100
0000
0010
0000
1000
0100
1000
0000
0100
0000
0010
0000
,
0100
0010
0100
0000
0010
0000
0100
0000
0010
0100
0010
0000
0001
0000
1000
0000
,
1001
1000
0010
0000
0101
0000
0010
0000
1100
0010
0100
0000
0011
0001
1000
0100
,
0020
0000
0030
0200
0000
0300
0020
0000
0000
0030
0200
0000
0000
0300
0010
0001
,
0200
0000
0300
2000
0000
3000
0200
0000
0000
0300
0020
0000
0000
0030
0100
0000
,
0020
0000
0000
0000
0000
0030
0200
0000
0000
0000
0000
0000
0300
0000
0200
0000
,
0000
0300
0010
0000
1000
0000
0002
0000
0000
0000
0000
0000
0003
0000
0000
0000
,
0100
0010
0100
0010
1000
0100
0010
0100
0010
0100
0010
0100
0010
0001
0010
1000
,
0100
0010
1000
0001
0100
0010
0100
0010
0001
0100
0010
0001
0100
1000
0100
0010
,
0100
0001
1000
0001
1000
0001
1000
0001
1000
0001
1000
0001
1000
0100
0010
0100
,
0010
0100
0010
0100
0010
0100
0010
0100
0010
0100
0010
0100
0010
0100
0010
0000
,
2002
0000
3003
0200
0000
0300
0020
0000
0000
0030
0200
0000
0000
0300
0010
1000
,
0020
0000
0030
2000
0000
3000
0200
0000
0300
0000
0200
0000
0300
0000
0100
0000
,
0020
0000
0030
0002
0000
0000
0003
2000
,
0000
3000
0100
0000
0010
0000
0200
0000
0000
0000
0000
0000
0300
0000
0000
0000
,
0100
0010
0001
0010
0100
1000
0100
0010
0001
0010
0100
1000
0100
1000
0100
1000
,
0100
1000
0100
1000
0100
0010
0100
0010
0100
0010
0001
0100
0001
0100
0001
0100
,
0001
0100
0001
0100
0001
1000
0010
1000
0010
1000
0010
1000
0010
1000
0010
0010
,
0101
0010
0100
0010
1001
0100
1000
0100
0110
0001
0010
0001
1001
0010
0100
0010
,
2002
0000
0000
3003
0220
0000
0000
0330
2002
0000
0000
3003
0220
0000
0330
0000
,
0110
0010
0100
0010
0101
1000
0100
0010
1001
0100
1000
0000
0100
0000
0010
0000
,
0100
0010
0100
0000
0010
0000
0001
0000
1000
0001
1000
0000
0100
0000
0010
0000
,
0100
0010
0100
0000
0100
0000
0010
0000
1000
0010
1000
0000
0100
0000
0010
0000
,
0001
1000
0001
0000
0100
0000
0010
0000
0100
0001
0010
0000
0100
0000
0010
0000
,
1000
0100
0010
0000
0001
0000
1000
0000
0100
0010
0100
0000
0010
0000
0001
0000
,
1000
0100
1000
0000
0010
0000
1000
0000
0010
0100
0010
0000
0001
0000
0010
0000
,
0100
0010
0100
0000
0010
0000
0001
0000
1000
0001
1000
0000
0001
0000
1000
0000
,
0001
1000
0001
0000
0100
0000
0010
0000
0100
0010
0100
0000
1000
0000
0100
0000
,
0010
0000
0100
0000
0010
0000
0000
0000
0001
0000
0000
0000
1000
0000
0000
0000
2002
0000
0000
0000
0000
0000
0000
0000
3003
0000
0000
0000
0100
0010
0001
0010
,
2200
0000
3300
2000
0000
3000
0200
0000
0000
0300
0020
0000
0000
0030
0100
0010
0200
0000
0300
2000
0000
3000
0200
0000
0000
0300
0020
0000
0000
0030
0100
0000
,
0220
0000
0000
0000
0000
0330
0002
0000
0000
0000
0000
0000
0000
0003
2000
0000
3000
0000
0001
0000
1000
0000
0002
0000
0000
0000
0000
0000
0000
0000
0000
0003
,
0100
0010
0100
0010
0100
0010
0100
0010
0100
0010
1000
0100
1000
0100
1000
0100
1000
0100
1000
0100
0010
0100
0010
0100
0001
0100
0001
0100
0001
0100
0001
0100
,
0001
1000
0100
1000
0100
1000
0100
1000
0100
1000
0100
1000
0100
1000
0100
1000
0100
0010
0100
0010
0100
0010
0100
0010
0100
0010
0100
0010
0100
0001
1000
0001
,
2002
0000
3003
0200
0000
0300
0020
0000
0030
0000
0200
0000
0000
0300
0001
1000
,
0002
0000
0003
0200
0000
0300
0020
0000
0030
0000
0200
0000
0000
0300
1000
0000
,
0200
0000
0000
0300
0000
0000
0200
0000
0000
0000
0000
0000
0300
0000
0002
0000
,
0000
0003
0010
0000
0100
0000
0002
0000
0000
0000
0000
0000
0003
0000
0000
0000
,
1000
0100
1000
0100
0010
0001
0010
0100
0100
0010
0100
0010
1000
0001
1000
0001
,
0100
0010
0100
1000
0001
0010
0100
0010
1000
0100
0010
0001
0010
0100
1000
0100
,
1100
0010
0100
0010
0011
0010
1000
0010
0101
0010
0100
0001
0011
0100
1000
0100
,
1010
0001
0100
0001
1100
0010
0100
1000
0011
0100
1000
0100
0101
0010
0100
0010
,
2002
0000
3003
0202
0000
0303
2020
0000
3030
0000
0220
0000
0330
0000
0010
0100
,
0022
0000
0033
2200
0000
3300
0022
0000
0033
0000
2200
0000
3300
0000
0101
0000
,
2020
0000
3030
0220
0000
0000
0330
2020
,
3030
0101
1010
0202
0000
0000
0303
0000
,
1001
0100
0010
0100
0110
0001
1000
0001
1001
0100
1000
0100
0110
0010
0001
0010
,
1100
0100
0010
0100
1100
0001
0010
0001
0110
1000
0001
1000
0001
0100
0010
1000
,
0101
0010
0001
0010
0101
0010
0100
0010
1010
0001
0100
0001
1010
0100
1000
0100
,
0101
1000
0010
0100
1001
0100
0001
0100
1001
0100
0010
0001
1001
0100
1000
0100
,
2002
0000
0000
0000
,
0000
0000
0000
0000
,
3003
0000
0000
0000
;
