#TITLE:I'M IN THE HOUSE LIKE CARPET;
#SUBTITLE:;
#ARTIST:MAYOR D;
#TITLETRANSLIT:;
#SUBTITLETRANSLIT:;
#ARTISTTRANSLIT:;
#GENRE:Jersey Club;
#CREDIT:Wrland;
#MUSIC:IM IN THE HOUSE LIKE CARPET.ogg;
#BANNER:IM IN THE HOUSE LIKE CARPET.png;
#BACKGROUND:IM IN THE HOUSE LIKE CARPET-bg.png;
#CDTITLE:Wrland Season 3 CITYGHT + last one night.png;
#PREVIEWVID:preview.mp4;
#SAMPLESTART:75.200;
#SAMPLELENGTH:12.000;
#SELECTABLE:YES;
#OFFSET:0.000;
#BPMS:0.000=150.000;
#STOPS:239.500=0.200;
#DISPLAYBPM:150.000;
#METERTYPE:DDR X;
#JACKET:IM IN THE HOUSE LIKE CARPET-jacket.png;
#CDIMAGE:IM IN THE HOUSE LIKE CARPET-cd.png;
#BGCHANGES:0.000=IM IN THE HOUSE LIKE CARPET.avi=0.000=0=0=0=StretchNoLoop====,
99999.000=-nosongbg-=1.000=0=0=0=StretchNoLoop====
;
#FGCHANGES:;

//--------------- dance-single - Wrland ----------------
#NOTES:
     dance-single:
     Wrland:
     Beginner:
     4:
     0,0,0,0,0:
0000
0000
0000
0000
,
0000
0000
0000
0000
,
0000
0000
0000
0000
,
0000
0000
0000
0000
,
0000
0000
0000
0000
,
0000
0000
0000
0000
,
0000
0000
0000
0000
,
0000
0000
0000
0000
,
1000
0000
1000
0000
,
0001
0000
0001
0000
,
1000
0000
1000
0000
,
0001
0000
0001
0000
,
1000
0000
1000
0000
,
0001
0000
0001
0000
,
1000
0000
1000
0000
,
0001
0000
0001
0000
,
0100
0000
0100
0000
,
0010
0000
0010
0000
,
0100
0000
0100
0000
,
0010
0000
0010
0000
,
0100
0000
0100
0000
,
0010
0000
0010
0000
,
0001
0000
0001
0000
,
0010
0000
0010
0000
,
0100
0000
1000
0000
,
0100
0000
0010
0000
,
0001
0000
0010
0000
,
0100
0000
1000
0000
,
0100
0000
1000
0000
,
0100
0000
0010
0000
,
0001
0000
0100
0000
,
0001
0000
0100
0000
,
0010
0000
0001
0000
,
0100
0000
0010
0000
,
0100
0000
0010
0000
,
0100
0000
0010
0000
,
0001
0000
0100
0000
,
0010
0000
0001
0000
,
1000
0000
0001
0000
,
2002
0000
0000
3003
,
0100
0000
0100
0000
,
1000
0000
1000
0000
,
0100
0000
0100
0000
,
0010
0000
0001
0000
,
0100
0000
0100
0000
,
0001
0000
0001
0000
,
0010
0000
0010
0000
,
0100
0000
0100
0000
,
1000
0000
0100
0000
,
1000
0000
0100
0000
,
0010
0000
0001
0000
,
0010
0000
0100
0000
,
1000
0000
0100
0000
,
1000
0000
0100
0000
,
0010
0000
0001
0000
,
0100
0000
0010
0000
,
0100
0000
0010
0000
,
0001
0000
0010
0000
,
0100
0000
1000
0000
,
0100
0000
0000
0000
0000
0000
0000
0000
0000
0000
0000
0000
0000
0000
0000
0000
0000
0000
0000
0000
0000
0000
0000
0000
0000
0000
0000
0000
0000
0000
0000
0000
0000
0000
0000
0000
0000
0000
0000
0000
0000
0000
0000
0000
0000
0000
0000
0000
0000
0000
0000
0000
0000
0000
0000
0000
0000
0000
0000
0000
0000
0000
0000
0000
0000
0000
0000
0000
0000
0000
0000
0000
0000
0000
0000
0000
0000
0000
0000
0000
0000
0000
0000
0000
0000
0000
0000
0000
0000
0000
0000
0000
0000
0000
0000
0000
0010
0000
0000
0000
0000
0000
0000
0000
0000
0000
0000
0000
0000
0000
0000
0000
0000
0000
0000
0000
0000
0000
0000
0000
0000
0000
0000
0000
0000
0000
0000
0000
0000
0000
0000
0000
0000
0000
0000
0000
0000
0000
0000
0000
0000
0000
0000
0000
0000
0000
0000
0000
0000
0000
0000
0000
0000
0000
0000
0000
0000
0000
0000
0000
0000
0000
0000
0000
0000
0000
0000
0000
0000
0200
0000
0000
0000
0000
0000
0000
0000
0000
0000
0000
0000
0000
0000
0000
0000
0000
0000
0000
0000
0000
0000
0000
,
0000
0000
0000
0000
0300
0000
0000
2000
,
0000
0000
0000
0000
3000
0000
0000
0200
,
0000
0000
0000
0000
0300
0000
0000
0020
,
0000
0000
0000
0000
0000
0030
0000
0002
,
0000
0000
0000
0000
0003
0000
0000
2000
,
0000
0000
0000
0000
3000
0000
0000
0002
,
0000
0000
0000
0000
0003
0000
0000
2000
,
0000
0000
0000
0000
3000
0000
0000
0200
,
0000
0000
0000
0000
0300
0000
0000
0200
,
0000
0000
0000
0000
0300
0000
0000
0020
,
0000
0000
0000
0000
0030
0000
0000
0002
,
0000
0000
0000
0000
0003
0000
0000
0200
,
0000
0000
0000
0000
0300
0000
0000
0020
,
0000
0000
0000
0000
0030
0000
0000
0200
,
0000
0000
0000
0000
0300
0000
0000
0020
,
0000
0000
0030
0000
;

//--------------- dance-single - Wrland ----------------
#NOTES:
     dance-single:
     Wrland:
     Easy:
     6:
     0,0,0,0,0:
0000
0000
0000
0000
,
0000
0000
0000
0000
,
0000
0000
0000
0000
,
0000
0000
0000
0000
,
0000
0000
0000
0000
,
0000
0000
0000
0000
,
0000
0000
0000
0000
,
0000
0000
0000
0000
,
1000
0000
1000
1000
,
0001
0000
0001
0001
,
0100
0000
0100
0100
,
0010
0000
0010
0010
,
0001
0000
0001
0001
,
0010
0000
0100
0100
,
1000
0000
0100
1000
,
0100
0000
0010
0100
,
0010
0000
0001
0001
,
0010
0000
0100
0010
,
0100
0000
1000
0100
,
1000
0000
0100
1000
,
0100
0000
0010
0001
,
0100
0000
0010
0100
,
0010
0000
0001
0100
,
0001
0000
0010
0100
,
1000
0000
0100
0000
,
1000
0000
0100
0000
,
0010
0000
0001
0000
,
0010
0000
0100
0000
,
0010
0000
0001
0000
,
0010
0000
0100
0000
,
1000
0000
0100
0000
,
0010
0000
0100
0000
,
0010
0000
0001
0000
,
0100
0000
1000
0000
,
0100
0000
0010
0000
,
0100
0000
0010
0000
,
0001
0000
0010
0000
,
0100
0000
1000
0000
,
0100
0000
0010
0000
,
2002
0000
0000
3003
,
0100
0000
1000
0000
,
0100
0000
1000
0000
,
0100
0000
0010
0000
,
0001
0000
0100
0000
,
0001
0000
0010
0000
,
0001
0000
0100
0000
,
0010
0000
0100
0000
,
1000
0000
0100
0000
,
0010
0000
0001
0000
,
0100
0000
0010
0000
,
0100
0000
0010
0000
,
0001
0000
1000
0000
,
0100
0000
1000
0000
,
0100
0000
0010
0000
,
0001
0000
0100
0000
,
0010
0000
0001
0000
,
0100
0000
0010
0100
,
0010
0000
0001
0100
,
0001
0000
0010
0100
,
1000
0000
0000
0000
0000
0000
0000
0000
0000
0000
0000
0000
0000
0000
0000
0000
0000
0000
0000
0000
0000
0000
0000
0000
0000
0000
0000
0000
0000
0000
0000
0000
0000
0000
0000
0000
0000
0000
0000
0000
0000
0000
0000
0000
0000
0000
0000
0000
0000
0000
0000
0000
0000
0000
0000
0000
0000
0000
0000
0000
0000
0000
0000
0000
0000
0000
0000
0000
0000
0000
0000
0000
0000
0000
0000
0000
0000
0000
0000
0000
0000
0000
0000
0000
0000
0000
0000
0000
0000
0000
0000
0000
0000
0000
0000
0000
0100
0000
0000
0000
0000
0000
0000
0000
0000
0000
0000
0000
0000
0000
0000
0000
0000
0000
0000
0000
0000
0000
0000
0000
0000
0000
0000
0000
0000
0000
0000
0000
0000
0000
0000
0000
0000
0000
0000
0000
0000
0000
0000
0000
0000
0000
0000
0000
0000
0000
0000
0000
0000
0000
0000
0000
0000
0000
0000
0000
0000
0000
0000
0000
0000
0000
0000
0000
0000
0000
0000
0000
0000
0002
0000
0000
0000
0000
0000
0000
0000
0000
0000
0000
0000
0000
0000
0000
0000
0000
0000
0000
0000
0000
0000
0000
,
0000
0000
0000
0000
0003
0000
0000
0002
,
0000
0000
0000
0000
0003
0000
0000
2000
,
0000
0000
0000
0000
3000
0000
0000
2000
,
0000
0000
0000
0000
3000
0000
0000
0200
,
0000
0000
0000
0000
0300
0000
0000
0200
,
0000
0000
0000
0000
0300
0000
0000
0020
,
0000
0000
0000
0000
0030
0000
0000
0020
,
0000
0000
0000
0000
0030
0000
0000
0002
,
0000
0000
0000
0000
0003
0000
0000
0002
,
0000
0000
0000
0000
0000
0003
0000
0200
,
0000
0000
0000
0000
0300
0000
0000
0200
,
0000
0000
0000
0000
0300
0000
0000
2000
,
0000
0000
0000
0000
3000
0000
0000
0200
,
0000
0000
0000
0000
0300
0000
0000
0020
,
0000
0000
0000
0000
0030
0000
0000
0002
,
0000
0000
0003
0000
;

//--------------- dance-single - Wrland ----------------
#NOTES:
     dance-single:
     Wrland:
     Medium:
     8:
     0,0,0,0,0:
0000
0000
0000
0000
,
0000
0000
0000
0000
,
0000
0000
0000
0000
,
0000
0000
0000
0000
,
0000
0000
0000
0000
,
0000
0000
0000
0000
,
0000
0000
0000
0000
,
0000
0000
0000
0000
,
0100
0000
1000
0100
0010
0000
0101
0000
,
0001
0000
0010
0000
0100
1000
1100
0000
,
0100
0000
0010
0000
0001
0100
0101
0000
,
0001
0000
0010
0000
0100
1000
1100
0000
,
0100
0000
0010
0000
0001
0100
0101
0000
,
0001
0000
0100
0000
0010
0100
1100
0000
,
0100
0000
0010
0000
0001
0100
0101
0000
,
0010
0000
0100
0000
1000
0100
1100
0000
,
0100
0000
0010
0000
0001
0100
0101
0000
,
0010
0000
0100
0000
1000
0100
1100
0000
,
0100
0000
0010
0000
0001
0100
0101
0000
,
0001
0000
0100
0000
0010
0100
0110
0000
,
1000
0000
0100
0000
1000
0100
1100
0000
,
0100
0000
0010
0000
0001
0100
0101
0000
,
0001
0000
0100
0000
0010
0100
0110
0000
,
1000
0000
0100
0000
1000
0100
1100
0000
,
0100
0000
0010
0002
0000
0003
0100
0000
,
0010
0100
1000
0100
,
0010
0000
0001
0200
0000
0300
0010
0000
,
0100
1000
0100
0010
,
0001
0000
0100
0020
0000
0030
0100
0000
,
1000
0100
0010
0001
,
0100
0001
0100
0001
0100
0000
0010
0000
,
1000
0100
1000
0100
1000
0000
1000
0000
,
0100
0000
1000
0100
0000
0000
0100
0000
,
0010
0001
0100
0001
0100
0000
0100
0000
,
1000
0000
0100
1000
0100
0000
0100
0000
,
0010
0001
0100
0010
,
0100
0010
0100
0000
0010
0000
0011
0000
,
0001
1000
0100
1000
0100
0000
1100
0000
,
0100
0000
0010
0001
0100
0000
0001
0000
,
0100
0000
1000
0000
0100
0000
0001
0000
0010
0000
0001
0000
0100
0000
0000
0000
0000
0000
0202
0000
0000
0303
0000
0000
,
0010
0000
0100
0010
0100
0000
0110
0000
,
0010
0000
0001
0100
0001
0000
0101
0000
,
0010
0000
1000
0100
1000
0000
1100
0000
,
1000
0100
1000
0000
0100
0010
0001
0000
,
0100
0010
0001
0000
0100
1000
0100
0000
,
0010
0100
0010
0000
0001
0100
0001
0000
,
0100
1000
0100
0010
0001
0100
0010
1000
,
0100
0000
1000
0100
1000
0000
0000
0000
,
0100
0000
1000
0100
0010
0000
0001
0100
,
0010
0000
0100
1000
0100
0000
0010
0000
,
0001
0000
0100
1000
0100
0000
0010
0001
,
0100
0000
1000
0100
0010
0000
0001
0000
,
0100
0001
0100
0000
0001
0100
1000
0000
,
1000
0100
0010
0000
0001
0100
0010
0000
,
1000
0100
1000
0000
0100
0010
0001
0000
,
0100
0010
0001
0100
0001
0000
0100
0000
,
1000
0100
1000
0100
1000
0100
1000
0000
,
0100
0010
0100
0010
0100
0010
0200
0300
,
0010
0001
0100
0001
0100
0001
0200
0300
,
0000
0000
0000
0000
0000
0000
0000
0000
0000
0000
0000
0000
0000
0000
0000
0000
0000
0000
0000
0000
0000
0000
0000
0000
0000
0000
0000
0000
0000
0000
0000
0000
0000
0000
0000
0000
0000
0000
0000
0000
0000
0000
0000
0000
0000
0000
0000
0000
0000
0000
0000
0000
0000
0000
0000
0000
0000
0000
0000
0000
0000
0000
0000
0000
0000
0000
0000
0000
0000
0000
0000
0000
0000
0000
0000
0000
0000
0000
0000
0000
0000
0000
0000
0000
0000
0000
0000
0000
0000
0000
0000
0000
0000
0000
0000
0000
0000
0000
0000
0000
0000
0000
0000
0000
0000
0000
0000
0000
0000
0000
0000
0000
0000
0000
0000
0000
0000
0000
0000
0000
0000
0000
0000
0000
0000
0000
0000
0000
0000
0000
0000
0000
0000
0000
0000
0000
0000
0000
0000
0000
0000
0000
0000
0000
0000
0000
0000
0000
0000
0000
0000
0000
0000
0000
0000
0000
0000
0000
0000
0000
0000
0000
0000
0000
0000
0000
0000
0000
0000
0010
0000
0000
0000
0000
0000
0000
0000
0000
0000
0000
0000
0000
0000
0000
0000
0000
0000
0000
0000
0000
0000
0000
,
0000
0100
0000
0010
0000
0100
0000
0100
,
0000
1000
0000
0100
0000
1000
0000
0100
,
0000
1000
0000
0100
0000
1000
0000
0100
,
0000
0010
0000
0001
0000
0100
0000
0001
,
0000
0100
0000
0010
0000
0100
0000
1000
,
0000
0100
0000
1000
0000
0100
0000
0010
,
0000
0100
0000
0010
0000
0001
0000
0100
,
0000
0001
0000
0100
0000
1000
0000
0200
,
0300
1000
0000
0100
1000
0100
0000
0010
,
0000
0100
0000
0010
0000
1000
0100
0020
,
0030
0100
0000
0010
0000
0001
0000
0100
,
0010
0001
0000
1000
0100
1000
0000
0200
,
0300
0010
0000
0001
0000
0100
0000
0010
,
0000
1000
0000
0100
1000
0100
0000
0002
,
0003
0100
0000
0010
0000
0100
0000
0010
,
0000
0001
0000
0100
0010
0100
0000
0000
;

//--------------- dance-single - Wrland ----------------
#NOTES:
     dance-single:
     Wrland:
     Hard:
     13:
     0,0,0,0,0:
0000
0000
0000
0000
,
0000
0000
0000
0000
,
0000
0000
0000
0000
,
0000
0000
0000
0000
,
0000
0000
0000
0000
,
0000
0000
0000
0000
,
0000
0000
0000
0000
,
0000
0000
0000
0000
,
1000
0100
1000
0000
0010
0000
0100
0000
0010
0000
0001
0000
0100
0000
0000
0000
,
0000
0000
0010
0100
0010
0000
0100
0000
0010
0000
0001
0000
0100
0000
0000
0000
,
0010
0100
0010
0000
0000
1000
0100
1000
0001
0000
0100
0000
0010
0000
0000
0000
,
0100
0000
0010
0001
0001
0000
0100
0000
0010
0000
0001
0000
0100
0000
0000
0000
,
0010
0100
0010
0000
0000
0001
1000
0001
0000
0000
0100
0000
0010
0000
0000
0000
,
0100
0000
1000
0100
0010
0000
0100
0000
0010
0000
0100
0000
0010
0000
0000
0000
,
0001
0100
0001
0000
0010
0100
0000
0000
0100
0000
0010
0000
0100
0000
0000
0000
,
0010
0000
0100
0010
0100
0000
0001
1000
0010
0000
0100
0000
0010
0000
0000
0000
,
0100
0010
0100
0000
0001
0000
1000
0000
0001
0000
1000
0000
0001
0000
0000
0000
,
0100
0000
1000
0100
1000
0000
0100
0000
0010
0000
0001
0000
0100
0000
0000
0000
,
0010
0100
0010
0000
0001
1000
0100
0000
0010
0000
0001
0000
0100
0000
0000
0000
,
0010
0000
0100
0001
1000
0000
0100
0000
0010
0000
0001
0000
0100
0000
0000
0000
,
0001
0100
0001
0000
0010
0000
0100
0000
1000
0000
0100
0000
0010
0000
0000
0000
,
0100
0000
0010
0100
0010
0000
0001
0000
0100
0000
0010
0000
0100
0000
0000
0000
,
1000
0100
0010
0000
0000
0010
0100
0001
0010
0000
0100
0000
0010
0000
0000
0000
,
0100
0000
1000
0010
0100
0000
0010
0000
0001
0000
0100
0000
0001
0000
0000
0000
,
1000
1000
1000
1000
2200
3300
0200
0300
,
0010
0010
0010
0020
0030
0000
0220
0330
,
0001
0001
0001
0001
0202
0303
0020
0030
,
0100
1000
0100
0020
0030
0000
0202
0303
,
0001
0010
1000
0100
0020
0030
2002
3003
,
0100
0010
0100
0100
0020
0030
0202
0303
,
1000
0100
0010
0100
0020
0030
0202
0303
,
0010
0100
1000
0100
0010
0000
0101
0000
,
0010
0001
0100
0000
1000
0000
0100
0000
0010
0000
1000
0000
0101
0000
0000
0000
,
0100
0000
1000
0010
0100
0000
0010
0000
0001
0000
0100
0000
1010
0000
0000
0000
,
0100
0001
0010
0000
0001
0000
0100
0000
0010
0000
0100
0000
1001
0000
0000
0000
,
0100
0000
0001
0100
0010
0000
1000
0000
0100
0000
0010
0000
0011
0000
0000
0000
,
1000
0010
0100
0000
0010
0000
0001
0000
0100
0000
0010
0000
0101
0000
0000
0000
,
0100
0000
1000
0001
0100
0000
0010
0000
0001
0000
0100
0000
0010
0000
0000
0000
,
0100
1000
0010
0000
0001
0000
0100
0000
0010
0000
1000
0000
0100
0000
0000
0000
,
1001
0000
0100
0000
0010
0000
0001
0000
0100
0000
0010
0000
1000
0000
0100
0000
0001
0000
2002
0000
0000
3003
0000
0000
,
0110
0100
0010
0000
0100
0000
1000
0000
0100
0000
0010
0000
0001
0000
0000
0000
,
0010
0000
0100
0010
0100
0000
0010
0000
0100
0000
0010
0000
0001
0000
0000
0000
,
0100
0010
1000
0100
0010
0001
0100
0000
,
0010
1000
0100
0010
0001
0100
1000
0000
,
0100
0010
1000
0010
0100
0000
1000
0000
0100
0000
0010
0000
0001
0000
0000
0000
,
0001
0010
0100
1000
0001
0000
0100
0000
0001
0000
0100
0000
0001
0000
0000
0000
,
0010
0100
1000
0100
0010
0001
0100
0000
,
0010
0000
0100
0000
0010
0000
0001
0000
0100
0001
0100
0000
0010
0000
0100
0000
,
1000
0000
0100
1000
0100
0010
0100
0010
,
0001
0000
0100
0001
0010
0000
1000
0100
,
1000
0000
0100
0010
0001
0000
0100
0010
,
1000
0000
0100
0000
0010
0000
0001
0000
0100
0000
0001
1000
0100
0000
0001
0010
,
0001
0100
0010
1000
0100
0010
0100
0000
,
0010
0100
0010
0100
0010
0000
0001
0000
0100
0000
0010
0000
0100
0000
0000
0000
,
1000
0100
0010
0001
0100
0001
0101
0000
,
0010
0100
1000
0100
0010
0001
0100
0010
,
1000
0100
1000
0100
0010
0100
0010
0000
,
0100
0010
0001
0100
0001
0100
0001
0000
,
0010
0100
1000
0100
0010
0001
0100
0000
,
0010
0000
0000
0000
0000
0000
0000
0000
0000
0000
0000
0000
0000
0000
0000
0000
0000
0000
0000
0000
0000
0000
0000
0000
0100
0000
0000
0000
0000
0000
0000
0000
0000
0000
0000
0000
0000
0000
0000
0000
0000
0000
0000
0000
0000
0000
0000
0000
0010
0000
0000
0000
0000
0000
0000
0000
0000
0000
0000
0000
0000
0000
0000
0000
0000
0000
0000
0000
0000
0000
0000
0000
0100
0000
0000
0000
0000
0000
0000
0000
0000
0000
0000
0000
0000
0000
0000
0000
0000
0000
0000
0000
0000
0000
0000
0000
0010
0000
0000
0000
0000
0000
0000
0000
0000
0000
0000
0000
0000
0000
0000
0000
0000
0000
0000
0000
0000
0000
0000
0000
0100
0000
0000
0000
0000
0000
0000
0000
0000
0000
0000
0000
0000
0000
0000
0000
0000
0000
0000
0000
0000
0000
0000
0000
0000
0000
0000
0000
0000
0000
0000
0000
0000
0000
0000
0000
0000
0000
0000
0000
0000
0000
0000
0000
0000
0000
0000
0000
0000
0010
0000
0000
0000
0000
0000
0000
0000
0000
0000
0000
0100
0000
0000
0000
0000
0000
0000
0000
0000
0000
0000
0000
,
0010
0100
1000
0100
0010
0100
0000
0010
,
0100
0010
0100
0000
0010
0000
0100
0000
0010
0000
0100
0000
0000
0000
0001
0100
,
0001
0000
0100
0100
1000
0100
0000
1000
,
0100
1000
0100
0000
0010
0000
0100
0000
0010
0000
0001
0000
0000
0000
0100
0001
,
0100
1000
0010
0100
1000
0100
0000
0010
,
0100
0010
0100
0000
0001
0000
0100
0000
0001
0000
0100
0000
0000
0000
0010
0100
,
0010
0100
0010
0001
0100
0010
0000
0100
,
0010
0100
0010
0001
0100
1000
0000
0100
,
0100
0100
0020
0000
0030
0100
0000
0010
,
0001
0100
0001
0100
0001
1000
0000
0100
,
1000
0100
1000
0100
0010
0002
0003
0100
,
0010
0001
0200
0300
0000
0110
0000
0001
,
0100
1000
0100
0010
0001
0100
0000
0001
,
0100
0010
1000
0100
0010
0001
0000
0100
,
1000
0100
0010
0001
0100
0010
0000
0100
,
0010
0001
0100
0010
0100
0010
0000
MMMM
;
