#VERSION:0.83;
#TITLE:I miss you;
#SUBTITLE:;
#ARTIST:Veil;
#TITLETRANSLIT:;
#SUBTITLETRANSLIT:;
#ARTISTTRANSLIT:;
#GENRE:J-Pop;
#CREDIT:;
#MUSIC:I miss you.ogg;
#BANNER:I miss you.png;
#BACKGROUND:I miss you-bg.png;
#CDTITLE:Wrland Season 3 CITYGHT.png;
#SAMPLESTART:59.196;
#SAMPLELENGTH:12.000;
#SELECTABLE:YES;
#OFFSET:-1.144;
#BPMS:0.000=77.000;
#STOPS:;
#DISPLAYBPM:77.000;
#JACKET:I miss you-jacket.png;
#CDIMAGE:I miss you-cd.png;
#BGCHANGES:;
#FGCHANGES:;

//--------------- dance-single - ----------------
#NOTEDATA:;
#STEPSTYPE:dance-single;
#DESCRIPTION:;
#DIFFICULTY:Beginner;
#METER:1;
#RADARVALUES:0,0,0,0,0;
#NOTES:
0000
0000
0000
0000
,
0000
0000
0000
0000
,
0000
0000
0000
0000
,
0000
0000
0000
0000
,
0000
0000
0000
0000
,
0100
0000
0000
0000
,
0000
0000
0000
0000
,
0100
0000
0000
0000
,
0000
0000
0000
0000
,
0010
0000
0000
0000
,
0000
0000
0000
0000
,
0010
0000
0000
0000
,
0000
0000
0000
0000
,
0001
0000
0000
0000
,
0000
0000
0000
0000
,
0010
0000
0000
0000
,
0000
0000
0000
0000
,
1000
0000
0000
0000
,
0000
0000
0000
0000
,
0100
0000
0000
0000
,
0000
0000
0000
0000
,
0100
0000
0000
0000
,
0000
0000
0000
0000
,
0100
0000
0000
0000
,
0000
0000
0010
0000
,
0100
0000
0000
0000
,
0000
0000
0000
0000
,
0001
0000
0000
0000
,
0000
0000
0000
0000
,
0010
0000
0000
0000
,
0010
0000
0000
0000
,
0100
0000
0000
0000
,
0000
0000
0000
0000
,
0100
0000
0000
0000
,
0000
0000
0010
0000
,
0200
0000
0000
0000
,
0300
0000
0000
0000
,
0020
0000
0000
0000
,
0030
0000
0000
0000
;

//--------------- dance-single - ----------------
#NOTEDATA:;
#STEPSTYPE:dance-single;
#DESCRIPTION:;
#DIFFICULTY:Easy;
#METER:2;
#RADARVALUES:0,0,0,0,0;
#NOTES:
0000
0000
0000
0000
,
0000
0000
0000
0000
,
0000
0000
0000
0000
,
0000
0000
0000
0000
,
0000
0000
0000
0000
,
0100
0000
0000
0000
,
0100
0000
0000
0000
,
0010
0000
0000
0000
,
0001
0000
0000
0000
,
1000
0000
0000
0000
,
1000
0000
0000
0000
,
0100
0000
0000
0000
,
0100
0000
0000
0000
,
0010
0000
0000
0000
,
0001
0000
0000
0000
,
0010
0000
0000
0000
,
0100
0000
0000
0000
,
1000
0000
0000
0000
,
0100
0000
0000
0000
,
0100
0000
0000
0000
,
0010
0000
0000
0000
,
0010
0000
0000
0000
,
0001
0000
0000
0000
,
0010
0000
0000
0000
,
0100
0000
1000
0000
,
0100
0000
0000
0000
,
0100
0000
0000
0000
,
0010
0000
0000
0000
,
0001
0000
0000
0000
,
1000
0000
0000
0000
,
0100
0000
0000
0000
,
0010
0000
0000
0000
,
0001
0000
0000
0000
,
1000
0000
0000
0000
,
0001
0000
1001
0000
,
0200
0000
0000
0300
,
0020
0000
0000
0030
,
0200
0000
0000
0300
,
0020
0000
0000
0030
;

//--------------- dance-single - ----------------
#NOTEDATA:;
#STEPSTYPE:dance-single;
#DESCRIPTION:;
#DIFFICULTY:Medium;
#METER:3;
#RADARVALUES:0,0,0,0,0;
#NOTES:
0000
0000
0000
0000
,
0000
0000
0000
0000
,
0000
0000
0000
0000
,
0000
0000
0000
0000
,
0000
0000
0000
0000
,
0100
0100
0010
0100
,
1000
0100
1000
0100
,
0020
0030
0001
0010
,
0200
0300
0100
0010
,
0001
0010
0100
1000
,
0200
0000
0310
0000
,
0010
0001
0010
0100
,
2000
3000
0100
0100
,
0010
0100
0010
0001
,
0010
0100
1000
1000
,
0100
0100
0010
0100
,
0010
0001
0010
0100
,
1000
0100
0100
0010
,
0100
0000
0100
0000
1000
1000
0001
0000
,
0100
0000
0100
0010
0100
0000
0100
0010
,
0100
0010
0001
0010
0100
0100
0010
0100
,
1000
0000
1000
0100
1000
0000
1000
0100
,
1000
0100
0010
0001
0010
0100
0010
0000
,
0100
0000
0100
0010
0200
0000
0300
1000
,
0200
0000
0300
0000
0100
0010
0100
0000
,
0010
0010
0100
0100
,
0010
0001
0010
0100
,
1000
0100
0010
0100
,
0010
0000
0100
0000
0010
0100
0010
0000
,
0001
0000
0000
0000
0001
0000
0010
0000
0100
0000
0000
0000
1000
0100
0010
0001
,
1000
0010
0000
0100
0000
0010
0000
0001
0010
0000
0100
0000
0010
0000
0000
0000
,
0100
0000
0100
0010
0100
0000
0100
1000
,
0100
0010
0100
0010
0001
0010
0100
0000
,
0100
0000
0000
0010
0200
0000
0300
0100
,
0020
0030
1001
0000
,
0200
0010
0010
0310
,
0002
1000
1000
1003
,
2000
0001
0001
3001
,
0200
0010
0010
0310
;

//--------------- dance-single - ----------------
#NOTEDATA:;
#STEPSTYPE:dance-single;
#DESCRIPTION:;
#DIFFICULTY:Hard;
#METER:6;
#RADARVALUES:0,0,0,0,0;
#NOTES:
0000
0000
0000
0000
,
0000
0000
0000
0000
,
0000
0000
0000
0000
,
0000
0000
0000
0000
,
0000
0000
0000
0000
,
0100
0000
0000
0000
0010
0000
0100
0010
0200
0000
0300
0010
0000
0200
0300
0010
,
0002
0000
0003
0000
0000
0000
0000
0000
0200
0300
1000
0010
0000
0200
0000
0300
,
0020
0000
0030
0000
0000
0000
0000
0000
0200
0300
0010
0001
0000
0200
0000
0300
,
0020
0000
0030
0000
0000
0000
0000
0000
0200
0000
0300
0010
0000
0200
0000
0300
,
0020
0030
0002
0003
0200
0300
0020
0030
,
0100
0000
0010
0000
,
0110
0000
0000
0000
0100
0000
0010
0001
0100
0020
0030
0200
0300
0020
0030
0000
,
0200
0000
0300
0000
0010
0000
0100
0000
0010
0000
0100
0001
0000
0200
0000
0300
,
2000
0000
3000
0000
0200
0000
0300
0000
0100
0000
0010
0200
0300
0020
0030
0000
,
0200
0000
0300
0000
2000
0000
3000
0000
0200
0300
1000
0200
0300
1000
0002
0003
,
0200
0300
0100
0200
0300
0020
0030
0001
,
0020
0000
0030
0000
0100
0000
0200
0300
0010
0000
0200
0000
0300
0000
0010
0000
,
0200
0000
0300
0000
0020
0030
0200
0000
0300
0000
0020
0000
0030
0000
0200
0300
,
2000
0000
0000
0000
0000
0000
0000
0000
3001
0000
2000
3000
0002
0000
0003
0000
,
2000
0000
3000
0000
1000
1000
1000
0001
2000
0000
3000
0000
0100
0010
0100
0010
,
0100
2000
3000
0200
0300
0020
0030
0000
0002
0003
0100
0000
0020
0000
0030
0000
,
0200
0000
0300
0000
0100
0010
0100
1000
0200
0000
0300
0000
0100
0010
0100
0010
,
0100
0020
0030
0002
0003
2000
3000
0000
0002
0003
0200
0300
0020
0000
0030
0000
,
2000
0000
3000
0000
1000
0010
1000
0010
2000
0000
3000
0000
0000
0000
0100
0020
,
0000
0000
0000
0000
0030
0000
0000
0000
0001
0000
0020
0030
0200
0000
0300
0000
,
0200
0300
0020
0030
0200
0300
0020
0030
,
1001
2002
0000
3003
0200
0000
0300
0000
0020
0000
0030
0000
0100
0020
0000
0030
,
0220
0000
0330
0000
0020
0000
0030
0000
0002
0000
0003
1000
0010
0002
0000
0003
,
0200
0300
0020
0030
0200
0300
0020
0030
,
0200
0000
0300
0000
0100
0010
0100
0010
0200
0000
0300
0000
0100
0010
0001
0010
,
0100
0002
0000
2003
3000
0200
0000
0300
2000
3000
0200
0300
2000
3000
0200
0300
,
0020
0000
0030
0000
0100
0010
0001
0100
0020
0000
0030
0000
0100
0010
1000
0100
,
0010
0200
0300
0020
0030
0002
0000
0003
0200
0300
0020
0030
0200
0000
0300
0000
,
2000
0000
3000
0000
0100
1000
0100
1000
0200
0000
0300
0000
0000
0000
0100
0020
,
0000
0000
0000
0000
0030
0000
0000
0000
0110
0000
0200
0300
0020
0030
0000
0000
,
0002
1000
1000
1003
,
2000
0001
0001
3001
,
0002
1000
1000
1003
,
0200
0010
0010
0310
;
