#TITLE:Hips Don't Lie (feat. Wyclef Jean);
#SUBTITLE:;
#ARTIST:Shakira;
#TITLETRANSLIT:;
#SUBTITLETRANSLIT:;
#ARTISTTRANSLIT:;
#GENRE:Latin;
#CREDIT:Wrland;
#MUSIC:Hips Don't Lie (feat. Wyclef Jean).ogg;
#BANNER:Hips Don't Lie (feat. Wyclef Jean).png;
#LYRICSPATH:Hips Don't Lie (feat. Wyclef Jean).lrc;
#PREVIEWVID:preview.mp4;
#BACKGROUND:BG.png;
#CDTITLE:Wrland Season 3 CITYGHT + last one night.png;
#SAMPLESTART:57.600;
#SAMPLELENGTH:12.000;
#SELECTABLE:YES;
#OFFSET:0.000;
#BPMS:0.000=100.000;
#STOPS:;
#DISPLAYBPM:100.000;
#JACKET:Hips Don't Lie (feat. Wyclef Jean)-jacket.png;
#CDIMAGE:Hips Don't Lie (feat. Wyclef Jean)-cd.png;
#METERTYPE:DDR X;
#BGCHANGES:0.000=Hips Don't Lie (feat. Wyclef Jean).avi=0.000=0=0=0=StretchNoLoop====,
99999=-nosongbg-=1.000=0=0=0 // don't automatically add -songbackground-
;
#FGCHANGES:;

//--------------- dance-single - Wrland ----------------
#NOTES:
     dance-single:
     Wrland:
     Beginner:
     3:
     0,0,0,0,0:
0000
0000
0000
0000
,
0000
0000
0000
0000
,
0000
0000
0000
0000
,
0000
0000
0000
0000
,
0100
0000
0100
0000
,
0010
0000
0010
0000
,
0001
0000
0010
0000
,
0100
0000
1000
0000
,
1000
0000
0100
0000
,
1000
0000
0100
0000
,
0010
0000
0001
0000
,
1000
0000
0100
0000
,
0010
0000
0100
0000
,
1000
0000
0100
0000
,
0010
0000
0001
0000
,
0010
0000
0100
0000
,
1000
0000
1000
0000
,
0100
0000
1000
0000
,
0100
0000
0010
0000
,
0001
0000
0010
0000
,
0100
0000
0010
0000
,
1000
0000
0100
0000
,
1000
0000
0100
0000
,
0010
0000
0100
0010
,
1000
0000
0100
0000
,
0001
0000
0010
0000
,
1000
0000
0100
0000
,
1000
0000
0100
0000
,
0010
0000
0001
0000
,
0100
0000
0010
0000
,
0100
0000
0001
0000
,
1000
0000
1000
0000
,
0100
0000
1000
0000
,
0100
0000
0010
0000
,
0001
0000
0100
0000
,
0010
0000
0100
0000
,
1000
0000
0010
0000
,
0100
0000
1000
0000
,
0100
0000
0010
0000
,
0001
0000
1000
0000
,
0001
0000
1000
0000
,
0001
0000
0100
0000
,
0010
0000
0100
0000
,
0020
0000
0000
0000
,
0030
0000
0000
0000
;

//--------------- dance-single - Wrland ----------------
#NOTES:
     dance-single:
     Wrland:
     Easy:
     5:
     0,0,0,0,0:
0000
0000
0000
0000
,
0000
0000
0000
0000
,
0000
0000
0000
0000
,
0000
0000
0000
0000
,
0101
1000
0100
0010
,
0101
0010
0100
1000
,
0100
1000
1100
0100
,
0110
0010
0001
1000
,
0001
1000
0100
1000
,
0100
0010
0001
0010
,
0100
0010
0101
0010
,
1100
0000
0010
0010
0100
0000
0010
1000
,
0101
0010
0100
1000
,
0100
1000
0100
0010
,
0001
0100
0010
0100
,
1000
0100
1000
0100
,
0010
0001
0100
0010
,
0100
0010
0001
1000
,
0100
1000
0100
0010
,
0001
0010
0100
1000
,
0100
1000
0100
0010
,
0100
0010
0001
0100
,
0010
0100
1000
0100
,
1000
0000
0100
0000
0010
0100
0010
0000
,
0001
0010
0100
1000
,
0100
1000
0100
0010
,
0001
0100
0101
0010
,
0110
1000
0100
1000
,
0100
0010
0001
0100
,
0010
0100
0010
0001
,
0100
1000
1100
0100
,
0110
0000
0001
0000
0100
0001
0100
0001
,
0100
0010
0100
1000
,
0100
1000
0100
0010
,
0001
0100
0010
0100
,
0010
0100
0010
0001
,
0010
0100
1000
0100
,
0010
0001
0010
0100
,
0010
0001
0100
0001
,
0100
0001
0010
0100
,
0010
0010
0200
0300
,
1000
1000
2000
3000
,
0100
0100
0200
0300
,
0220
0000
0000
0000
,
0330
0000
0000
0000
;

//--------------- dance-single - Wrland ----------------
#NOTES:
     dance-single:
     Wrland:
     Medium:
     8:
     0,0,0,0,0:
0000
0000
0000
0000
,
0000
0000
0000
0000
,
0000
0000
0000
0000
,
0000
0000
0000
0000
,
1000
0000
0100
1000
0100
0010
0002
0003
,
0200
0300
0010
0001
0010
0100
0020
0030
,
0200
0300
1000
0100
2200
3300
0100
0010
,
0220
0330
0001
0100
0001
0010
0100
0022
,
0033
0100
1000
0100
0010
0001
0202
0303
,
0010
0100
2000
3000
1000
0100
2000
3000
,
0100
0010
0001
0100
0202
0303
0010
0100
,
2200
3300
0110
1000
0011
0001
0110
0110
,
2002
0000
3003
0000
1000
0000
0100
0000
1000
0000
0100
1000
0000
0100
0010
1000
,
0001
0000
0100
0000
1000
0000
0100
0000
1000
0000
0100
0010
0000
0001
0100
0000
,
0010
0100
0010
0001
0202
0303
0010
0100
,
2200
3300
0200
0300
0010
0001
0100
0010
,
0100
0010
0002
0003
0100
1000
0100
1000
,
0200
0000
0300
0020
0000
0030
1000
0000
0100
0000
0010
0000
0001
0000
0010
0000
,
0100
0010
0200
0300
0010
0001
0100
0010
,
0200
0300
2000
3000
0100
1000
0100
0010
,
0000
0010
0001
0100
0001
0100
0001
0100
0002
0000
0003
0000
0200
0000
0300
0000
,
1000
0010
0200
0300
0010
0100
0010
0001
,
0200
0300
0010
0100
2000
3000
0100
1000
,
0100
0010
0001
0100
0110
0110
1001
1001
,
1000
0001
1000
0001
1000
0100
2000
3000
,
0100
0010
0001
0100
0010
0100
0020
0030
,
0001
0100
0010
0000
0220
0330
1000
0100
,
2200
3300
0100
0010
0001
0100
0010
0220
,
0330
0001
0100
0010
0100
1000
0200
0000
,
0300
1000
0200
0300
1000
0100
0010
0001
,
0200
0300
0010
0100
0220
0330
0001
0100
,
0202
0303
0110
0010
1100
0110
0101
0110
,
0220
0000
0330
0000
0200
0000
0300
0000
1000
0000
0100
1000
0000
0100
0010
0001
,
0100
0000
0010
0000
0100
0000
0010
0000
0001
0000
0100
0010
0000
0001
0200
0000
,
0300
0010
0100
0010
0220
0330
0001
0100
,
0202
0303
0010
0100
1000
0100
1000
0100
,
2000
0000
3000
0000
0100
0000
0010
0000
0001
0000
0100
0020
0000
0000
0030
0100
,
0010
0000
0100
0000
1000
0000
0100
0000
1000
0000
0100
1000
0000
0100
1000
0000
,
0200
0300
0010
0100
0220
0330
0001
0100
,
0202
0303
0010
0100
1000
0100
0010
0001
,
2200
3300
0100
0010
0002
0003
0001
0010
,
0202
0303
1000
0100
2000
3000
0100
0010
,
0202
0303
0100
0010
0002
0003
0100
0010
,
0220
0000
0000
0000
,
0330
0000
0000
0000
;

//--------------- dance-single - Wrland ----------------
#NOTES:
     dance-single:
     Wrland:
     Hard:
     11:
     0,0,0,0,0:
0000
0000
0000
0000
,
0000
0000
0000
0000
0000
0000
0000
0000
0000
0000
0000
0000
1000
0100
1000
0100
,
2000
0000
3000
0000
0100
0000
0010
0000
0002
0000
0003
0000
0100
0000
0001
0100
,
0202
0000
0303
0000
0100
0000
0010
0001
0200
0000
0300
0000
0010
0100
0001
0100
,
1000
0100
0010
0001
0100
0010
1000
0100
0020
0030
0200
0300
0220
0330
0001
0000
,
0100
0000
0010
0000
0100
0010
0001
0100
0020
0030
2000
3000
0200
0300
1000
0100
,
0010
0001
1000
0010
0200
0300
0001
0000
0220
0330
0000
0100
1000
0000
0100
0000
,
2200
3300
0000
0100
0010
0000
0002
0003
0200
0000
0300
0010
0100
0000
0010
0000
,
0100
0000
0010
0000
0001
0100
0001
0100
0001
0000
0010
0000
0220
0330
1000
0000
,
0100
0000
1000
0000
0200
0300
0000
0100
0010
0001
0200
0300
0020
0030
0100
0000
,
0010
0000
0100
0100
0010
0000
0010
0000
0220
0330
0000
0100
2000
3000
0100
0000
,
2200
3300
0010
0000
0110
0000
1000
0100
0011
0001
0010
0001
0110
0000
0110
0000
,
2002
3003
0100
0000
2000
0000
3100
0000
1000
0000
0100
0010
0000
0001
0100
0001
,
0020
0030
0200
0300
0020
0030
0001
0000
0100
0000
0010
0100
0000
1000
0200
0300
,
1000
0000
0100
0010
0001
0000
0020
0030
0220
0330
0000
0010
0100
0000
0010
0000
,
0001
0000
1000
0000
0100
0000
0001
0000
1000
0000
0100
0000
0010
0000
0001
0000
0100
0000
0010
0000
0000
0100
0000
0000
,
0010
0000
0200
0300
0020
0030
0001
0000
0100
0000
0010
0100
0010
0000
0001
0000
,
0100
0000
1000
0000
0100
0000
1000
0000
0100
0000
1000
0000
0100
0010
0001
0000
,
0100
0000
0020
0030
0002
0003
0100
0000
0001
0000
0100
0001
0100
0000
0010
0100
,
0010
0000
0100
0000
1000
0000
0100
0000
1000
0000
0100
0010
0100
0000
0010
0001
,
0100
0010
1000
0001
0100
0010
1000
0100
0020
0000
0030
0100
0010
0000
0001
0000
,
0100
0000
0010
0200
0000
0300
0010
0000
0100
0000
0010
0000
0001
0100
0001
0000
,
0100
0000
1000
0100
1000
0000
0100
0000
0010
0000
0001
0100
0001
0000
0100
0000
,
0010
0000
0100
0010
0100
0000
0100
0000
1100
0000
0110
0000
0011
0000
1001
0000
,
0100
0000
0010
0010
0100
0001
0010
0100
1000
0000
0200
0300
0020
0030
0002
0003
,
0100
0000
0010
0100
0010
0100
0001
0100
0002
0003
0020
0030
0200
0300
1000
0000
,
0100
0001
1000
0010
0200
0300
0010
0000
0202
0000
0303
0001
0100
0000
0001
0000
,
0202
0000
0303
0010
0100
0000
0010
0000
1000
0000
0000
0100
1000
0000
0200
0300
,
0010
0000
0001
0000
0100
0010
0100
1000
0100
0000
0010
0000
0002
0003
0100
0000
,
0010
0000
0020
0030
0200
0000
0300
0001
1000
0001
2000
3000
0020
0000
0130
0000
,
0002
0000
0003
1000
0002
0003
0100
0000
0220
0000
0330
0001
1000
0000
0001
0000
,
2002
0000
0000
3003
0110
0000
0100
0010
1001
0100
0110
0010
1001
0000
0110
0000
,
2002
0000
0000
3003
0200
0000
0000
0300
0010
0000
0100
0001
0000
0100
0010
0100
,
0020
0030
0020
0030
0200
0000
0000
0300
0010
0000
1000
0020
0030
0100
0002
0003
,
0100
0000
0010
0100
0020
0030
0200
0300
0002
0000
0003
0100
0010
0000
0200
0300
,
0020
0000
0000
0030
0001
0000
0100
0000
0010
0000
0100
0000
0010
0000
0001
0000
0100
0000
0010
0000
0000
0100
0000
0000
,
0001
0000
0100
0000
0010
1000
0010
0100
0020
0030
0100
0002
0000
0003
1000
0010
,
2000
3000
0010
0000
0200
0300
0001
0000
0200
0300
0010
0010
0000
1000
0010
0000
,
0202
0303
0000
0100
2000
3000
0002
0003
0202
0303
0000
0001
0200
0300
0020
0030
,
2200
0000
0000
3300
0000
0000
0100
0000
0010
0000
0001
0000
0100
0000
1000
0000
0100
0000
0010
0000
0000
0001
0000
0000
,
2200
3300
0010
0001
0100
1000
0010
0100
0002
0000
0000
0003
0010
0100
0010
0001
,
0100
0010
0100
1000
0100
0010
0001
0100
0020
0000
0000
0030
1000
0010
1000
0100
,
0011
0001
0010
1000
0100
0010
0001
0100
1010
0100
0010
0001
0100
0010
1000
0100
,
2002
0000
0000
0000
,
3003
0000
0000
0000
;
