#TITLE:하드캐리;
#SUBTITLE:;
#ARTIST:갓세븐;
#TITLETRANSLIT:Hard Carry;
#SUBTITLETRANSLIT:;
#ARTISTTRANSLIT:GOT7;
#GENRE:K-Pop;
#CREDIT:;
#MUSIC:Hard Carry.ogg;
#BANNER:Hard Carry.png;
#BACKGROUND:Hard Carry-bg.png;
#CDTITLE:Wrland Season 3 CITYGHT.png;
#SAMPLESTART:59.100;
#SAMPLELENGTH:12.000;
#SELECTABLE:YES;
#OFFSET:0.000;
#BPMS:0.000=100.000
,64.000=200.000
,128.000=800.000
,148.000=200.000
,151.000=100.000
;
#STOPS:;
#DISPLAYBPM:100.000:200.000;
#JACKET:Hard Carry-jacket.png;
#CDIMAGE:Hard Carry-cd.png;
#BGCHANGES:0.000=Hard Carry.avi=1.000=0=0=0=StretchNoLoop====,
99999.000=-nosongbg-=1.000=0=0=0=StretchNoLoop====
;
#FGCHANGES:;

//--------------- dance-single - ----------------
#NOTES:
     dance-single:
     :
     Beginner:
     3:
     0,0,0,0,0:
0000
0000
0000
0000
,
0000
0000
0000
0000
,
0000
0000
0000
0000
,
0000
0000
0000
0000
,
0100
0000
0000
0000
,
0100
0000
0000
0000
,
0100
0000
0000
0000
,
0100
0000
0000
0000
,
0010
0000
0000
0000
,
0001
0000
0000
0000
,
1000
0000
0000
0000
,
1000
0000
0000
0000
,
1000
0000
0000
0000
,
0100
0000
0000
0000
,
0001
0000
0000
0000
,
0100
0000
0000
0000
,
0100
0000
0000
0000
,
0000
0000
0000
0000
,
1000
0000
0000
0000
,
0000
0000
0000
0000
,
0100
0000
0000
0000
,
0000
0000
0000
0000
,
0010
0000
0000
0000
,
0000
0000
0000
0000
,
1000
0000
0000
1000
,
0000
0000
1000
0000
,
0100
0000
0000
0000
,
0000
0000
0000
0000
,
0010
0000
0000
0000
,
0000
0000
0000
0000
,
0010
0000
0000
0000
,
0100
0000
0000
0000
,
0220
0000
0000
0000
,
0000
0000
0000
0000
,
0000
0000
0000
0000
,
0000
0000
0000
0000
,
0000
0000
0000
0000
,
0330
0000
0000
1001
,
0000
0000
0000
0100
,
0000
0000
0000
0010
,
0000
0000
0000
0100
,
0000
0000
0000
1000
,
0000
0000
0000
0100
,
0000
0000
0000
0100
,
0000
0000
0000
0010
,
0000
0000
0000
0001
,
0000
0000
0000
0010
,
0000
0000
0000
0100
,
0000
0000
0000
0100
,
0000
0000
0000
0010
,
0000
0000
0000
0001
,
0000
0000
0000
0000
1000
0001
1000
0000
,
1000
1000
0000
0001
,
0000
0000
0000
0000
,
0000
0000
0000
0100
,
0000
0000
0000
0000
0000
0000
0000
0000
0000
0000
0000
0000
0000
1000
0000
0000
,
0000
0000
0000
0000
0000
0000
0000
0000
0000
0000
0000
0000
0000
0001
0000
0000
,
0000
0000
0000
0000
0000
0000
0000
0000
0000
0000
0000
0000
0000
0010
0000
0000
,
0000
0000
0000
0100
,
0000
0000
0000
0100
,
0000
0000
0000
0010
,
0000
0000
0000
0010
,
0000
0000
0000
0100
,
0000
0000
0000
0100
,
0000
0000
0000
0010
,
0000
0000
0000
0001
,
0000
0000
0000
1001
;

//--------------- dance-single - ----------------
#NOTES:
     dance-single:
     :
     Easy:
     6:
     0,0,0,0,0:
0000
0000
0000
0000
,
0000
0000
0000
0000
,
0000
0000
0000
0000
,
0000
0000
0000
0000
,
0100
0000
0010
0100
0000
0000
0010
0010
0000
0000
0010
0000
0000
0000
0010
0000
,
0100
0000
0100
0100
0000
0000
1000
0100
0000
0000
0010
0000
0001
1000
0100
0000
,
0010
0000
0001
0010
0000
0000
0100
0010
0000
0000
0100
0000
0010
0000
0000
0000
,
0100
0000
1000
0100
0001
0000
0010
0100
0000
0000
0010
0000
0100
0010
0100
0000
,
0100
0000
1000
0010
0100
0000
0010
1000
,
0010
0000
0100
0001
0010
0000
0001
1000
,
0010
0000
0100
0010
1000
0000
0100
0010
,
1000
0010
0100
1000
0100
0010
0001
0100
,
0010
0000
0010
0100
0010
0100
0001
0010
,
0100
0000
1000
0100
1000
0100
1000
0100
,
0010
0000
0100
0010
0100
0000
0010
0001
,
0010
0000
0010
0100
0010
0000
0200
0000
,
0310
0000
0010
0001
,
0010
0000
0010
0100
,
1000
0000
0100
1000
,
0100
0000
0100
0010
,
0100
0000
0010
0100
,
0010
0001
0010
0100
,
0100
1000
0000
1000
,
0100
1000
0000
0100
,
0100
0000
0000
0100
0000
0000
0010
0000
,
0000
0010
0000
0000
0100
0000
0010
0000
,
0100
0000
0010
0100
0000
1000
0000
0100
,
0001
0000
0010
0001
0010
0000
0100
0000
,
0010
0000
0100
0010
0000
0100
0000
1000
,
0100
0000
0100
0010
0100
0000
0100
0010
,
0100
0100
0010
0100
,
0010
0000
0100
0000
0010
0100
0010
0000
,
0220
0000
0000
0000
,
0000
0000
0000
0000
,
0000
0000
0000
0000
,
0000
0000
0000
0000
,
0330
0000
0000
0000
,
1000
0000
0000
0000
1000
0000
0001
0000
1000
0000
0000
0000
0100
0000
0010
0100
,
0000
0000
0010
0010
0000
0000
0010
0000
1000
0000
0001
0010
0100
0000
0100
0000
,
0000
0000
1000
0100
0000
0000
0010
0000
0001
0000
1000
0001
0010
0000
0001
0010
,
0100
0000
0100
0010
0000
0000
0100
0000
0010
0001
1000
0000
0100
0000
1000
0100
,
0001
0000
0010
0100
0000
0000
0010
0000
0100
0010
0100
0000
0100
0000
0010
0100
,
0000
0000
0001
0001
0000
0000
0100
0000
1000
0000
0100
1000
0100
0000
0100
0000
,
0000
0000
0010
0001
0000
0000
0010
0000
0100
0000
1000
0100
1000
0000
0100
0001
,
0010
0000
0001
0010
0000
0000
0010
0000
0100
0010
0100
0000
0100
0000
1000
0100
,
1000
0000
0100
0010
0000
0000
0100
0000
0010
0001
0100
0000
0100
0000
0000
0000
,
0010
0100
1000
0000
0100
0010
0100
0010
,
0001
0010
0100
0000
0100
0000
1000
0000
,
1000
0000
0100
0000
1000
0000
0100
0000
0010
0000
0100
0000
0010
0000
0010
0100
,
0000
0010
0000
0100
0010
0000
0000
0000
0001
0000
1000
0000
0100
0000
0010
0000
,
0001
0010
0100
1000
0100
0010
0100
0010
,
0100
0000
0010
0000
0001
0000
0000
0000
1000
0000
0100
0000
0010
0000
0000
0100
,
0000
0000
0010
0000
0000
0000
0000
0000
0100
0000
0010
0000
0100
0000
0000
0010
,
0000
0100
0000
2002
0000
0000
0000
0000
,
3003
0000
0000
0000
0000
0000
0100
0000
0010
0100
0010
0000
0200
0000
0000
0000
,
0000
0000
0300
2000
,
0000
0000
0000
0000
0000
0000
0000
0000
3000
0000
0000
0000
0000
0200
0000
0000
,
0000
0000
0000
0000
0000
0000
0000
0000
0300
0000
0000
0000
0000
0020
0000
0000
,
0000
0000
0000
0000
0030
0000
0000
0000
0000
0000
0000
0000
0100
0000
0100
0100
,
0000
0000
0010
0100
0000
0000
0010
0000
0100
0000
0010
0000
0010
0000
0010
0010
,
0000
0000
0001
0001
0000
0000
0010
0000
0100
0000
1000
0000
0100
0000
0100
0100
,
0001
0000
1000
1000
0000
0000
0100
0000
1000
0000
0100
0000
0100
0000
0100
0100
,
0001
0000
0010
0010
0000
0000
0100
0000
0010
0000
0100
0000
0010
0000
0010
0010
,
0000
0000
0001
0001
0000
0000
0010
0000
0100
0000
1000
0000
0100
0000
0100
0100
,
0000
0000
0010
0010
0000
0000
0100
0000
0100
0000
0100
0000
1000
0000
0100
0100
,
0001
0000
0010
0010
0000
0000
0100
0000
0010
0000
0100
0000
0010
0000
0100
0100
,
0001
0000
0010
0010
0000
0000
0100
0000
1000
0000
0100
0000
0000
0000
0000
0000
;

//--------------- dance-single - ----------------
#NOTES:
     dance-single:
     :
     Medium:
     10:
     0,0,0,0,0:
0000
0000
0000
0000
,
0000
0000
0000
0000
,
0000
0000
0000
0000
,
0000
0000
0000
0000
0000
0000
0000
0000
0000
0000
1000
0000
0001
1000
0001
0000
,
0100
0000
0100
0100
0000
0000
0010
0010
0000
0000
0100
0000
0010
0000
0100
0000
,
0100
0000
0100
0100
0000
0000
1000
1000
0000
0000
1000
0000
0100
0000
0010
0000
,
0100
0000
0100
0100
0010
0000
0010
0010
0100
0010
0001
0000
0010
0000
0100
0000
,
0100
0000
0100
0100
0010
0000
1000
1000
0100
1000
1000
0000
0001
1000
0001
0000
,
0100
0000
0010
0000
0100
0010
0100
0010
0100
0000
0100
0000
0010
0000
0010
0000
,
0100
0000
0000
0000
1000
0100
1000
0100
1000
0000
0100
0000
0010
0000
0100
0000
,
0010
0000
0000
0000
0001
0010
0100
1000
0100
0000
0010
0000
0100
0000
0010
0000
,
0001
0010
0100
0010
0001
1000
0001
0010
0100
0010
0001
0010
0100
0000
0010
0000
,
0100
0000
0000
0000
0010
0000
0100
0010
0100
0001
1000
0010
0100
0000
0010
0000
,
0100
0000
0000
1000
0100
1000
0100
1000
0100
0000
0010
0001
0100
0000
0010
0000
,
0100
0000
0000
0000
0100
0100
0100
0100
0010
0000
0000
0000
0001
0001
0001
0001
,
0001
0000
0000
0000
1000
0001
1000
0001
1000
0000
0001
1000
0002
0000
0000
0000
,
1003
0000
0100
0010
0001
0010
0010
0100
,
1000
0000
0000
0100
0010
0000
0100
0020
,
0000
0030
0000
0000
0100
0010
0100
0010
,
0100
0000
0010
0001
0001
0000
0100
2000
,
0000
3000
0000
0000
0000
1000
1000
0100
,
0010
0001
0100
0010
0100
0010
0100
0010
,
0100
0010
0002
0000
0003
0000
0001
0010
,
1000
0100
0020
0000
0030
0000
0100
0000
,
0010
0000
0000
0100
0000
0000
1000
0000
,
0000
0100
0000
0000
0010
0000
0100
0000
,
0010
0000
0100
0010
0000
0001
0000
0100
,
0000
0000
0100
1000
0000
0000
0010
0100
,
0010
0000
0001
0100
0000
1000
0000
0100
,
0000
0000
0100
0010
0000
0001
0100
1000
,
0010
0100
0100
1000
,
0100
0000
0010
0100
0010
0100
0010
0000
,
2002
0000
0000
0000
,
0000
0000
0000
0000
,
0000
0000
0000
0000
,
0000
0000
0000
0000
,
3003
0000
0000
0000
,
0010
0000
0000
0000
0100
0000
0010
0000
0100
0000
0000
0000
0110
0000
0100
0100
,
0000
0000
1000
1000
0000
0000
0100
0000
0010
0000
0100
0010
0100
0000
0100
0000
,
0000
0000
0100
0100
0000
0000
0010
0001
0010
0000
0100
0010
0100
0000
0100
0010
,
0001
0000
0010
0010
0000
0000
0100
0000
1000
0100
1000
0000
0100
0000
0010
0010
,
1000
0000
0001
0001
0000
0000
0010
0000
0100
0010
0100
0000
0100
0000
1000
0100
,
0000
0000
0100
0100
0000
0000
0010
0000
0100
0000
0010
0100
0010
0000
0100
0000
,
0000
0000
0100
0010
0000
0000
0100
0000
0010
0000
0010
0010
0001
0000
0010
0010
,
0100
0000
0100
0100
0000
0000
1000
0000
0100
0010
0100
0000
0001
0000
0001
0001
,
0010
0000
0010
0100
0000
0000
0100
0000
1000
0100
1000
0000
0100
0000
0000
0000
,
0100
0010
0100
0010
0001
0010
0100
1000
,
0100
0010
0200
0300
0020
0030
0100
0010
,
0001
0000
0010
0000
0100
0000
1000
0000
0100
0000
0010
0000
0100
0000
0010
0001
,
0000
0010
0000
0100
2000
0000
3000
0000
0200
0000
0300
0000
0010
0000
0001
0000
,
0010
0100
1000
0100
0010
0001
0010
0100
,
1000
0000
0100
0000
0020
0000
0030
0000
0010
0000
0001
0000
0020
0000
0030
0020
,
0000
0030
0200
0000
0000
0000
0300
0000
0100
0000
0010
0000
0200
0000
0300
0200
,
0000
0300
0100
0000
0000
0000
2002
0000
0000
0000
0000
0000
0000
0000
0000
0000
,
3003
0000
0000
0000
0000
0000
0100
0000
0010
0100
0010
0000
0100
0010
0000
0100
,
0000
0100
0100
0100
0000
0100
0000
0100
0000
0100
0000
0000
0100
0010
0000
0010
,
0000
0000
0010
0000
0000
0000
0010
0000
0010
0000
0010
0000
0000
0000
0010
0000
0000
0000
0010
0000
0000
0000
0010
0010
0010
0000
0100
0000
0000
0000
0100
0000
,
0000
0100
0000
0100
0100
0100
0000
0100
0000
0100
0000
0000
0010
0010
0010
0010
,
0100
0010
0100
0000
0100
0010
0100
0000
0110
0000
0000
0000
0100
0000
0000
0000
0010
0000
0100
0000
0010
0000
0000
0000
0100
0000
0000
0000
0010
0000
0010
0000
,
0000
0100
0100
0000
0000
0000
1000
0000
0100
1000
0100
0000
0100
0000
0100
0100
,
0000
0010
0010
0000
0000
0010
0000
0000
0001
0010
0100
0000
0100
0000
0100
0100
,
0001
0000
0100
0100
0000
0000
0100
0000
0010
0100
0010
0000
0001
0000
0010
0100
,
1000
0000
0100
0010
0000
0000
0100
0000
0010
0100
0010
0000
0100
0000
0100
0100
,
0000
0000
1000
1000
0000
0000
0100
0000
0010
0100
0010
0000
0010
0000
0010
0010
,
0000
0000
0001
0001
0000
0000
0001
0000
0010
0100
1000
0000
0100
0000
0010
0100
,
0001
0000
0100
0010
0000
0000
0100
0000
0010
0100
0010
0000
0010
0000
0001
0010
,
0100
0000
0100
0010
0000
0000
0100
0000
0010
0100
0010
0000
0000
0000
0000
0000
;

//--------------- dance-single - ----------------
#NOTES:
     dance-single:
     :
     Hard:
     14:
     0,0,0,0,0:
0000
0000
0000
0000
,
0000
0000
0000
0000
,
0000
0000
0000
0000
,
0000
0000
0000
0000
0000
0000
0000
0000
0000
0000
1000
0000
0001
1000
0001
0000
,
0100
0000
0010
0010
0000
0000
0001
0001
0000
0000
0010
0000
0100
0000
0100
0000
,
0100
0000
1000
1000
0000
0000
0100
0100
0000
0000
0010
0000
0010
0100
0010
0000
,
0001
0000
0001
0001
1000
0000
0100
0100
0100
0000
0010
0000
0100
0000
0010
0000
,
0100
0000
0010
0010
0010
0000
0001
0001
0010
0100
1000
0000
1000
0100
1000
0000
,
0100
0000
1101
0000
0010
0100
0010
0001
0100
0000
0010
0100
0010
0000
0001
0000
,
0001
0000
0100
0010
1000
0100
0010
0001
0100
0010
0001
0100
0000
0000
1000
0000
,
0101
0000
0000
0000
0010
0010
0100
0001
0010
0100
0010
0100
0010
0000
0001
0000
,
0010
0000
0100
0010
1000
0100
0010
0001
0100
0010
1000
0100
0010
0000
0100
0000
,
0111
0000
1010
0000
0100
0010
0100
0010
0100
0010
0100
0010
0001
0000
0001
0000
,
1000
0000
0000
0000
1000
0001
1000
0001
1000
0000
1000
0001
1000
0000
0001
0000
,
1010
0000
0000
0000
0100
0010
0100
0010
0101
0000
0000
0000
0010
0100
1000
0100
,
0011
0000
0000
0100
0010
0100
0010
0100
0010
0000
0001
0100
0020
0000
0000
0000
,
0130
0000
0001
0000
1000
0001
1000
0001
,
1000
0000
0100
0010
0001
0000
0100
0020
,
0000
0030
0000
0000
0100
0010
0100
0010
,
0001
0000
0001
0010
0001
0000
0001
0020
,
0000
0030
0000
0000
0000
1000
0100
1000
,
0100
1000
0100
0010
0001
0010
0100
0010
,
0001
0010
0200
0000
0300
0000
1000
0100
,
1000
0100
2000
0000
3000
0000
0101
0000
,
1010
0000
0000
0110
0000
0000
0011
0000
,
0000
0101
0000
0000
1010
0000
0101
0000
,
0010
0000
0001
0100
0000
0010
0000
1000
,
0100
0000
0010
0100
0000
0000
0010
0100
,
0010
0000
0001
0010
0000
0100
0000
0010
,
0000
0000
0100
0010
0000
0010
0100
0010
,
0001
0000
0101
0110
0000
0101
0000
0011
,
0101
0000
0010
0000
0100
0010
0100
0000
,
M220
000M
M000
000M
,
M000
000M
M000
000M
,
M000
000M
M000
000M
,
M000
000M
M000
000M
,
M000
000M
M000
000M
,
1330
0000
0000
0000
0100
0000
0010
0000
0100
0000
0000
0000
1101
0000
0100
0100
,
0000
0000
0010
0010
0000
0000
0001
0000
0010
0000
0100
1000
0001
0000
0010
0100
,
0000
0000
0010
0100
0000
0000
0100
0010
0100
0000
1000
0001
1000
0000
1000
0100
,
0010
0000
0001
0001
0000
0000
0010
0000
0010
0100
0010
0000
0001
0000
0001
0001
,
0010
0000
0100
0010
0000
0000
0100
0000
0010
0100
0010
0000
1011
0000
0100
0100
,
0000
0000
0010
0010
0000
0000
0001
0000
0001
0000
0010
0100
1000
0000
0100
0010
,
0000
0000
0100
0010
0000
0000
0100
0000
0010
0000
0001
0010
0100
0000
1000
0100
,
1000
0000
0100
0100
0000
0000
0010
0000
0100
0010
0100
0000
0010
0000
0001
0010
,
0100
0000
1000
0100
0000
0000
0010
0000
0100
0010
0001
0000
0110
0000
0000
0000
,
0100
0010
0100
1000
0100
0010
0001
0010
,
0100
0000
1000
0000
0200
0000
0300
0100
0020
0000
0030
0000
1001
0000
0000
0000
,
0010
0000
0100
0000
0100
0000
1000
0000
0100
0000
0010
0000
0001
0000
0100
0010
,
0000
0100
0000
0010
0200
0000
0300
0000
0020
0000
0030
0000
1001
0100
0010
0000
,
0001
0000
0010
0000
0100
0000
1000
0000
0100
0000
0010
0001
1000
0000
0010
0000
,
0100
0000
0000
0000
0010
0000
0000
0000
0200
0000
0000
0000
0300
0000
0000
0000
0010
0000
1000
0000
0001
1000
0001
0000
0020
0000
0000
0000
0030
0000
0200
0000
,
0000
0300
2000
0000
0000
0000
3000
0000
1000
0000
0100
0010
0002
0000
0003
0020
,
0000
0000
0030
0000
0100
0000
0000
0000
0010
0100
0010
0000
2002
0000
0000
0000
0000
0000
0000
0000
0000
0000
0000
0000
0000
0000
0000
0000
0000
0000
0000
0000
,
3003
0000
0000
0000
0000
0000
0100
0000
0010
0100
0010
0000
0100
0010
0000
0010
,
0000
0010
1000
0100
0000
0100
0000
1000
0000
0100
0000
0000
1000
0010
0000
0001
,
0000
0000
0100
0000
0000
0000
0010
0000
0001
0000
0010
0000
0000
0000
0100
0000
0000
0000
0001
0000
0000
0000
0010
0100
0010
0000
0100
0000
0000
0000
0010
0000
,
0000
0100
0000
0010
0100
0010
0000
0100
0000
0010
0000
0000
1000
0100
0010
0100
,
1000
0100
1000
0000
1000
0100
1000
0000
1001
0000
0000
0000
0100
0000
0000
0000
0010
0000
0100
0000
0010
0000
0000
0000
1101
0000
0000
0000
0100
0000
0010
0000
,
0000
0000
0010
0001
0000
0000
0100
0000
0010
0100
0010
0000
0100
0000
1000
0100
,
0000
0000
0100
0010
0000
0000
0001
0000
0010
0100
1000
0000
0100
0000
0010
0100
,
0001
0000
0100
0100
0000
0000
0011
0000
1010
0101
0110
0000
0010
0000
0001
0001
,
0001
0000
0100
0100
0000
0000
0011
0000
0101
1010
0011
0000
0100
0000
0100
0100
,
0000
0000
0010
0010
0000
0000
0001
0000
0010
0100
1000
0000
0100
0000
0100
0100
,
0000
0000
0010
0010
0000
0000
0001
0000
0010
0100
1000
0000
0100
0000
0010
0100
,
0010
0000
0001
0011
0000
0000
1100
0000
0011
1100
0011
0000
0100
0100
0100
0100
,
0010
0000
0001
0100
0000
0000
1100
0000
0101
0011
1110
0000
0000
0000
0000
0000
;
