#TITLE:Girls Just Want To Have Fun;
#SUBTITLE:;
#ARTIST:Cyndi Lauper;
#TITLETRANSLIT:;
#SUBTITLETRANSLIT:;
#ARTISTTRANSLIT:;
#GENRE:Pop;
#CREDIT:Wrland;
#MUSIC:Girls Just Want To Have Fun.ogg;
#BANNER:Girls Just Want To Have Fun-vb.mp4;
#BACKGROUND:BG.png;
#LYRICSPATH:Girls Just Want To Have Fun.lrc;
#CDTITLE:Wrland Season 3 CITYGHT + last one night.png;
#PREVIEWVID:preview.mp4;
#SAMPLESTART:51.785;
#SAMPLELENGTH:12.000;
#SELECTABLE:YES;
#OFFSET:-0.000;
#BPMS:0.000=120.497;
#STOPS:;
#DISPLAYBPM:120.000;
#JACKET:Girls Just Want To Have Fun-jacket.png;
#CDIMAGE:Girls Just Want To Have Fun-cd.png;
#METERTYPE:DDR X;
#BGCHANGES:0.000=Girls Just Want To Have Fun.avi=0.000=0=0=0=StretchNoLoop====,
99999=-nosongbg-=1.000=0=0=0 // don't automatically add -songbackground-
;
#FGCHANGES:;

//--------------- dance-single - Wrland ----------------
#NOTES:
     dance-single:
     Wrland:
     Beginner:
     2:
     0,0,0,0,0:
0000
0000
0000
0000
,
0000
0000
0000
0000
,
0000
0000
0000
0000
,
0000
0000
0000
0000
,
1000
0000
0000
0000
,
1000
0000
0000
0000
,
0100
0000
0000
0000
,
0010
0000
0000
0000
,
0001
0000
0000
0000
,
1000
0000
0000
0000
,
0100
0000
0000
0000
,
0010
0000
0000
0000
,
0100
0000
0000
0000
,
0010
0000
0000
0000
,
0001
0000
0000
0000
,
0010
0000
0000
0000
,
0100
0000
0000
0000
,
1000
0000
0000
0000
,
1000
0000
0000
0000
,
0100
0000
0000
0000
,
0010
0000
0000
0000
,
0001
0000
0000
0000
,
0100
0000
0000
0000
,
0010
0000
0000
0000
,
0100
0000
0000
0000
,
0010
0000
0000
0000
,
0200
0000
0300
0000
,
2000
0000
3000
0000
,
0200
0000
0300
0000
,
0020
0000
0030
0000
,
0001
0000
0000
0000
,
0100
0000
0000
0000
,
0010
0000
0000
0000
,
0100
0000
0000
0000
,
1000
0000
0000
0000
,
0100
0000
0000
0000
,
0100
0000
0000
0000
,
1000
0000
0000
0000
,
1000
0000
0000
0000
,
0010
0000
0000
0000
,
0001
0000
0000
0000
,
0100
0000
0000
0000
,
0010
0000
0000
0000
,
0100
0000
0000
0000
,
0010
0000
0000
0000
,
0001
0000
0000
0000
,
1000
0000
0000
0000
,
0001
0000
0000
0000
;

//--------------- dance-single - Wrland ----------------
#NOTES:
     dance-single:
     Wrland:
     Easy:
     5:
     0,0,0,0,0:
0000
0000
0000
0000
,
0000
0000
0000
0000
,
0000
0000
0000
0000
,
0000
0000
0000
0000
,
1000
0000
1000
0000
,
0001
0000
0001
0000
,
0100
0000
0010
0000
,
0100
0000
0010
0000
,
0001
0000
0010
0000
,
0001
0000
0010
0000
,
0100
0000
1000
0000
,
0100
0000
1000
0000
,
0010
0000
0001
0000
,
0100
0000
0010
0000
,
0001
0000
0100
0000
,
1000
0000
0100
0000
,
1000
0000
0100
0000
,
0010
0000
0001
0000
,
0010
0000
0100
0000
,
1000
0000
0100
0000
,
0010
0000
0100
0000
,
0010
0000
0001
0000
,
0010
0000
0100
0000
,
1000
0000
0100
0000
,
0010
0000
0100
0000
,
0010
0000
0001
0000
,
0200
0300
0200
0300
,
2000
3000
0200
0300
,
0020
0030
0200
0300
,
0020
0030
0002
0003
,
0100
0000
1000
0000
,
0100
0000
0010
0000
,
0100
0000
0010
0000
,
0001
0000
0010
0000
,
0100
0000
1000
0000
,
0100
0000
1000
0000
,
0100
0000
0010
0000
,
0001
0000
0010
0000
,
0100
0000
1000
0000
,
0100
0000
0010
0000
,
0100
0000
0010
0000
,
0001
0000
0010
0000
,
0100
0000
0010
0000
,
0100
0000
1000
0000
,
0100
0000
0010
0000
,
0001
0000
0100
0000
,
0010
0000
0100
0000
,
0010
0000
0000
0000
;

//--------------- dance-single - Wrland ----------------
#NOTES:
     dance-single:
     Wrland:
     Medium:
     8:
     0,0,0,0,0:
0000
0000
0000
0000
,
0000
0000
0000
0000
,
0000
0000
0000
0000
,
0000
0000
0000
0000
,
0100
0000
1000
0100
0000
0000
0010
0000
,
0100
0000
0010
0000
0001
0000
0100
0010
,
0000
0010
0100
0010
0000
0001
0100
0001
,
0100
0010
0100
0000
1000
0000
0100
0000
,
1000
0100
0010
0001
,
0100
0000
0010
0000
0100
0000
0010
0100
,
0010
0001
0010
0100
,
1000
0100
0010
0100
,
0010
0000
0001
0100
0001
0100
0001
0000
,
0010
0100
0010
0100
2000
3000
1100
0000
,
0100
0010
0100
0010
,
0100
0010
0100
0010
0200
0300
0011
0000
,
0001
0000
0010
0000
0001
0010
0001
0000
,
0100
0000
0010
0100
0000
0000
0100
0000
,
0010
0000
0001
0000
0100
0010
0000
0100
,
0010
0001
0100
0000
0010
1000
0100
0000
,
1000
0100
1000
0000
0100
0000
0100
0000
,
0010
0100
0010
0001
,
0100
0010
0100
0000
,
0100
0000
1000
0000
0100
1000
0100
0010
,
0000
0001
0100
0000
0010
0000
0100
0000
,
0010
0000
0001
0100
0001
0100
0001
0000
,
0100
1000
0010
0100
0010
0200
0300
0100
,
0010
0000
0001
0000
0100
0010
0100
0000
,
0010
0000
0001
0000
0202
0303
0010
0000
,
0100
1000
0100
0000
1000
0100
1000
0000
,
0100
0000
0010
0100
0000
0010
0000
0100
,
0000
0010
0000
0001
0000
0100
0000
0010
,
0100
0000
0010
0100
0010
0001
0100
0010
,
0000
0100
0010
0000
0100
0000
1000
0000
,
0100
0000
1000
0100
1000
0100
0010
0000
,
0100
0000
0010
0001
0200
0300
0101
0000
,
0010
0000
0100
0000
1000
0100
2000
3000
,
0100
0110
1000
1100
,
0100
0000
0010
0000
0001
0100
0001
0000
,
0100
0000
0010
0000
0100
0010
0000
0000
,
0001
0000
0100
0010
0000
0100
1000
0000
,
0100
0000
1000
0000
0100
1000
0000
0100
,
0010
0000
0001
0100
0000
0010
0100
0000
,
0010
0000
0001
0100
0001
0000
0010
0000
,
0100
0000
1000
0100
1000
0100
0010
0000
,
0100
0000
0010
0001
0100
0010
0000
0000
,
0100
0000
0010
0100
0000
0010
0000
0000
,
1001
0000
0000
0000
;

//--------------- dance-single - Wrland ----------------
#NOTES:
     dance-single:
     Wrland:
     Hard:
     12:
     0,0,0,0,0:
0000
0000
0000
0000
,
0000
0000
0000
0000
,
1000
0000
0000
0100
0000
0000
1000
0000
0200
0000
0300
0000
0010
0000
0000
0000
,
0001
0000
0000
0010
0000
0000
0100
0000
0020
0000
0030
0000
0002
0000
0000
0000
,
0003
0000
0000
0000
0100
0000
0020
0000
0030
0000
0100
0000
0010
0000
0001
0100
,
0001
0001
1000
0200
0300
0020
0030
0200
,
0300
0010
0001
0200
0300
0010
0100
1000
,
0100
0000
0010
0000
0002
0000
0003
0000
0100
0000
0020
0000
0000
0030
0000
0000
,
0000
0000
0100
0000
0010
0000
0001
0100
0000
0000
0001
0000
1000
0000
0100
0000
,
1000
0000
0000
0100
0010
0000
0001
0000
0200
0000
0300
0000
0010
0000
0100
0000
,
0020
0030
0001
0100
0010
1000
0100
0020
,
0030
0100
0010
0000
0001
0100
0010
0100
,
2000
3000
0100
1000
0100
0010
0001
0000
,
0100
0001
0100
0000
1000
0000
0100
0000
0020
0000
0030
0000
0110
0000
0000
0000
,
1000
0100
1000
0000
0100
0000
0010
0000
0002
0000
0003
0000
0101
0000
0000
0000
,
0010
0100
0010
0000
0100
0000
1000
0000
0200
0000
0300
0000
1100
0000
0000
0000
,
0100
0010
0100
0000
0010
0000
0001
0000
0020
0000
0030
0000
0011
0000
0000
0000
,
0000
0000
0000
0001
0100
0000
0010
0000
0100
0000
0010
0000
0100
0000
1000
0100
,
1000
0200
0300
0010
0100
0020
0030
0100
,
0010
0001
0100
0000
0010
0100
1000
0100
,
0010
0001
0200
0300
0010
0100
0010
0000
,
0100
0000
0010
0000
0100
0000
1000
0100
0000
0000
0010
0000
0100
0000
0010
0000
,
0002
0000
0003
0100
0000
0000
0002
0003
0200
0000
0300
0000
0010
0000
0100
0000
,
0010
0000
0000
0000
0001
0000
0100
0000
0010
0000
1000
0000
0200
0000
0300
1000
,
0000
0100
2000
3000
0100
0010
0001
0100
,
0002
0003
0100
0001
0100
0010
0200
0300
,
1000
0100
0010
0001
0100
0020
0030
0100
,
0010
0000
0001
0100
0001
0100
0010
0000
,
0100
0000
0010
0000
0200
0000
0300
0000
0220
0000
0330
1000
0200
0000
0300
0000
,
0010
0000
0001
0000
0100
0000
0000
0010
0100
0000
0010
0000
0200
0000
0300
0000
,
0020
0030
0001
0020
0030
0200
0300
2000
,
3000
0200
0300
2000
3000
0200
0300
0001
,
0200
0000
0300
0000
0001
0000
0100
0000
0010
0000
0100
0000
0010
0000
0000
0020
,
0000
0030
0100
0000
0010
0000
0000
0000
0001
0000
0100
0000
0010
0000
0100
0000
,
2000
0000
3000
0000
0100
0000
1000
0000
0100
0000
0010
0000
0002
0000
0000
0003
,
0200
0300
0010
0100
2000
3000
1100
0000
,
0100
0000
0010
0000
0001
0100
0002
0003
,
0200
0300
0101
0000
0020
0030
0011
0000
,
0002
0003
0020
0030
0001
0010
0200
0300
,
0100
0000
1000
0000
0100
0000
0000
1000
0100
0000
2000
0000
3000
0000
0100
0000
,
0010
0000
0000
0001
0100
0000
0002
0000
0003
0000
0100
0000
0020
0000
0030
0000
,
0100
0000
0000
0000
0010
0000
0000
0100
0010
0000
0100
0000
0000
0000
0010
0000
,
0001
0000
0000
0100
0001
0000
0100
0000
0010
0000
1000
0000
0100
0000
0010
0000
,
0100
0000
0000
0010
0200
0000
0300
0000
0001
0000
0000
0000
0101
0000
0000
0000
,
0020
0030
1000
0100
1000
0100
0020
0030
,
0200
0000
0300
0000
0010
0000
0100
0000
0010
0000
0002
0000
0000
0003
0000
0000
,
0200
0300
0010
0200
0300
0020
0030
0000
,
1001
0000
0000
0000
;
