#TITLE:Envolver;
#SUBTITLE:;
#ARTIST:Anitta;
#TITLETRANSLIT:;
#SUBTITLETRANSLIT:;
#ARTISTTRANSLIT:;
#GENRE:Latin;
#CREDIT:Wrland;
#MUSIC:Envolver.ogg;
#BANNER:Envolver.png;
#BACKGROUND:BG.png;
#LYRICSPATH:Envolver.lrc;
#CDTITLE:Wrland Season 3 CITYGHT + last one night.png;
#PREVIEWVID:preview.mp4;
#SAMPLESTART:30.326;
#SAMPLELENGTH:12.000;
#SELECTABLE:YES;
#OFFSET:0.000;
#BPMS:0.000=92.000
,108.000=46.000
,111.000=92.000
;
#STOPS:;
#DISPLAYBPM:46.000:92.000;
#JACKET:Envolver-jacket.png;
#CDIMAGE:Envolver-cd.png;
#METERTYPE:DDR X;
#BGCHANGES:0.000=Envolver.avi=1.000=0=0=0=StretchNoLoop====,
99999.000=-nosongbg-=1.000=0=0=0=StretchNoLoop====
;
#FGCHANGES:;

//--------------- dance-single - Wrland ----------------
#NOTES:
     dance-single:
     Wrland:
     Beginner:
     1:
     0,0,0,0,0:
0000
0000
0000
0000
,
0000
0000
0000
0000
,
0000
0000
0000
0000
,
0000
0000
0000
0000
,
0001
0000
0000
0000
,
0000
0000
0000
0000
,
0100
0000
0000
0000
,
0000
0000
0000
0000
,
1000
0000
0000
0000
,
0000
0000
0000
0000
,
0010
0000
0000
0000
,
0000
0000
0000
0000
,
0100
0000
0000
0000
,
0000
0000
0000
0000
,
1000
0000
0000
0000
,
0000
0000
0000
0000
,
0100
0000
0000
0000
,
0000
0000
0000
0000
,
0010
0000
0000
0000
,
0000
0000
0000
0000
,
0001
0000
0000
0000
,
0000
0000
0000
0000
,
0010
0000
0000
0000
,
0000
0000
0000
0000
,
0100
0000
0000
0000
,
0000
0000
0000
0000
,
1000
0000
0000
0000
,
1001
0000
0000
0000
,
0000
0010
0000
0000
,
0000
0100
0000
0000
,
0000
0000
0000
0000
,
0000
0010
0000
0000
,
0000
0000
0000
0000
,
0000
0001
0000
0000
,
0000
0000
0000
0000
,
0000
1000
0000
0000
,
0000
0000
0000
0000
,
0000
0100
0000
0000
,
0000
0000
0000
0000
,
0000
1000
0000
0000
,
0000
0000
0000
0000
,
0000
0010
0000
0000
,
0000
0000
0000
0000
,
0000
0100
0000
0000
,
0000
0000
0000
0000
,
0000
0100
0000
0000
,
0000
0000
0000
0000
,
0000
0200
0000
0000
,
0300
0000
0000
0000
,
0000
0020
0000
0000
,
0030
0000
0000
0000
;

//--------------- dance-single - Wrland ----------------
#NOTES:
     dance-single:
     Wrland:
     Easy:
     2:
     0,0,0,0,0:
0000
0000
0000
0000
,
0000
0000
0000
0000
,
0000
0000
0000
0000
,
0000
0000
0000
0000
,
0100
0000
0000
0000
,
0100
0000
0000
0000
,
0010
0000
0000
0000
,
0001
0000
0000
0000
,
0010
0000
0000
0000
,
0100
0000
0000
0000
,
1000
0000
0000
0000
,
1000
0000
0000
0000
,
0100
0000
0000
0000
,
0100
0000
0000
0000
,
0010
0000
0000
0000
,
0001
0000
0000
0000
,
0001
0000
0000
0000
,
0010
0000
0000
0000
,
0100
0000
0000
0000
,
1000
0000
0000
0000
,
1000
0000
0000
0000
,
0100
0000
0000
0000
,
1000
0000
0000
0000
,
0100
0000
0000
0000
,
0010
0000
0000
0000
,
0001
0000
0000
0000
,
0010
0000
0000
0000
,
0100
0000
0000
0000
,
0000
0100
0000
0000
,
0000
1000
0000
0000
,
0000
0010
0000
0000
,
0000
0001
0000
0000
,
0000
0001
0000
0000
,
0000
0100
0000
0000
,
0000
0010
0000
0000
,
0000
0100
0000
0000
,
0000
0100
0000
0000
,
0000
0010
0000
0000
,
0000
0010
0000
0000
,
0000
0001
0000
0000
,
0000
1000
0000
0000
,
0000
0100
0000
0000
,
0000
0010
0000
0000
,
0000
0100
0000
0000
,
0000
0100
0000
0000
,
0000
0010
0000
0000
,
0000
0100
0000
0000
,
0000
2000
0000
0000
,
3000
0000
0000
0000
,
0000
0002
0000
0000
,
0003
0000
0000
0000
;

//--------------- dance-single - Wrland ----------------
#NOTES:
     dance-single:
     Wrland:
     Medium:
     4:
     0,0,0,0,0:
0000
0000
0000
0000
,
0000
0000
0000
0000
,
0000
0000
0000
0000
,
0000
0000
0000
0000
0100
0010
0100
0010
,
0002
0003
2000
3000
,
1000
0100
0010
0000
,
0001
1000
0010
0100
,
0100
0001
0010
1000
0002
0000
0003
0000
,
0100
1000
0100
0110
,
0010
0001
0010
0011
,
0100
0010
0001
0010
,
0100
0000
1000
0000
0100
0100
0010
0000
,
0110
0000
0001
0000
0100
0000
1000
0100
,
0020
0000
0030
0000
0010
0100
0010
0100
,
0010
0000
0001
0010
0100
0000
0010
0100
,
2000
0000
3000
0000
1000
0100
0010
0000
,
0001
0000
0010
0100
0010
0000
0001
0100
,
0020
0000
0030
0000
0100
0010
0001
0100
,
0010
0000
1000
0000
1000
0100
0010
0100
,
0020
0030
0000
0000
,
0100
0010
0001
0010
,
0100
0010
0100
0000
,
1000
0100
1000
0000
,
0001
0010
0001
0000
,
0100
0010
0001
1000
,
1000
0001
0001
0100
,
0010
0100
1000
0100
,
0020
0030
0200
0300
,
0000
0000
0010
0000
0001
0000
0010
0100
,
0010
0000
0001
0000
0100
1000
0100
0000
,
0010
0100
0020
0000
0030
0000
0100
1000
,
0100
0010
0001
0000
0010
0000
0100
0000
,
0010
0001
0020
0000
0030
0000
0100
1000
,
0100
0010
0100
0000
0010
0000
0001
0100
,
0010
0001
0200
0000
0300
0000
0100
0000
,
0100
0001
0100
1000
,
0100
0010
0100
0010
,
0001
0100
1000
0100
,
1000
0100
0010
0100
,
0010
0001
0010
0100
,
1000
0100
1000
0100
,
0010
0001
0010
0100
,
0010
0000
0100
0000
0010
0000
0001
0100
,
1000
1000
1000
1000
,
1001
0001
0001
0001
,
1001
0100
0100
0100
,
0110
0000
0010
0000
0010
0000
0010
0100
,
0010
2000
0000
0000
,
3000
0002
0000
0000
,
0003
0200
0000
0000
,
0300
0020
0000
0000
,
0030
0000
0000
0000
;

//--------------- dance-single - Wrland ----------------
#NOTES:
     dance-single:
     Wrland:
     Hard:
     7:
     0,0,0,0,0:
0000
0000
0000
0000
,
0000
0000
0000
0000
,
0000
0000
0000
0000
,
0000
0000
0000
0000
1000
0001
1000
0100
,
0020
0000
0030
0200
0000
0300
0000
0100
,
0010
0001
0100
0010
1000
0100
2000
3000
,
1000
0100
1000
0000
0100
0010
0002
0003
,
0100
0000
0010
0000
0001
0000
0100
0000
0020
0000
0030
0000
0000
0100
0010
0100
,
0010
0000
0000
0000
0100
0000
0000
0000
0010
0000
0000
0000
0001
0000
0000
0000
0000
0000
0010
0000
0000
0100
0000
0000
0000
0000
0000
0010
0000
0000
0100
0000
0000
0000
0000
0000
0010
0000
0000
0000
0000
0000
0100
0000
0000
0000
0000
0000
,
0001
0000
0000
0000
1000
0000
0000
0000
0001
0000
0000
0000
1000
0000
0000
0000
0000
0000
0100
0000
0000
0010
0000
0000
0000
0000
0000
0001
0000
0000
0100
0000
0000
0000
0000
0000
0010
0000
0000
0000
0000
0000
0100
0000
0000
0000
0000
0000
,
0020
0000
0030
0000
0001
0000
1000
0001
1000
0000
0100
0000
0010
0000
0001
0000
,
0100
0010
0100
0000
0010
0000
0001
0000
1000
0000
1000
0100
1000
0100
0010
0000
,
0002
0003
0100
0010
0100
0010
0100
1000
,
0200
0000
0300
0000
0100
1000
0100
0010
,
0002
0003
0010
0100
0010
0001
0010
0100
,
0020
0000
0000
0000
0030
0000
0000
0000
0100
0010
0100
0010
0100
0000
0001
0000
,
0200
0300
1000
0100
1000
0100
0010
0001
,
0200
0000
0300
0000
0100
0010
0001
0010
,
0200
0300
2000
3000
1000
0100
1000
0100
,
0020
0030
0100
0010
0002
0000
0003
0000
,
0200
0300
0020
0030
0002
0003
0010
0100
,
0010
0100
1000
0100
2000
3000
1000
0100
,
0010
0001
0100
0010
0200
0300
0010
0001
,
0200
0300
0010
0100
2000
0000
3000
0000
,
0200
0300
1000
0100
0020
0030
0001
0100
,
0010
0100
1000
0100
0020
0030
0100
1000
,
0100
0010
0001
0100
0020
0030
0100
0010
,
0200
0000
0300
0000
0010
0000
0001
0000
0100
0010
0000
0100
0010
0100
0010
0000
0200
0000
0300
0000
0010
0000
0001
1000
0001
0000
0100
0000
0010
0000
0100
0000
,
0001
0000
1000
0000
0200
0000
0300
0000
1000
0000
0100
0000
0010
0001
0010
1000
,
0100
0010
0001
0100
0020
0000
0030
0000
0100
0000
0010
1000
0001
0000
0100
0001
,
0010
0100
1000
0000
0200
0000
0300
0000
0100
0000
0010
0000
0001
0100
0001
0100
,
0010
1000
0010
0000
0200
0000
0300
0000
0010
0000
0001
0100
0010
0000
1000
0100
,
1000
0000
0100
0000
0020
0000
0030
0000
0100
0000
0010
0000
0001
0000
0100
0010
,
0100
1000
0010
0000
0200
0000
0300
0000
2000
0000
3000
0000
1000
0000
0100
0010
,
0001
0100
0010
0001
0200
0000
0300
0000
0010
0000
0001
0100
0001
0000
1000
0100
,
1000
0100
0001
0000
0020
0000
0030
0100
0010
0000
0001
0000
0200
0000
0300
1000
,
0100
0000
1000
0000
0200
0000
0300
1000
0100
0000
0010
0000
0002
0000
0003
0100
,
0010
0000
0100
0000
2000
0000
3000
0100
1000
0000
0100
0000
0020
0000
0030
0100
,
0010
0000
0100
0000
0020
0000
0030
0100
0010
0000
0001
0000
0100
0100
0100
0010
,
0010
0000
0100
0000
0020
0000
0030
0001
0100
0000
0010
0000
0200
0000
0300
1000
,
0100
0000
1000
0000
0200
0000
0300
0001
0010
0000
0100
0000
0020
0000
0030
0010
,
0100
0000
0010
0000
0200
0000
0300
0001
0100
0000
0001
0000
0200
0000
0300
0010
,
1000
0000
0010
0000
2000
0000
3000
0100
0010
0000
0001
0000
1000
0100
0010
0001
,
1001
0100
1100
0100
,
0110
0001
0011
0010
,
0101
0010
1010
0100
,
1100
0000
1000
0000
1010
0000
1001
0110
,
1001
0100
0020
0000
0000
0130
0000
0000
,
0000
0010
0100
0010
0002
0003
0100
1000
,
0100
0000
0100
0010
0100
0010
0001
1000
,
0002
0003
1000
0001
1000
0001
0200
0000
,
0000
0000
0000
0000
,
0300
0000
0000
0000
;
