#TITLE:Dos Hombres y Un Destino;
#SUBTITLE:;
#ARTIST:Bustamante y Alex;
#TITLETRANSLIT:;
#SUBTITLETRANSLIT:;
#ARTISTTRANSLIT:;
#GENRE:Spanish;
#CREDIT:;
#MUSIC:Dos Hombres y Un Destino.ogg;
#BANNER:Dos Hombres y Un Destino-vb.avi;
#BACKGROUND:Dos Hombres y Un Destino-bg.png;
#CDTITLE:Wrland Season 3 CITYGHT.png;
#SAMPLESTART:83.341;
#SAMPLELENGTH:12.000;
#SELECTABLE:YES;
#OFFSET:-0.020;
#BPMS:0.000=72.011
,72.000=36.005
,74.000=72.011
,98.000=36.005
,100.000=72.011
;
#STOPS:;
#DISPLAYBPM:72.000;
#JACKET:Dos Hombres y Un Destino-jacket.png;
#CDIMAGE:Dos Hombres y Un Destino-cd.png;
#BGCHANGES:0.000=Dos Hombres y Un Destino.avi=1.000=0=0=0=StretchNoLoop====,
99999.000=-nosongbg-=1.000=0=0=0=StretchNoLoop====,
99999=-nosongbg-=1.000=0=0=0 // don't automatically add -songbackground-
;
#FGCHANGES:;

//--------------- dance-single - ----------------
#NOTES:
     dance-single:
     :
     Beginner:
     1:
     0,0,0,0,0:
0000
0000
0000
0000
,
0000
0000
0000
0000
,
0000
0000
0000
0000
,
0000
0000
0000
0000
,
0100
0000
0000
0000
,
0100
0000
0000
0000
,
0010
0000
0000
0000
,
0010
0000
0000
0000
,
0001
0000
0000
0000
,
0100
0000
0000
0000
,
1000
0000
0000
0000
,
0100
0000
0000
0000
,
1000
0000
0000
0000
,
0100
0000
0000
0000
,
0010
0000
0000
0000
,
0100
0000
0000
0000
,
0100
0000
0000
0000
,
0010
0000
0000
0000
,
1001
0000
0010
0000
,
0000
0000
0100
0000
,
0000
0000
0100
0000
,
0000
0000
0010
0000
,
0000
0000
0100
0000
,
0000
0000
1000
0000
,
0000
0000
0110
0000
,
0001
0000
0000
0000
,
0010
0000
0000
0000
,
0100
0000
0000
0000
,
0010
0000
0000
0000
,
0100
0000
0000
0000
,
0010
0000
0000
0000
,
0100
0000
0000
0000
,
1000
0000
0000
0000
,
0001
0000
0000
0000
,
0100
0000
0000
0000
,
0000
0000
0110
0000
;

//--------------- dance-single - ----------------
#NOTES:
     dance-single:
     :
     Easy:
     2:
     0,0,0,0,0:
0000
0000
0000
0000
,
0000
0000
0000
0000
,
0000
0000
0000
0000
,
0000
0000
0000
0000
,
0100
0000
0100
0000
,
0010
0000
0010
0000
,
0100
0000
0100
0000
,
1000
0000
1000
0000
,
0010
0000
0010
0000
,
0100
0000
0100
0000
,
0001
0000
0001
0000
,
1000
0000
0100
0000
,
0010
0000
0100
0000
,
0010
0000
0010
0000
,
0100
0000
1000
0000
,
0010
0000
0001
0000
,
0010
0000
0010
0000
,
0100
0000
0100
0000
,
1000
0000
1001
0000
,
0001
0000
0010
0000
,
0010
0000
0010
0000
,
0100
0000
0100
0000
,
1000
0000
0001
0000
,
0010
0000
0100
0000
,
0010
0000
0110
0000
,
1001
0000
0100
0000
,
1000
0000
0100
0000
,
0010
0000
0100
0000
,
1000
0000
1000
0000
,
1000
0000
0010
0000
,
0100
0000
0001
0000
,
0010
0000
0100
0000
,
0010
0000
0100
0000
,
0010
0000
0100
0000
,
0001
0000
1000
0000
,
0000
0000
1001
0000
;

//--------------- dance-single - ----------------
#NOTES:
     dance-single:
     :
     Medium:
     4:
     0,0,0,0,0:
0000
0000
0000
0000
,
0000
0000
0000
0000
,
0000
0000
0000
0000
,
0000
0000
0000
0000
,
1000
1000
0100
1000
,
0100
0010
0100
0010
,
0001
0010
0001
0010
,
0100
0010
0100
0010
,
0100
0100
1000
1000
,
0010
0100
0100
0100
,
0010
0001
0010
0100
,
1000
0100
1000
0100
,
0010
0001
0100
0010
,
0100
1000
0100
1000
,
0100
0010
0001
0100
,
0010
0100
1000
1000
,
0100
1000
0100
0010
,
0001
0000
0010
0000
0100
0010
0100
0010
,
0220
0330
1001
0100
,
0010
0100
1000
1000
,
0100
0000
0010
0100
0010
0011
0000
0001
,
0010
0110
0100
0000
1100
0000
0100
0000
,
0010
0010
0100
1000
,
0100
0010
0001
0010
,
0100
0010
0220
0330
,
1001
0100
1000
0100
,
1000
0010
0100
0010
,
0001
0010
0000
0100
0010
0100
1000
0000
,
1100
0100
0010
0100
,
0010
0001
0100
0010
,
0100
0010
0100
1000
,
0100
1000
0100
1000
,
0100
0010
0100
0010
,
0001
0100
1000
0100
,
1000
0100
0020
0000
,
0030
0000
0220
0000
,
0000
0000
0000
0000
,
0330
0000
0000
0000
;

//--------------- dance-single - ----------------
#NOTES:
     dance-single:
     :
     Hard:
     9:
     0,0,0,0,0:
0000
0000
0000
0000
,
0000
0000
0000
0000
,
0000
0000
0000
0000
,
0000
0000
0000
0000
,
1000
0000
0100
0000
1000
0000
0100
0010
0100
0000
0010
0000
0001
0000
0100
0000
,
0010
0000
0100
0000
0010
0000
0100
0010
0100
0000
1000
0000
0100
0000
0010
0000
,
0100
1000
0100
1000
0100
0010
0001
0100
,
0010
0100
0010
0100
1000
0100
0010
0011
,
0110
0000
0100
0000
0010
0100
1000
0100
0010
0001
1000
0100
0010
0000
0100
1000
,
0200
0000
0300
0000
0100
0000
0010
0100
0010
0000
0001
0100
0000
0000
0010
0200
,
0000
0000
0300
0000
0100
0000
0010
0001
0100
0000
1000
0200
0000
0300
1000
0200
,
0000
0000
0300
0000
0100
0000
1000
0100
0010
0001
0200
0000
0300
0000
0100
0010
,
0100
1000
0200
0000
0000
0000
0000
0300
0001
0000
0010
0000
0001
0000
0010
0000
,
1001
0000
0100
0000
0010
0100
0010
0001
0100
0010
0001
1000
0000
0100
0000
0010
,
0200
0000
0000
0300
0010
0000
0100
0010
0001
0000
0100
0010
0000
0001
0100
0000
,
2000
0000
0000
3000
0100
0000
0100
0010
0001
0000
0100
0010
0000
1000
0100
0000
,
2000
0000
0000
3000
0100
0000
0010
0001
0100
0010
2000
0000
3000
0000
1000
0100
,
1000
0100
2000
0000
0000
0000
0000
3000
0100
0000
0010
0000
0100
0000
0010
0000
,
1001
0000
0000
0100
0010
0001
0100
0000
0000
0000
1001
0000
0000
0100
0000
0010
0210
0000
0000
0000
0001
0000
0000
0000
0010
0000
0000
0000
0001
0000
0000
0000
,
0010
0000
0001
0010
0001
0000
0310
0000
1001
0000
0000
0100
0010
0000
0100
0010
,
0000
1000
0001
0100
0010
1100
0000
0110
,
1001
0000
1001
0000
2002
0000
3003
0000
1011
0000
0000
0000
0100
0010
0100
0010
,
0100
0000
0000
0000
0100
0010
0001
0100
0010
2000
0000
3000
0100
0000
0010
0100
,
1000
0001
0200
0000
0300
0000
0100
0000
0010
0000
0002
0000
0100
0000
0013
0000
,
0100
0000
0000
0000
0010
0000
0000
0000
0100
0000
0000
0000
1000
0000
0000
0000
1100
0000
0000
0100
0010
0001
0100
0000
0000
0000
0010
0000
0000
0100
0010
0000
,
1020
0000
1000
0000
0100
0000
1000
0000
0100
0000
1000
0100
1000
0000
0100
0000
,
0031
0000
0000
0010
0100
0000
0010
0100
0000
0000
1000
0000
0100
0000
0010
0000
,
0001
1001
0100
0010
0100
0010
1100
0100
,
0010
0000
0100
0010
1000
0100
0010
0001
0100
0010
0000
0000
0100
0000
0010
0000
,
0100
0010
0001
0000
0100
0000
0010
0001
1000
0100
0000
0000
0010
0000
0100
1000
,
0011
0000
0220
0000
0000
0000
0000
0000
0330
0000
2020
0000
3030
0000
0101
1010
,
0122
0000
0000
0000
0000
0000
0000
0000
0033
0000
2200
0000
3300
0000
0100
2000
,
0000
0000
0000
3000
0200
0000
0000
0000
0300
0000
0200
0000
0000
0300
0010
0100
,
0020
0030
0100
0020
0000
0000
0000
0000
0000
0030
0002
0000
0000
0003
0010
0100
,
1000
0100
1000
0100
1000
0000
2002
0000
0000
0000
0000
0000
0000
0000
0000
0000
,
0000
0000
0000
3003
0220
0000
0000
0000
,
0000
0000
0000
0000
0000
0000
0000
0000
0000
0000
0000
0000
0000
0000
0000
0330
;
