#TITLE:Divine;
#SUBTITLE:;
#ARTIST:avenew feat. CLINE;
#TITLETRANSLIT:;
#SUBTITLETRANSLIT:;
#ARTISTTRANSLIT:;
#GENRE:J-Pop;
#CREDIT:;
#MUSIC:Divine.ogg;
#BANNER:Divine.png;
#BACKGROUND:Divine-bg.png;
#JACKET:Divine-jacket.png;
#CDIMAGE:Divine-cd.png;
#CDTITLE:Wrland Season 3 CITYGHT.png;
#SAMPLESTART:67.863;
#SAMPLELENGTH:12.000;
#SELECTABLE:YES;
#OFFSET:-3.311;
#BPMS:0.000=145.000;
#STOPS:;
#DISPLAYBPM:145.000;
#BGCHANGES:;
#FGCHANGES:;

//--------------- dance-single - ----------------
#NOTES:
     dance-single:
     :
     Beginner:
     4:
     0,0,0,0,0:
0000
0000
0000
0000
,
0000
0000
0000
0000
,
0000
0000
0000
0000
,
0000
0000
0000
0000
,
0000
0000
0000
0000
,
0000
0000
0000
0000
,
0000
0000
0000
0000
,
0000
0000
0000
0000
,
0000
0000
0000
0000
,
1000
0000
0000
0000
,
0001
0000
0000
0000
,
1000
0000
0000
0000
,
0001
0000
0000
0000
,
0100
0000
0000
0000
,
0010
0000
0000
0000
,
0100
0000
0000
0000
,
0010
0000
0000
0000
,
0001
0000
0000
0000
,
1000
0000
0000
0000
,
0100
0000
0000
0000
,
1000
0000
0000
0000
,
0010
0000
0000
0000
,
0100
0000
0000
0000
,
1000
0000
0000
0000
,
0100
0000
0000
0000
,
1000
0000
0000
0000
,
0100
0000
0000
0000
,
0010
0000
0000
0000
,
0100
0000
0000
0000
,
0010
0000
0000
0000
,
0001
0000
0000
0000
,
1000
0000
0000
0000
,
0100
0000
0000
0000
,
1000
0000
0000
0000
,
0010
0000
0000
0000
,
0100
0000
0000
0000
,
0010
0000
0000
0000
,
0001
0000
0000
0000
,
0100
0000
0000
0000
,
0110
0000
0000
0000
,
1000
0000
0000
0000
,
0101
0000
0000
0000
,
0001
0000
0000
0000
,
1100
0000
0000
0000
,
1000
0000
0000
0000
,
0110
0000
0000
0000
,
0010
0000
0000
0000
,
1010
0000
0000
0000
,
0010
0000
0000
0000
,
0101
0000
0000
0000
,
0100
0000
0000
0000
,
0110
0000
0000
0000
,
0100
0000
0000
0000
,
0001
0000
0000
0000
,
0001
0000
0000
0000
,
1000
0000
0000
0000
,
1000
0000
0000
0000
,
0100
0000
0000
0000
,
0100
0000
0000
0000
,
0010
0000
0000
0000
,
0010
0000
0000
0000
,
1000
0000
0000
0000
,
0001
0000
0000
0000
,
1000
0000
0000
0000
,
0001
0000
0000
0000
,
0100
0000
0000
0000
,
0010
0000
0000
0000
,
0100
0000
0000
0000
,
0010
0000
0000
0000
,
1000
0000
0000
0000
,
0001
0000
0000
0000
,
1000
0000
0000
0000
,
0010
0000
0000
0000
,
0100
0000
0000
0000
,
0010
0000
0000
0000
,
0100
0000
0000
0000
,
0010
0000
0000
0000
,
1001
0000
0000
0000
,
0110
0000
0000
0000
,
1001
0000
0000
0000
,
0110
0000
0000
0000
,
1001
0000
0000
0000
;

//--------------- dance-single - ----------------
#NOTES:
     dance-single:
     :
     Easy:
     6:
     0,0,0,0,0:
0000
0000
0000
0000
,
0000
0000
0000
0000
,
0000
0000
0000
0000
,
0000
0000
0000
0000
,
0000
0000
0000
0000
,
0000
0000
0000
0000
,
0000
0000
0000
0000
,
0000
0000
0000
0000
,
0000
0000
0000
0000
,
1000
0000
1000
0000
,
1000
0000
0000
0000
,
0100
0000
1000
0000
,
0100
0000
0000
0000
,
0010
0000
0100
0000
,
0010
0000
0000
0000
,
0100
0000
1000
0000
,
0100
0000
0010
0000
,
0100
0000
0010
0000
,
0100
0000
0001
0000
,
0100
0000
0010
0000
,
1000
0000
0100
0000
,
0110
0000
0001
0000
,
1000
0000
0100
0000
,
0010
0000
0000
0000
,
0100
0000
0000
0000
,
0010
0000
0000
0000
,
0100
0000
0000
0000
,
0010
0000
0000
0000
,
0100
0000
0000
0000
,
0001
0000
0000
0000
,
1001
0000
0000
0000
,
1000
0000
0000
0000
,
0100
0000
0000
0000
,
1000
0000
0000
0000
,
0100
0000
0000
0000
,
0110
0000
0000
0000
,
0100
0000
0000
0000
,
1100
0000
0000
0000
,
1000
0100
0010
0100
,
0001
0000
0001
0000
,
1000
0000
0000
0000
,
1000
0000
0100
0000
,
1000
0000
0000
0000
,
0100
0000
0010
0000
,
0100
0000
0000
0000
,
0001
0000
0010
0000
,
0100
0000
0000
0000
,
0010
0000
0100
0000
,
0010
0000
0000
0000
,
0001
0000
0100
0000
,
0010
0000
0000
0000
,
1000
0000
0100
0000
,
1000
0000
0000
0000
,
1000
0000
1000
0000
,
0100
0000
0010
0000
,
0100
0000
0010
0000
,
0001
0000
0100
0000
,
0010
0000
0100
0000
,
0010
0000
0001
0000
,
0010
0000
0100
0000
,
0010
0000
0100
0000
,
1000
0000
1000
0000
,
0001
0000
0001
0000
,
1000
0000
1000
0000
,
0001
0000
0001
0000
,
0100
0000
0100
0000
,
0010
0000
0010
0000
,
0100
0000
0100
0000
,
0010
0000
0010
0000
,
0100
0000
0000
0000
,
0010
0000
0000
0000
,
0100
0000
0000
0000
,
0001
0000
0000
0000
,
1000
0000
0000
0000
,
0010
0000
0000
0000
,
1000
0000
0000
0000
,
1001
0000
0000
0000
,
0100
0000
0000
0000
,
0000
0000
0000
0000
,
0010
0000
0000
0000
,
0000
0000
0000
0000
,
0110
0000
0000
0000
;

//--------------- dance-single - ----------------
#NOTES:
     dance-single:
     :
     Medium:
     10:
     0,0,0,0,0:
0000
0000
0000
0000
,
1000
0000
0000
0001
0000
0000
2000
0000
3000
0000
0100
0000
0010
0000
0100
0000
,
0010
0000
0000
0001
0000
0000
0200
0000
0000
0000
0300
0000
0010
0000
0100
0000
,
0010
0000
0000
0010
0000
0000
0100
0000
0100
0000
0000
1000
0000
0000
0100
0000
,
0010
0000
0000
0001
0000
0000
0200
0000
0000
0000
0300
0000
0010
0000
0100
0000
,
0010
0000
0100
0020
0030
0200
0300
0010
,
0200
0300
0100
2000
3000
0200
0300
0100
,
0020
0000
0030
0100
0020
0030
0100
0020
,
0000
0000
0000
0030
,
0100
0000
0000
0010
0000
0000
0002
0000
0003
0000
0010
0000
0100
0000
0010
0000
,
0200
0000
0300
1000
0000
0000
0200
0000
0000
0000
0300
0000
0100
0000
0010
0000
,
0100
0000
0000
0010
0000
0000
0001
0000
0100
0000
0000
0010
0000
0000
0100
0000
,
0010
0000
0000
0100
0000
0000
2000
0000
0000
0000
3000
0000
0001
0000
1000
0000
,
0002
0000
0003
0100
0020
0030
0100
0020
,
0030
0100
0020
0030
0100
0020
0030
0200
,
0300
1000
0200
0000
0000
0000
0000
0000
,
0000
0000
0000
0000
,
0310
0000
0000
0001
0000
0000
0010
0000
1000
0000
0000
0100
0000
0000
0010
0000
,
0002
0000
0000
0000
0003
0000
0100
0010
0200
0000
0000
0000
0000
0000
0300
0000
,
0010
0000
0000
0100
0000
0000
0100
0000
2000
0000
3000
0100
0000
0000
0010
0000
,
0002
0000
0000
0000
0203
0000
0000
0300
,
0010
0000
0000
0100
0000
0000
0010
0000
0001
0000
0000
0010
0000
0000
0100
0000
,
2000
0000
0000
0000
3020
0000
0000
0030
,
0200
0300
0010
0200
0300
0020
0030
0002
,
0003
0010
0200
0000
0000
0300
1000
0000
,
2000
3000
0100
0020
0030
0200
0300
0020
,
0030
0001
0020
0000
0000
0000
0000
0030
,
0200
0300
0020
0030
0200
0300
0010
0200
,
0300
1000
0100
0020
0030
0100
0010
0100
,
0020
0000
0030
0001
0020
0000
0030
0100
,
0010
1000
0100
0020
0000
0000
0000
0030
,
0100
0010
0100
0020
0030
2000
3000
0200
,
0000
0300
1000
0020
0030
0002
0000
0003
,
0010
0100
1000
0200
0300
0020
0030
2000
,
0000
0000
3000
0010
2000
3000
0200
0300
,
0020
0000
0000
0000
0000
0000
0030
0001
,
0200
0300
0010
0002
0003
0020
0030
0100
,
2000
0000
3000
0100
0020
0000
0000
0030
,
0100
0010
0100
0010
0100
0010
0220
0330
,
0100
0000
0000
0010
0000
0000
0200
0000
0300
0000
0010
0000
0001
0000
0100
0000
,
1000
0000
0000
0100
0000
0000
0020
0000
0000
0000
0030
0000
0100
0000
1000
0000
,
0100
0000
0000
0010
0000
0000
0001
0000
0010
0000
0000
0100
0000
0000
1000
0000
,
0100
0000
0000
0010
0000
0000
0200
0000
0000
0000
0300
0000
0000
0000
0100
0000
,
0020
0000
0030
0200
0300
0200
0300
1000
,
0200
0300
0010
0002
0003
0020
0030
0100
,
2000
0000
3000
0100
2000
3000
0100
2000
,
0000
0000
0000
0000
,
3100
0000
0000
0010
0000
0000
0200
0000
0300
0000
0010
0000
0001
0000
0100
0000
,
2000
0000
3000
0100
0000
0000
0020
0000
0000
0000
0030
0000
0100
0000
0010
0000
,
1000
0000
0000
0010
0000
0000
0100
0000
0010
0000
0000
0001
0000
0000
0010
0000
,
0100
0000
0000
1000
0000
0000
0200
0000
0000
0000
0300
0000
1000
0000
0100
0000
,
2000
0000
3000
0100
0020
0030
0100
0020
,
0030
0010
0100
0010
0100
2000
3000
0020
,
0030
0100
0020
0000
0000
0000
0000
0000
,
0000
0000
0000
0000
,
0130
0000
0000
1000
0000
0000
0100
0000
0010
0000
0000
0100
0000
0000
0010
0000
,
0001
0000
0000
0100
0010
0000
0000
0000
,
0100
0000
0000
1000
0000
0000
0100
0000
1000
0000
0000
0010
0000
0000
1000
0000
,
0100
0000
0000
0010
0100
0000
0000
0000
,
0001
0000
0000
0010
0000
0000
0100
0000
1000
0000
0000
0100
0000
0000
0010
0000
,
0001
0000
0000
0100
0010
0000
0000
0000
,
0010
0110
0000
0100
,
1000
0000
0000
0000
0000
0000
0000
0000
0100
0000
0000
0010
0000
0000
0001
0000
,
0010
0000
0000
0010
,
0100
0000
0010
0000
,
0001
0000
0000
0010
0000
0000
0100
0000
1000
0000
0000
0000
0000
0000
0000
0000
,
0100
0000
0000
0010
0000
0000
0100
0000
0010
0000
0000
0001
0000
0000
0010
0000
,
0100
0000
0000
0000
0010
0000
0000
0001
,
0010
0000
0000
0000
0100
0000
0000
0100
,
2000
0000
0000
0000
,
0000
0000
0000
0000
,
0000
0000
0000
0000
,
3000
0000
0000
0000
,
0002
0000
0000
0000
,
0000
0000
0000
0000
,
0000
0000
0000
0000
,
0003
0000
0000
0000
,
2002
0000
0000
0000
,
0000
0000
0000
0000
,
0000
0000
0000
0000
,
3003
0000
0000
0000
,
1001
0000
0000
0000
;

//--------------- dance-single - ----------------
#NOTES:
     dance-single:
     :
     Hard:
     13:
     0,0,0,0,0:
2002
0000
0000
0000
,
3023
0000
0030
0200
0000
0300
0020
0000
0030
0000
0100
0000
1000
0000
0100
0000
,
0020
0000
0030
0200
0000
0300
0020
0000
0000
0000
0030
0000
0100
0000
0010
0000
,
0002
0000
0003
0200
0000
0300
1000
0000
0200
0000
0300
0020
0000
0030
0100
0000
,
0020
0000
0030
0001
0000
0000
0220
0000
0000
0000
0330
0000
0100
0000
0010
0100
,
0020
0000
0030
0002
0003
1000
0100
0100
,
2000
3000
0100
0020
0030
0200
0300
0010
,
0200
0000
0300
0010
0200
0300
0001
2000
,
0000
0000
0000
0000
0100
0000
0000
0000
0010
0100
0010
0001
3100
0000
0000
0000
,
1120
0000
0030
0002
0000
0003
0020
0000
0030
0000
0100
0000
0010
0000
0010
0000
,
0002
0000
0003
0020
0000
0030
0002
0000
0000
0000
0003
0000
0010
0000
0100
0000
,
2000
0000
3000
0200
0000
0300
0010
0000
0200
0000
0300
0020
0000
0030
0100
0000
,
2000
0000
3000
0200
0000
0300
0020
0000
0000
0000
0030
0000
0100
0000
0010
0000
,
0200
0000
0300
0010
0002
0003
0010
0200
,
0300
1000
0200
0300
0100
0020
0030
0200
,
0300
0000
1000
0000
0200
0000
0000
0000
0010
0000
0000
0001
0000
0000
0010
0000
,
0002
0000
0000
0000
0003
0000
0010
0001
0320
0000
0000
0000
0030
0000
0000
0000
,
1020
0000
0000
0100
0000
0000
1000
0000
0100
0000
0000
1000
0000
0000
0100
0000
,
2000
0000
0000
0000
3000
0000
0100
1000
0230
0000
0000
0000
0000
0000
0300
0000
,
2001
0000
0000
0010
0000
0000
0010
0000
0010
0000
0000
0001
0000
0000
0010
0001
,
0020
0000
0030
0000
0010
0001
0010
0001
3020
0000
0000
0000
0000
0000
0030
0000
,
1200
0000
0000
0010
0000
0000
0001
0000
0010
0000
0000
0001
0000
0000
0010
0000
,
2000
0000
0000
0000
3000
0000
1000
0010
2300
0000
0000
0000
0000
0000
3000
0000
,
0022
0033
0100
0020
0030
0200
0300
2000
,
3000
0100
2000
0000
0000
3000
0200
0300
,
0020
0030
0100
0020
0030
0200
0300
0020
,
0030
0000
0001
0000
0020
0000
0000
0000
1000
0001
1000
0001
1000
0001
1031
0000
,
1201
0300
0020
0030
0200
0300
0010
0200
,
0300
0010
0100
2000
3000
0100
0010
0001
,
0200
0000
0300
0010
0200
0000
0300
0001
,
0001
0010
0100
2000
3000
0010
0002
0003
,
0010
0100
1000
0200
0300
0020
0030
0200
,
0000
0300
0010
0200
0300
0002
0000
0003
,
0010
0100
1000
0200
0300
0020
0030
0001
,
2002
0000
0000
0000
3003
0000
0100
0010
0200
0000
0300
0000
0022
0000
0033
0000
,
4440
0000
0000
0000
0000
0000
3330
0001
,
0200
0300
0010
0200
0300
0020
0030
0001
,
0200
0000
0300
1000
0440
0000
0000
0330
,
1100
0000
0010
0000
0001
0000
1000
0000
0100
0000
0010
0000
0001
0000
0010
0000
0100
0000
0001
0000
0010
0000
1000
0000
M44M
M00M
M00M
M00M
M33M
MMMM
MMMM
MMMM
,
1021
0000
0030
0200
0000
0300
0020
0000
0030
0000
0001
0000
1000
0000
0100
0000
,
0020
0000
0030
0200
0000
0300
0020
0000
0000
0000
0030
0000
0001
0000
0100
0000
,
2000
0000
3000
0200
0000
0300
0010
0000
0200
0000
0300
0020
0000
0030
0001
0000
,
0020
0000
0030
0200
0000
0300
0022
0000
0000
0000
0000
0000
0033
0000
1000
0100
,
2000
0000
3000
2002
3003
0200
0300
0010
,
0200
0000
0300
0000
0200
0300
0020
0000
0030
0000
0200
0000
0300
0000
1000
0000
,
4040
0000
0000
0000
3030
0000
0100
0001
0020
0000
0030
0000
0100
0000
0010
0000
,
0400
0000
0000
0000
0001
0000
0000
0000
0001
1000
0001
1000
0301
0000
0000
0000
,
2000
0000
3000
0200
0000
0300
0020
0000
0030
0000
0100
0000
0010
0000
0100
0000
,
2000
0000
3000
0200
0000
0300
0020
0000
0000
0000
0030
0000
0100
0000
0010
0000
,
0200
0000
0300
0020
0000
0030
0100
0000
2000
0000
3000
0200
0000
0300
0010
0000
,
0200
0000
0300
2000
0000
3000
0440
0000
0000
0000
0330
0000
0010
0000
0100
0000
,
0022
0000
0033
0001
0200
0300
0010
0200
,
0300
1000
0100
0010
0001
0200
0300
0020
,
0030
0000
0100
0000
4014
0000
0000
0000
0100
0000
0000
0010
0000
0000
0100
0000
,
0020
0000
0000
0000
0030
0000
0100
0010
0200
0000
0000
0000
0000
0000
0300
0000
,
3023
0000
0000
0100
0000
0000
1000
0000
0100
0000
0000
1000
0000
0000
0100
0000
,
1000
0000
0000
0000
0000
0000
0001
1000
0032
0000
0000
0000
0000
0000
0000
0000
,
1023
0000
0000
0100
0000
0000
1000
0000
0100
0000
0000
1000
0000
0000
0100
0000
,
2030
0000
0000
0000
3000
0000
0001
1000
0002
0000
0000
0000
0000
0000
0000
0000
,
2013
0000
0000
0001
0000
0000
0010
0000
0001
0000
0000
0010
0000
0000
0001
0000
,
0020
0000
0000
0000
0030
0000
0100
0010
3002
0000
0000
0000
0000
0000
0000
0000
,
2103
0000
0000
0000
0000
0000
0200
3000
,
0320
0000
0000
0000
0000
0000
0000
0000
0032
0000
0000
0023
0000
0000
0230
0000
,
2300
0000
0000
0000
0000
0000
0000
0000
0000
0000
0000
0000
3200
0000
0320
0230
,
2300
0000
0000
0000
0000
0000
0000
0000
3200
0000
0000
0000
0000
0000
0320
0032
,
0023
0000
0000
0230
0000
0000
0320
0032
0203
0000
0000
0000
0000
0000
0320
2030
,
3200
0000
0000
0320
0000
0000
0230
0000
2300
0000
0000
3020
0000
0000
0032
0000
,
0203
0000
0000
0000
0000
0000
0320
0000
0230
0000
0000
0000
0000
0000
0320
0230
,
0320
0000
0000
0000
0000
0000
2030
3002
2003
0000
0000
0000
0000
0000
3100
0000
,
0122
0000
0000
1000
0100
1000
0000
0000
1000
0000
0000
0100
1000
0100
0000
0000
,
0100
0000
0000
1000
0100
1000
0000
0000
1000
0000
0000
0100
1000
0100
0033
0000
,
2102
0000
0000
0010
0100
0010
0000
0000
0010
0000
0000
0100
0010
0100
0000
0000
,
0100
0000
0000
0010
0100
0010
0000
0000
0010
0000
0000
0100
0010
0100
3003
0000
,
2210
0000
0000
0001
0010
0001
0000
0000
0001
0000
0000
0010
0001
0010
0000
0000
,
0010
0000
0000
0001
0010
0001
0000
0000
0001
0000
0000
0010
0001
0010
3300
0000
,
0122
0000
0000
1000
0100
1000
0000
0000
1000
0000
0000
0100
1000
0100
0000
0000
,
1000
0000
0000
1000
0100
1000
0000
0000
0100
0000
0000
0100
1000
0100
0033
0000
,
2MM2
0MM0
0MM0
0MM0
0MM0
0MM0
0MM0
0MM0
0MM0
0MM0
0MM0
0MM0
0MM0
0MM0
0MM0
0MM0
0MM0
0MM0
0MM0
0MM0
0MM0
0MM0
0MM0
0MM0
0MM0
0MM0
0MM0
0MM0
0MM0
0MM0
0MM0
0MM0
,
0MM0
0MM0
0MM0
0MM0
0MM0
0MM0
0MM0
0MM0
0MM0
0MM0
0MM0
0MM0
0MM0
0MM0
0MM0
0MM0
0MM0
0MM0
0MM0
0MM0
0MM0
0MM0
0MM0
0MM0
0MM0
0MM0
0MM0
0MM0
0MM0
0MM0
0MM0
0MM0
,
0MM0
0MM0
0MM0
0MM0
0MM0
0MM0
0MM0
0MM0
0MM0
0MM0
0MM0
0MM0
0MM0
0MM0
0MM0
0MM0
0MM0
0MM0
0MM0
0MM0
0MM0
0MM0
0MM0
0MM0
0MM0
0MM0
0MM0
0MM0
0MM0
0MM0
0MM0
0MM0
,
0MM0
0MM0
0MM0
0MM0
0MM0
0MM0
0MM0
0MM0
0MM0
0MM0
0MM0
0MM0
0MM0
0MM0
0MM0
0MM0
0MM0
0MM0
0MM0
0MM0
0MM0
0MM0
0MM0
0MM0
3MM3
0000
0000
0000
0000
0000
0000
0000
,
1011
0000
0000
0000
;
