#TITLE:Dawn Saga;
#SUBTITLE:;
#ARTIST:Nhato;
#TITLETRANSLIT:;
#SUBTITLETRANSLIT:;
#ARTISTTRANSLIT:;
#GENRE:BEMANI;
#CREDIT:Wrland;
#MUSIC:Dawn Saga.ogg;
#BANNER:Dawn Saga.png;
#BACKGROUND:Dawn Saga-bg.png;
#JACKET:Dawn Saga-jacket.png;
#CDIMAGE:Dawn Saga-cd.png;
#CDTITLE:Wrland Season 3 CITYGHT.png;
#SAMPLESTART:46.703;
#SAMPLELENGTH:8.432;
#SELECTABLE:YES;
#OFFSET:0.000;
#BPMS:0.000=92.500
,16.000=185.000
,60.000=92.500
,110.000=185.000
,126.000=92.500
,142.000=185.000
,180.000=92.500
;
#STOPS:;
#DISPLAYBPM:92.000:185.000;
#METERTYPE:DDR X;
#BGCHANGES:0.000=Dawn Saga.avi=1.000=0=0=1,
99999.000=-nosongbg-=1.000=0=0=0=StretchNoLoop====
;
#FGCHANGES:;

//--------------- dance-single - Wrland ----------------
#NOTES:
     dance-single:
     Wrland:
     Beginner:
     2:
     0,0,0,0,0:
0000
0000
0000
0000
,
0000
0000
0000
0000
,
0000
0000
0000
0000
,
0000
0000
0000
0000
,
0100
0000
0000
0000
0100
0000
0000
0010
,
0200
0000
0300
0000
,
0010
0000
0010
0000
,
0001
0000
0001
0010
,
0010
0100
0020
0000
,
0030
0100
0010
0100
,
0020
0000
0000
0030
,
0200
0000
0000
0300
,
2000
0000
0000
0000
,
0000
0000
3000
0000
,
0002
0000
0000
0000
,
0003
1001
0100
0010
,
0000
0010
0001
0010
,
0000
0100
1000
0010
,
0000
0100
1000
0100
,
0000
0010
0001
0010
,
0000
0100
1000
0100
,
0000
0010
0100
0010
,
0000
0010
0001
0000
,
0010
0000
0100
0001
,
0010
1000
0010
0000
,
0100
0000
0010
0100
,
0010
0001
0010
0000
,
0100
0000
2000
0000
,
0000
0000
0000
0000
,
0000
0000
0000
0000
,
3000
0000
0002
0000
,
0003
0000
0000
0000
0000
0000
0000
0000
0100
0000
0000
0000
0100
0000
0000
0100
,
0020
0000
0030
0001
1000
0000
1000
0001
,
2000
3000
0100
0020
,
0030
0100
0010
0100
0020
0000
0030
0001
,
0020
0030
0100
0000
,
0010
0000
0000
0100
0020
0000
0000
0000
,
0030
0000
0001
0100
0001
0000
0000
0000
,
0100
1000
0200
0300
,
0010
0100
0010
0000
0100
1000
0100
0000
,
0200
0000
0300
0100
,
0010
0100
0020
0000
,
0000
0030
0002
0000
,
0000
0003
0200
0000
,
0000
0000
0000
0300
,
0001
1000
0100
0010
,
0100
0010
0000
0100
,
0000
0001
0010
0100
,
1000
0100
0000
0010
,
0000
1000
0100
0010
,
0001
0010
0000
0100
,
0000
0010
0100
0010
,
0100
0001
0000
1000
,
0000
0000
0000
0000
0001
0000
0000
0010
0100
0000
0000
0010
0002
0000
0000
0000
,
0003
0010
0100
0000
0100
1000
0200
0300
,
1000
0100
1000
0000
0100
0010
0100
0000
0020
0000
0000
0000
0030
0000
0100
0000
,
0010
0001
0200
0000
0300
0010
0200
0000
,
0300
0220
0000
0000
,
0330
0000
0000
0000
;

//--------------- dance-single - Wrland ----------------
#NOTES:
     dance-single:
     Wrland:
     Easy:
     5:
     0,0,0,0,0:
0000
0000
0000
0000
,
0000
0000
0000
0000
,
0000
0000
0000
0000
,
0000
0000
0000
0000
,
0100
0000
0000
0100
1000
0000
0000
0100
,
2000
0000
3000
0100
,
0010
0000
0000
0100
0010
0000
0001
0000
,
2000
0000
3000
0000
0010
0100
0010
0000
,
0010
0100
0010
0000
2000
0000
0000
0000
,
3000
0100
1000
0100
,
0002
0000
0003
0010
,
0200
0000
0000
0300
,
2000
3000
0200
0300
,
1000
0000
1000
0000
0100
0000
0010
0000
0001
0000
0010
0000
,
0002
0000
0000
0003
,
0101
0110
1010
0100
,
0010
0100
0010
0010
,
0100
0010
0001
0100
,
1000
0100
1000
0010
,
0100
0010
0001
0100
,
0010
0100
1000
0100
,
0010
0100
0010
0001
,
0010
0100
1000
0100
,
0010
0200
0300
0110
,
1001
0110
1100
0110
,
0011
0110
1001
0110
,
1100
0101
1010
0101
,
0110
1001
0220
0000
,
0000
0000
0000
0000
,
0000
0330
2002
0000
,
0000
0000
0000
0000
,
0000
0000
0000
0000
3003
0000
0000
0000
0100
0000
0000
0010
0100
0000
0000
0010
,
0200
0000
0000
0000
0300
0000
0001
0000
0100
0000
0000
1000
0100
0000
0100
0000
,
0020
0000
0000
0000
0030
0000
0100
0000
1000
0000
0100
1000
0200
0000
0000
0000
,
0300
0010
0100
0010
0002
0000
0003
0010
,
0200
0000
0300
0000
0100
0000
0000
0010
,
0100
0000
0000
0010
0200
0000
0000
0000
,
0300
0000
0001
0100
0002
0000
0003
0000
,
1000
0100
2000
3000
,
0100
0010
0100
0000
0100
0000
1000
0000
,
0200
0000
0300
0100
,
0010
0100
0020
0000
,
0030
0001
2000
0000
,
0000
3000
0200
0300
,
0020
0030
0100
0010
,
0110
1000
0100
0010
,
0001
0010
0100
1000
,
0100
0010
0001
0010
,
0100
0000
0010
0000
0000
0100
0200
0000
,
0300
0001
1000
0001
,
1000
0100
0010
0100
,
0100
0010
0100
0000
0010
0000
0000
0000
0001
0000
0000
0000
0000
0000
0100
0000
,
0010
0100
2000
0000
3000
0100
0020
0000
,
0030
0100
0010
0200
,
0300
0000
1000
0000
0100
0000
0000
0010
0100
0000
0010
0000
0002
0000
0003
0000
,
0100
0010
0100
0000
1000
0100
1000
0000
0200
0000
0000
0000
0300
0000
0010
0000
,
0100
0010
0002
0000
0003
0010
0200
0000
,
0300
2002
0000
0000
,
3003
0000
0000
0000
;

//--------------- dance-single - Wrland ----------------
#NOTES:
     dance-single:
     Wrland:
     Medium:
     7:
     0,0,0,0,0:
0000
0000
0000
0000
,
0000
0000
0000
0000
,
0000
0000
0000
0000
,
0000
0000
0000
0000
,
0200
0000
0300
0010
0100
0000
0000
0100
,
0020
0000
0000
0000
0000
0030
0001
0010
,
0002
0000
0003
0010
0100
0000
1000
0000
,
0200
0000
0300
0000
1000
0100
1000
0000
,
0100
0010
0100
0000
0020
0000
0000
0000
,
0030
0001
0100
0001
0100
0001
0100
0000
,
0200
0000
0000
0000
0300
0000
0010
2001
,
0000
0000
0000
3000
,
1000
0010
1000
0010
,
1000
0000
0100
0000
0010
0000
0100
0000
0010
0000
0001
0000
,
0010
0100
0010
0100
0010
0100
0010
0100
0010
0100
0010
0100
,
0022
0000
0000
0033
0000
0000
2200
0000
0000
3300
0000
0000
0100
0010
0100
0010
0001
0010
2200
0000
0000
3300
0000
0000
,
0022
0000
0000
0033
0000
0000
0220
0000
0000
0330
0000
0000
1000
0100
1000
0100
1000
0100
0022
0000
0000
0033
0000
0000
,
0202
0000
0000
0303
0000
0000
0220
0000
0000
0330
0000
0000
0010
0100
0010
0100
0010
0100
0022
0000
0000
0033
0000
0000
,
2002
0000
0000
3003
0000
0000
0220
0000
0000
0330
0000
0000
0001
1000
0001
1000
1000
0001
0220
0000
0000
0330
0000
0000
,
0022
0000
0000
0033
0000
0000
0220
0000
0000
0330
0000
0000
1000
0100
1000
0100
1000
0100
0022
0000
0000
0033
0000
0000
,
2200
0000
0000
3300
0000
0000
0202
0000
0000
0303
0000
0000
0010
0100
0010
0100
0010
0100
0022
0000
0000
0033
0000
0000
,
0220
0000
0000
0330
0000
0000
0202
0000
0000
0303
0000
0000
1000
0100
1000
0100
1000
0100
0022
0000
0000
0033
0000
0000
,
2020
0000
0000
3030
0000
0000
2200
0000
0000
3300
0000
0000
0001
0100
0001
0100
0001
0100
0022
0000
0000
0033
0000
0000
,
2200
3300
0220
0000
0330
0000
0220
0330
,
2002
0000
0000
3003
0000
0000
0220
0000
0000
0330
0000
0000
0100
0010
0100
0010
0100
0010
2002
0000
0000
3003
0000
0000
,
2200
0000
0000
3300
0000
0000
0022
0000
0000
0033
0000
0000
0100
0010
0100
0010
0100
0010
0220
0000
0000
0330
0000
0000
,
0022
0000
0000
0033
0000
0000
2200
0000
0000
3300
0000
0000
0100
1000
0100
1000
0100
1000
0220
0000
0000
0330
0000
0000
,
0022
0033
0202
0303
2002
0000
0000
0000
,
0000
0000
0000
0000
,
3003
0000
2200
0000
,
0000
3300
0220
0000
,
0000
0000
0000
0000
0330
0000
0000
0000
0200
0000
0300
0010
0200
0000
0300
0010
,
0002
0000
0000
0000
0003
0000
0001
0010
0200
0000
0300
1000
0100
0000
0100
0000
,
2000
0000
0000
0000
3000
0000
1000
0000
0100
0000
1000
0100
2000
0000
0000
0000
,
3000
0000
0100
0010
0100
0100
0010
0000
0002
0000
0000
0000
0003
0000
0100
0001
,
0020
0000
0000
0000
0030
0000
1000
0010
0200
0000
0000
0000
0300
0000
0001
0000
,
0020
0000
0030
0100
0020
0000
0000
0000
,
0030
0000
0100
0010
0200
0000
0300
0100
,
1000
0200
0320
0030
,
0100
0010
0100
0000
1000
0010
0100
0001
,
2000
0000
0000
0000
3000
0100
0010
0100
,
0010
1000
0001
0000
0220
0000
0000
0000
,
0330
0000
0100
0010
0202
0000
0000
0000
,
0000
0303
0011
1100
,
0110
0011
0011
0110
,
2002
0000
0000
3003
0000
0000
0101
0010
0100
0010
0001
1000
0220
0000
0000
0330
0000
0000
0022
0000
0000
0033
0000
0000
,
2200
0000
0000
3300
0000
0000
0011
0010
0001
0010
0001
0010
2200
0000
0000
3300
0000
0000
0220
0000
0000
0330
0000
0000
,
0022
0000
0000
0033
0000
0000
0101
1000
0100
1000
0100
0010
0022
0000
0000
0033
0000
0000
2200
0000
0000
3300
0000
0000
,
0220
0000
0000
0330
0000
0000
1001
0100
0100
1000
0100
0010
0202
0000
0000
0303
0000
0000
2020
0000
0000
3030
0000
0000
,
0022
0000
0000
0033
0000
0000
1001
0100
0010
0100
1000
0100
0022
0000
0000
0033
0000
0000
2200
0000
0000
3300
0000
0000
,
0220
0000
0000
0330
0000
0000
0110
0010
0001
0010
0100
0010
2200
0000
0000
3300
0000
0000
0220
0000
0000
0330
0000
0000
,
0101
0000
1000
0000
0100
0000
0001
1000
0020
0000
0030
0000
0001
0000
0010
0100
,
0010
0001
0010
0000
0200
0000
0000
0000
0300
0000
0100
0000
0020
0000
0000
0000
,
0000
0000
0030
0000
0220
0000
0330
0100
0020
0000
0030
0001
0200
0000
0000
0000
,
0300
0000
0100
0010
0200
0000
0300
1000
0100
0000
1000
0000
0200
0000
0300
0000
,
0100
0010
0100
0000
0010
0001
0100
0000
0002
0000
0000
0000
0003
0010
0100
0010
,
0100
0010
0001
0000
0200
0000
0000
0000
0300
0000
1000
0000
0200
0000
0000
0000
,
0000
0300
2002
0000
0000
0000
0000
0000
,
3003
0000
0000
0000
;

//--------------- dance-single - Wrland ----------------
#NOTES:
     dance-single:
     Wrland:
     Hard:
     13:
     0,0,0,0,0:
0000
0000
0000
0000
,
0000
0000
0000
0000
,
0000
0000
0000
0000
,
0000
0000
0000
0000
0000
0000
0000
0000
0000
0000
0000
0000
0000
0000
0001
0010
,
0200
0000
0300
1000
0200
0000
0300
0001
,
0020
0000
0000
0000
0030
0000
0100
0010
,
0200
0000
0300
0010
0200
0300
0020
0030
,
0002
0000
0000
0003
0010
0100
0020
0030
,
1000
0100
2000
3000
0200
0000
0000
0000
,
0300
0100
0010
0100
0010
0001
0200
0300
,
2002
0000
0000
0000
3003
0000
1000
0100
,
2200
0000
3300
0000
0200
0000
0300
0000
0010
0100
0010
0001
0200
0000
0300
0000
,
1010
1100
0110
0011
,
0100
0000
0010
0000
0100
0000
0010
0000
0001
0000
0100
0000
,
0010
0100
0010
0100
0010
0001
0100
0010
0100
1000
0100
0010
,
1101
0000
0000
0000
0000
0000
0111
0000
0000
0000
0000
0000
1010
0100
0010
0001
0100
0000
0010
0100
0010
0001
0100
0000
,
1000
0100
0010
0100
0010
0000
0001
0010
0100
0010
0100
0000
0100
1000
0100
0010
0001
0000
0100
0010
0100
0010
0001
0000
,
0100
0010
0100
0010
0100
0010
0001
0100
0010
0100
0010
0100
0010
0001
0100
0010
0100
0000
0010
0100
1000
0100
0001
0000
,
0010
0100
0010
0001
0100
0000
0010
0100
0010
1000
0100
0000
0100
0010
0001
0100
0010
0000
0100
0010
0001
0100
1000
0000
,
0100
0010
0001
1000
0100
0001
0100
0010
0100
1000
0100
0010
0001
0010
0100
0010
0001
0000
0100
1000
0100
0010
0100
0000
,
0100
1000
0100
0001
0100
0000
0010
0100
0010
0100
0010
0000
0100
1000
0100
0001
0100
0000
0010
0100
0010
0001
0010
0000
,
0100
0010
0001
0010
0100
0010
0100
0010
0100
1000
0100
0010
0001
0010
0100
0010
0100
0000
1000
0100
0010
0001
0100
0000
,
0010
0100
0010
0001
0100
0000
0010
0001
0100
0010
0001
0000
1000
0100
0100
0010
0100
0000
0010
0001
0010
0100
0010
0000
,
0100
0010
0100
0010
0001
0100
0010
0001
0100
0010
0100
0010
1101
0000
0000
0000
0000
0000
0111
1000
0010
0100
0010
0000
,
0101
1000
0010
0100
0010
0000
0011
0100
0010
0001
0100
0000
1010
0100
0010
0100
0001
0000
0110
1000
0010
0100
0010
0000
,
0101
0010
0100
0010
0001
0000
1100
0100
0010
0100
0010
0000
0110
0010
0100
0010
0001
0000
0011
0010
0100
0001
0010
0000
,
1100
0100
1000
0100
0010
0000
0110
0100
0010
0001
0010
0000
1100
0100
0010
0100
0010
0000
0001
0010
0100
0010
0001
0000
,
0100
0010
0100
0010
0001
0100
0010
1000
0100
0010
0001
0100
2002
0000
0000
0000
0000
0000
0000
0000
0000
0000
0000
0000
,
0000
0000
0000
0000
,
3003
0000
0220
0330
2200
0000
0000
0000
,
0000
0000
0000
3300
0220
0000
0000
0330
,
2002
0000
0000
0000
0000
0000
3003
0000
0220
0000
0330
0010
0200
0000
0300
0010
,
0002
0000
0000
0000
0003
0000
0100
0010
0200
0000
0300
1000
0200
0300
2000
3000
,
0200
0000
0000
0300
1000
0100
0020
0030
0100
0010
0100
0010
0002
0000
0000
0000
,
0003
0100
0010
0100
0010
0001
0020
0030
0200
0000
0000
0000
0000
0300
1000
0001
,
0200
0000
0000
0000
0000
0000
0000
0300
0020
0000
0000
0000
0030
0000
0010
0000
,
0200
0000
0000
0000
0000
0300
0001
0000
0200
0000
0000
0000
0000
0000
0000
0000
,
0000
0300
0010
0100
0020
0000
0030
0001
,
0200
0300
2000
3000
0200
0000
0000
0300
,
1000
0100
2000
3000
0100
0010
0002
0003
,
0200
0000
0000
0000
0300
0100
0010
0100
,
0010
1000
0200
0300
0002
0000
0000
0000
,
0000
0003
1000
0100
0020
0000
0000
0000
,
0000
0000
0000
0030
1100
0000
1010
0000
,
0011
0000
0000
0000
1001
0000
0000
0000
0100
0010
0001
0100
0010
0001
0100
0010
,
1011
0000
0000
0000
0000
0000
1010
0100
0010
0001
0100
0000
1001
0010
0100
0010
0001
0000
0101
0010
0100
0010
0001
0000
,
0110
0100
1000
0100
0010
0001
0110
0010
0100
1000
0010
0000
1100
0100
0010
0001
0100
0000
0011
0100
0010
0100
1000
0000
,
0011
1000
0100
0010
0100
0010
1001
0010
0100
0010
0100
0000
1100
0010
0100
0010
0001
0000
0110
0100
0010
0001
0010
0000
,
1100
0100
0010
0100
0010
0100
0011
0001
0010
0100
0010
0001
0110
0100
1000
0100
0010
0001
0110
0010
0100
0010
0001
0100
,
1100
0010
0100
0010
0001
0010
0101
0010
0100
0010
0100
0000
1100
0100
0010
0100
0010
0000
0011
0010
0100
0010
0100
0000
,
1100
0100
0010
0100
0010
0001
0110
0010
0001
0010
0100
0000
0011
0001
0010
0100
0010
0000
1100
0100
0010
0100
0010
0000
,
0011
0010
0100
0010
0100
0010
1001
0100
0010
0100
0010
0000
0011
0100
0010
0100
0010
0000
1100
0010
0100
0010
0001
0000
,
0110
0001
0010
0100
0010
0001
0011
0100
0010
0001
0010
0100
1010
0100
0010
0001
0100
0010
0101
0010
0100
1000
0100
0010
,
0101
0000
0010
0000
0100
0000
1000
0000
0100
0000
0010
0000
0212
0000
0000
0000
0000
0000
0303
0000
0000
0100
0000
0000
0020
0000
0000
0000
0000
0000
0030
0000
0000
0001
0000
0000
0200
0000
0000
0000
0000
0000
0000
0000
0000
0000
0000
0000
,
0000
0300
1000
0100
2000
0000
3000
0100
0020
0030
0002
0003
0200
0000
0000
0300
,
0010
0100
0020
0030
0001
0010
0002
0003
0002
0000
0000
0000
0003
0001
0010
0100
,
1000
0100
0020
0030
0002
0000
0000
0000
0000
0003
0100
0010
0200
0000
0000
0300
,
0100
0000
0000
0000
0000
0000
0000
0000
0000
0000
0000
0000
0010
0000
0000
0000
0000
0000
0000
0000
0000
0000
0000
0000
1000
0000
0000
0000
0000
0000
0000
0000
0000
0000
0000
0000
0010
0000
0000
0000
0000
0000
0000
0000
0000
0000
0000
0000
2MM2
0000
0000
0000
0000
0000
0000
0000
0000
0000
0MM0
0000
0000
0000
0000
0000
0000
0000
0000
0MM0
0000
0000
0000
0000
0000
0000
0000
0000
0000
0MM0
0000
0000
0000
0000
0000
0000
0000
0000
0MM0
0000
0000
0000
0000
0000
0000
0000
0000
0000
0MM0
0000
0000
0000
0000
0000
0000
0000
0000
0000
0MM0
0000
0000
0000
0000
0000
0000
0000
0000
0MM0
0000
0000
0000
0000
0000
0000
0000
0000
0000
0MM0
0000
0000
0000
0000
0000
0000
0000
0000
0MM0
0000
0000
0000
0000
0000
0000
0000
0000
0000
0MM0
0000
0000
0000
0000
0000
0000
0000
0000
0000
0MM0
0000
0000
0000
0000
0000
0000
0000
0000
0MM0
0000
0000
0000
0000
0000
0000
0000
0000
0000
0MM0
0000
0000
0000
0000
0000
0000
0000
0000
0MM0
0000
0000
0000
0000
0000
0000
0000
0000
0000
,
3MM3
0000
0000
0000
;
