#VERSION:0.83;
#TITLE:DUN DUN;
#SUBTITLE:;
#ARTIST:에버글로우;
#TITLETRANSLIT:;
#SUBTITLETRANSLIT:;
#ARTISTTRANSLIT:EVERGLOW;
#GENRE:K-Pop;
#ORIGIN:;
#TAGS:;
#CREDIT:;
#BANNER:DUN DUN.png;
#BACKGROUND:DUN DUN-bg.png;
#PREVIEWVID:;
#JACKET:DUN DUN-jacket.png;
#CDIMAGE:DUN DUN-cd.png;
#DISCIMAGE:;
#LYRICSPATH:;
#CDTITLE:Wrland Season 3 CITYGHT.png;
#MUSIC:DUN DUN.ogg;
#OFFSET:0.000000;
#SAMPLESTART:88.543999;
#SAMPLELENGTH:12.000000;
#SELECTABLE:YES;
#DISPLAYBPM:103.000000;
#BPMS:0.000000=103.000000
;
#STOPS:;
#DELAYS:;
#WARPS:;
#TIMESIGNATURES:0.000000=4=4
;
#TICKCOUNTS:0.000000=4
;
#COMBOS:0.000000=1
;
#SPEEDS:0.000000=1.000000=0.000000=0
;
#SCROLLS:0.000000=1.000000
;
#LABELS:0.000000=Song Start
;
#BGCHANGES:0.000=DUN DUN.avi=1.000=0=0=0=StretchNoLoop====,
99999.000=-nosongbg-=1.000=0=0=0=StretchNoLoop====,
99999=-nosongbg-=1.000=0=0=0 // don't automatically add -songbackground-
;
#KEYSOUNDS:;
#ATTACKS:
;

//---------------dance-single - ----------------
#NOTEDATA:;
#CHARTNAME:;
#CHARTHASH:3426292029;
#STEPSTYPE:dance-single;
#BANNER:;
#DESCRIPTION:;
#CHARTSTYLE:;
#DIFFICULTY:Beginner;
#METER:1;
#METERF:0.000000;
#LASTSECONDHINT:130.485428;
#RADARVALUES:0.025832,0.063288,0.007534,0.000000,0.000000,24.000000,23.000000,1.000000,0.000000,0.000000,0.000000,0.000000,0.000000,0.000000,0.025832,0.063288,0.007534,0.000000,0.000000,24.000000,23.000000,1.000000,0.000000,0.000000,0.000000,0.000000,0.000000,0.000000;
#CREDIT:;
#DISPLAYBPM:103.000000;
#NOTES:
0000
0000
0000
0000
,
0000
0000
0000
0000
,
0000
0000
0000
0000
,
0000
0000
0000
0000
,
0000
0000
0000
0000
,
0000
0000
0000
0000
,
0000
0000
0000
0000
,
0000
0000
0000
0000
,
0010
0000
0000
0000
,
0000
0000
0000
0000
,
0100
0000
0000
0000
,
0000
0000
0000
0000
,
0010
0000
0000
0000
,
0000
0000
0000
0000
,
0001
0000
0000
0000
,
0000
0000
0000
0000
,
0010
0000
0000
0000
,
0000
0000
0000
0000
,
0001
0000
0000
0000
,
0000
0000
0000
0000
,
0000
0000
0000
0000
,
0000
0000
0000
0000
,
0100
0000
0000
0000
,
0000
0000
0000
0000
,
1000
0000
0000
0000
,
0000
0000
0000
0000
,
0100
0000
0000
0000
,
0000
0000
0000
0000
,
0010
0000
0000
0000
,
0000
0000
0000
0000
,
0100
0000
0000
0000
,
0000
0000
0000
0000
,
0001
0000
0000
0000
,
0000
0000
0000
0000
,
0010
0000
0000
0000
,
0000
0000
0000
0000
,
0001
0000
0000
0000
,
0000
0000
0000
0000
,
0000
0000
0000
0000
,
0000
0000
0000
0000
,
0010
0000
0000
0000
,
0000
0000
0000
0000
,
0100
0000
0000
0000
,
0000
0000
0000
0000
,
1000
0000
0000
0000
,
0000
0000
0000
0000
,
0100
0000
0000
0000
,
0000
0000
0000
0000
,
0010
0000
0000
0000
,
0000
0000
0000
0000
,
0001
0000
0000
0000
,
0000
0000
0000
0000
,
0010
0000
0000
0000
,
0000
0000
0000
0000
,
0001
0000
0000
0000
,
0000
0000
0000
0000
,
1001
0000
0000
0000
;

//---------------dance-single - ----------------
#NOTEDATA:;
#CHARTNAME:;
#CHARTHASH:3687984364;
#STEPSTYPE:dance-single;
#BANNER:;
#DESCRIPTION:;
#CHARTSTYLE:;
#DIFFICULTY:Easy;
#METER:2;
#METERF:0.000000;
#LASTSECONDHINT:130.485428;
#RADARVALUES:0.068885,0.126577,0.113015,0.000000,0.000000,64.000000,49.000000,15.000000,0.000000,0.000000,0.000000,0.000000,0.000000,0.000000,0.068885,0.126577,0.113015,0.000000,0.000000,64.000000,49.000000,15.000000,0.000000,0.000000,0.000000,0.000000,0.000000,0.000000;
#CREDIT:;
#DISPLAYBPM:103.000000;
#NOTES:
// measure 0
0000
0000
0000
0000
,  // measure 1
0000
0000
0000
0000
,  // measure 2
0000
0000
0000
0000
,  // measure 3
0000
0000
0000
0000
,  // measure 4
0000
0000
0000
0000
,  // measure 5
0000
0000
0000
0000
,  // measure 6
0000
0000
0000
0000
,  // measure 7
0000
0000
0000
0000
,  // measure 8
0100
0000
0000
0000
,  // measure 9
0100
0000
0000
0000
,  // measure 10
0010
0000
0000
0000
,  // measure 11
0010
0000
0000
0000
,  // measure 12
0001
0000
0000
0000
,  // measure 13
0010
0000
0000
0000
,  // measure 14
0100
0000
0000
0000
,  // measure 15
1000
0000
0000
0000
,  // measure 16
0100
0000
0000
0000
,  // measure 17
1000
0000
0000
0000
,  // measure 18
0100
0000
0000
0000
,  // measure 19
0010
0000
0000
0000
,  // measure 20
0000
0000
0000
0000
,  // measure 21
0000
0000
0000
0000
0000
0000
1000
0001
,  // measure 22
1001
0000
0000
0000
,  // measure 23
0110
0000
0000
0000
,  // measure 24
1100
0000
0000
0000
,  // measure 25
0101
0000
0000
0000
,  // measure 26
0010
0000
0000
0000
,  // measure 27
0100
0000
0000
0000
,  // measure 28
0011
0000
0000
0000
,  // measure 29
1100
0000
0000
0000
,  // measure 30
0010
0000
0000
0000
,  // measure 31
0100
0000
0000
0000
,  // measure 32
0010
0000
0000
0000
,  // measure 33
0001
0000
0000
0000
,  // measure 34
0010
0000
0000
0000
,  // measure 35
0100
0000
0000
0000
,  // measure 36
1000
0000
0000
0000
,  // measure 37
0100
0000
0000
0000
,  // measure 38
0000
0000
0000
0000
,  // measure 39
0000
0000
0000
0000
0000
0000
0100
0010
,  // measure 40
0101
0000
0000
0000
,  // measure 41
1010
0000
0000
0000
,  // measure 42
0110
0000
0000
0000
,  // measure 43
1001
0000
0000
0000
,  // measure 44
1100
0000
0000
0000
,  // measure 45
0110
0000
0000
0000
,  // measure 46
0101
0000
0000
0000
,  // measure 47
0110
0000
0000
0000
,  // measure 48
0100
0000
0000
0000
,  // measure 49
0001
0000
0000
0000
,  // measure 50
0010
0000
0000
0000
,  // measure 51
0100
0000
0000
0000
,  // measure 52
0010
0000
0000
0000
,  // measure 53
0100
0000
0000
0000
,  // measure 54
0001
0000
0000
0000
,  // measure 55
1000
0000
0000
0000
,  // measure 56
1001
0000
0000
0000
;

//---------------dance-single - ----------------
#NOTEDATA:;
#CHARTNAME:;
#CHARTHASH:3204399476;
#STEPSTYPE:dance-single;
#BANNER:;
#DESCRIPTION:;
#CHARTSTYLE:;
#DIFFICULTY:Medium;
#METER:6;
#METERF:0.000000;
#LASTSECONDHINT:129.902908;
#RADARVALUES:0.261548,0.441040,0.075343,0.060275,0.124316,243.000000,233.000000,10.000000,8.000000,0.000000,0.000000,0.000000,0.000000,0.000000,0.261548,0.441040,0.075343,0.060275,0.124316,243.000000,233.000000,10.000000,8.000000,0.000000,0.000000,0.000000,0.000000,0.000000;
#CREDIT:;
#DISPLAYBPM:103.000000;
#NOTES:
0000
0000
0000
0000
,
0000
0000
0000
0000
,
0000
0000
0000
0000
,
0000
0000
0000
0000
,
0000
0000
0000
0000
,
0000
0000
0000
0000
,
0000
0000
0000
0000
,
0000
0000
0000
0000
,
0100
0100
0100
0010
,
0001
0001
0010
0100
,
0100
1000
0100
1000
,
1000
0100
1000
0100
,
0100
0010
0100
0100
,
0100
0010
0100
0010
0100
0010
0001
0000
,
0100
1000
0100
0010
,
0010
0001
0100
0010
,
1000
0000
0100
0000
1000
1000
0100
0000
,
0100
0010
0100
0010
0100
0010
0100
0000
,
0001
0000
0000
0000
0100
0000
0000
0000
0010
0000
0000
0100
0000
0000
0100
0000
,
0010
0100
0010
0100
,
0100
0000
0000
0100
0000
1000
0100
0000
1000
0000
0000
1000
0000
0100
1000
0000
,
1000
0000
0000
1000
0000
0100
1000
0100
2000
0000
3000
0000
1001
0000
1001
0000
,
1001
0100
0010
0100
,
0010
0000
0000
0100
0000
0010
0100
0010
0200
0000
0300
0000
0100
0000
0000
0000
,
0010
0001
0010
0100
,
1000
0000
0000
0100
0000
1000
0100
1000
0200
0000
0300
0000
0010
0000
0000
0000
,
0100
0100
0100
0010
,
0001
0010
0100
1000
,
1000
0100
0010
0001
,
0100
0010
0000
0000
0100
0010
0000
0000
0100
0010
0000
0000
0110
0000
0000
0000
,
0010
0100
0010
0100
,
1000
1000
2000
3000
,
0100
0100
0100
0100
,
0010
0100
0010
0001
,
0010
0010
0100
0010
,
0100
0010
0100
1000
,
0100
1000
0100
1000
,
0100
0001
0010
0100
,
1000
0000
0000
0100
0000
0010
0100
0000
0010
0000
0000
0100
0000
0010
0100
0000
,
0010
0000
0000
0010
0000
0001
0010
0001
0220
0000
0330
0000
0110
0000
0110
0000
,
0110
0100
1000
0100
,
0010
0000
0000
0001
0000
0010
0100
1000
0200
0000
0300
0000
0100
0000
0000
0000
,
0010
0001
0100
0010
,
0100
0000
0000
1000
0000
0100
0010
0001
0020
0000
0030
0000
0100
0000
0000
0000
,
0010
0100
0010
0001
,
0010
0100
1000
0100
,
0100
0010
0100
0010
,
0100
0010
0000
0000
0010
0100
0000
0000
0001
0010
0000
0000
1001
0000
0000
0000
,
0100
0010
0100
0010
,
0001
0010
0100
1000
,
0100
1000
0100
1000
,
0100
0010
0001
0010
,
0100
0010
0100
0010
,
0100
0010
0001
0010
,
0100
1000
0100
0010
,
0100
0010
0100
0110
;

//---------------dance-single - ----------------
#NOTEDATA:;
#CHARTNAME:;
#CHARTHASH:895303090;
#STEPSTYPE:dance-single;
#BANNER:;
#DESCRIPTION:;
#CHARTSTYLE:;
#DIFFICULTY:Hard;
#METER:10;
#METERF:0.000000;
#LASTSECONDHINT:130.485428;
#RADARVALUES:0.531708,0.675075,0.301373,0.271235,0.617814,494.000000,454.000000,40.000000,36.000000,0.000000,0.000000,0.000000,0.000000,0.000000,0.531708,0.675075,0.301373,0.271235,0.617814,494.000000,454.000000,40.000000,36.000000,0.000000,0.000000,0.000000,0.000000,0.000000;
#CREDIT:;
#DISPLAYBPM:103.000000;
#NOTES:
0000
0000
0000
0000
,
0000
0000
0000
0000
,
0000
0000
0000
0000
0000
0000
0000
0000
0000
0000
0000
0000
0000
0000
0100
0010
,
0100
0000
0100
0010
0100
0000
0010
0100
0010
0000
0100
0010
0101
0000
1100
0000
,
0110
0000
0010
0100
0010
0100
0010
0000
0100
0000
0020
0000
0030
0000
0100
0000
,
0020
0000
0030
0000
0000
0000
1000
0000
0010
0000
0100
0010
0100
0000
1000
0000
,
0100
0000
0010
0100
0010
0100
0010
0000
0001
0000
0200
0000
0300
0000
0010
0000
,
0200
0300
0000
0010
0001
0001
0100
1000
,
0100
0010
0000
0000
0100
0010
0000
0000
0001
0100
0000
0000
0010
0000
0100
0000
,
1000
0000
1000
0000
0000
0100
0000
0000
0010
0000
0100
0000
0020
0000
0030
0000
,
0100
0000
0010
0000
0100
0000
0010
0000
0001
0000
1000
0000
0100
0000
0010
0000
0001
0000
0200
0000
0000
0300
0000
0000
,
0010
0000
0100
0010
0100
0010
0100
0000
0010
0001
0010
0000
0001
0000
0100
0000
,
0020
0000
0030
0000
0200
0000
0300
0000
1000
0000
0001
0000
2000
0000
3000
0010
,
0100
0000
0010
0000
0100
0010
0000
0100
0001
0000
0010
0000
0200
0000
0300
0000
,
2000
0000
3000
0000
0100
0000
0000
1000
0100
0000
0010
0000
0200
0000
0300
0000
,
0011
0000
0000
0110
0000
0000
1100
0000
0000
0110
0000
0000
0011
0000
0110
0000
,
0220
0000
0330
0000
0100
0000
0000
0100
1000
0000
0100
0000
0020
0000
0030
0010
,
0100
0000
0010
0000
0100
0010
0000
0100
0010
0000
0100
0000
1000
0000
0011
0000
,
1100
0000
0011
0000
1001
0000
1010
0101
,
1000
0001
1000
0001
1000
0001
1000
0001
1000
0001
1000
0001
1000
0001
1000
0001
1000
0000
0000
0000
0000
0000
0000
0000
0100
0000
0000
0000
0010
0000
0000
0000
,
0100
0000
0000
0100
0000
0010
0100
0000
0100
0000
0000
0100
0000
0100
0010
0000
,
0100
0000
0000
0100
0000
0010
0100
0010
0200
0000
0300
0000
0001
0000
0010
0000
,
0100
0000
0000
0010
0000
0000
0100
0000
0010
0000
0000
0100
0000
0000
0010
0000
,
0100
0000
0000
1000
0000
1000
0100
1000
0200
0000
0300
0000
0010
0000
0100
0000
,
0010
0000
0000
0001
0000
0000
0010
0000
0100
0000
0000
0100
0000
0000
0010
0000
,
0100
0000
0000
0100
0000
0010
0100
0010
0200
0000
0300
0000
0100
0000
1000
0000
,
0100
0000
0010
0000
0100
0000
0010
0000
0100
0000
1000
0000
0200
0000
0000
0300
0000
0000
0011
0000
0000
1000
0000
0000
,
0100
0000
0010
0000
0100
0000
0010
0000
0100
0000
0010
0000
0002
0000
0000
0003
0000
0000
0110
0000
0000
0001
0000
0000
,
0110
0000
0000
0100
0000
1000
0100
0000
1000
0000
0000
0100
0000
0010
0100
0000
,
0010
0100
0000
0000
0010
0100
0000
0000
0010
0100
0000
0000
0101
0000
0010
0000
,
0100
0000
0000
0100
0000
0000
1000
0000
0100
0000
0000
1000
0000
0000
0100
0000
,
1000
0000
0000
0100
0000
1000
0100
1000
0200
0000
0000
0000
0300
0000
0100
0000
,
0010
0000
0000
0100
0000
0000
0010
0000
0001
0000
0000
0100
0000
0000
0010
0000
,
0100
0000
0000
0010
0000
0100
0010
0100
0020
0000
0030
0000
0010
0000
0100
0000
,
0010
0000
0001
0010
0000
0100
0010
0100
0010
0000
0100
0000
0010
0000
0100
0000
,
1000
0000
0100
1000
0000
0100
1000
0100
1000
0000
0100
0000
0010
0000
0100
0000
,
0010
0000
0100
0010
0000
0001
0100
0010
0100
0000
0010
0000
0100
0000
0010
0000
,
0100
0000
0010
0000
0100
0000
1000
0000
0100
0000
0020
0000
0000
0000
0030
0000
0000
0000
0001
0000
0000
1000
0000
0000
,
0001
0000
0000
0100
0000
0010
0100
0000
1000
0000
0000
0100
0000
0010
0001
0000
,
0010
0000
0000
0100
0000
0010
0100
0010
0200
0000
0300
0000
0110
0000
1001
0000
,
0110
0000
0000
1000
0000
0010
0100
0000
0010
0000
0000
0100
0000
0010
0100
0000
,
0010
0000
0000
0001
0000
0100
0001
0100
0002
0000
0003
0000
1001
0000
0110
0000
,
1010
0000
0000
0001
0000
0100
0001
0000
0100
0000
0000
0010
0000
1000
0010
0000
,
1000
0000
0000
0010
0000
0100
0010
0100
0020
0000
0030
0000
1001
0000
0110
0000
,
1000
0000
0100
0000
0010
0000
0100
0000
0010
0000
0100
0000
0020
0000
0000
0030
0000
0000
0011
0000
0000
1100
0000
0000
,
0011
0000
0100
0000
0010
0000
0100
0000
1000
0000
0100
0000
0022
0000
0000
0033
0000
0000
0011
0000
0000
1100
0000
0000
,
0011
0000
0000
0100
0000
0010
0100
0000
0100
0000
0000
1000
0000
0100
1000
0000
,
0100
1000
0000
0000
0100
0010
0000
0000
0100
0010
0000
0000
0202
0000
0303
0000
,
0100
0000
0010
0100
0010
0100
0010
0000
0100
0010
0100
0000
0010
0000
0001
0100
,
0010
0000
0100
0010
0100
0010
1000
0100
0020
0000
0030
0000
0100
0000
0010
0000
,
0100
0000
0010
0100
0010
0100
0010
0000
0100
0010
0100
0000
0100
0000
1000
0010
,
0100
0000
1000
0100
1000
0100
1000
0100
2000
0000
3000
0000
0100
0000
0010
0000
,
0001
0000
0100
0010
0100
0010
0100
0000
0100
0010
0100
0000
0010
0000
0100
0010
,
0001
0000
0001
0010
0001
0010
0001
0010
0200
0000
0300
0000
0101
0000
1010
0000
,
1100
0000
0010
0100
0010
0100
0010
0000
0100
0001
0100
0000
0010
0000
0100
1000
,
0100
0010
0000
0000
0100
0010
0000
0000
0100
0010
0000
0000
2002
0000
0000
0000
,
3003
0000
0000
0000
;
