#VERSION:0.83;
#TITLE:DUET;
#SUBTITLE:;
#ARTIST:SKYTREE;
#TITLETRANSLIT:;
#SUBTITLETRANSLIT:;
#ARTISTTRANSLIT:;
#GENRE:J-Pop;
#CREDIT:Wrland;
#MUSIC:DUET.ogg;
#BANNER:DUET.png;
#BACKGROUND:DUET-bg.png;
#CDTITLE:Wrland Season 3 CITYGHT + last one night.png;
#SAMPLESTART:67.655;
#SAMPLELENGTH:12.000;
#SELECTABLE:YES;
#OFFSET:-21.425;
#BPMS:0.000=122.000;
#STOPS:;
#DISPLAYBPM:122.000;
#JACKET:DUET-jacket.png;
#CDIMAGE:DUET-cd.png;
#METERTYPE:DDR X;
#BGCHANGES:;
#FGCHANGES:;

//--------------- dance-single - Wrland ----------------
#NOTEDATA:;
#STEPSTYPE:dance-single;
#DESCRIPTION:Wrland;
#DIFFICULTY:Beginner;
#METER:1;
#RADARVALUES:0,0,0,0,0;
#NOTES:
0000
0000
0000
0000
,
0000
0000
0000
0000
,
0000
0000
0000
0000
,
0000
0000
0000
0000
,
0000
0000
0000
0000
,
0000
0000
0000
0000
,
0000
0000
0000
0000
,
0000
0000
0000
0000
,
0100
0000
0000
0000
,
0000
0000
0000
0000
,
0100
0000
0000
0000
,
0000
0000
0000
0000
,
0010
0000
0000
0000
,
0000
0000
0000
0000
,
0001
0000
0000
0000
,
0000
0000
0000
0000
,
1000
0000
0000
0000
,
0000
0000
0000
0000
,
0100
0000
0000
0000
,
0000
0000
0000
0000
,
0010
0000
0000
0000
,
0000
0000
0000
0000
,
0200
0000
0000
0000
,
0000
0300
0000
0000
,
1000
0000
1000
0000
,
1000
0000
0000
0000
,
0100
0000
0100
0000
,
0100
0000
0000
0000
,
0010
0000
0010
0000
,
0010
0000
0000
0000
,
0001
0000
0001
0000
,
0001
0000
0000
0000
,
0001
0000
1000
0000
,
0001
0000
0000
0000
,
0100
0000
1000
0000
,
0100
0000
0000
0000
,
1000
0000
0100
0000
,
0010
0000
0000
0000
,
0100
0000
0100
0000
,
1000
0000
0000
0000
,
0010
0000
0000
0000
,
0000
0000
0000
0000
,
1000
0000
0000
0000
,
0000
0000
0000
0000
,
0100
0000
0000
0000
,
0000
0000
0000
0000
,
0100
0000
0000
0000
,
0000
0000
0000
0000
,
0220
0000
0000
0000
,
0000
0000
0000
0000
,
0000
0000
0000
0000
,
0000
0000
0000
0000
,
0330
0000
0000
0000
;

//--------------- dance-single - Wrland ----------------
#NOTEDATA:;
#STEPSTYPE:dance-single;
#DESCRIPTION:Wrland;
#DIFFICULTY:Easy;
#METER:3;
#RADARVALUES:0,0,0,0,0;
#NOTES:
0000
0000
0000
0000
,
0000
0000
0000
0000
,
0000
0000
0000
0000
,
0000
0000
0000
0000
,
0000
0000
0000
0000
,
0000
0000
0000
0000
,
0000
0000
0000
0000
,
0000
0000
0000
0000
,
0100
0000
0000
0000
,
0100
0000
0000
0000
,
1000
0000
0000
0000
,
0100
0000
0000
0000
,
0010
0000
0000
0000
,
0001
0000
0000
0000
,
0100
0000
0000
0000
,
1000
0000
0000
0000
,
0100
0000
0000
0000
,
0100
0000
0000
0000
,
0010
0000
0000
0000
,
0010
0000
0000
0000
,
0001
0000
0000
0000
,
1000
0000
0000
0000
,
0200
0000
0000
0000
,
0310
0000
0100
0010
,
0100
0000
0000
0000
,
1000
0000
1000
0100
,
1000
0000
0000
0000
,
0100
0000
0000
0010
,
0100
0000
0000
0010
,
0001
0000
0000
0000
0000
0000
0100
1000
,
0100
0000
0100
0010
,
0110
0000
0010
0100
,
1000
0000
0000
0000
,
0100
0000
0010
1000
,
0001
0000
0000
0000
,
0100
0000
0000
0000
,
0010
0100
0010
0000
,
0001
0000
1000
0001
1000
0000
0100
0000
,
0010
0000
0100
0000
,
1100
0000
0110
0000
,
0010
0000
0000
0000
,
0100
0000
0000
0000
,
1000
0000
0000
0000
,
0001
0000
0000
0000
,
0100
0000
0000
0000
,
0010
0000
0000
0000
,
0100
0000
0000
0000
,
1000
0000
0000
0000
,
2002
0000
0000
0000
,
0000
0000
0000
0000
,
0000
0000
0000
0000
,
0000
0000
0000
0000
,
3003
0000
0000
0000
;

//--------------- dance-single - Wrland ----------------
#NOTEDATA:;
#STEPSTYPE:dance-single;
#DESCRIPTION:Wrland;
#DIFFICULTY:Medium;
#METER:7;
#RADARVALUES:0,0,0,0,0;
#NOTES:
0000
0000
0000
0000
,
0000
0000
0000
0000
,
0000
0000
0000
0000
,
0000
0000
0000
0000
,
0000
0000
0000
0000
,
0000
0000
0000
0000
,
0000
0000
0000
0000
,
0000
0000
0000
0000
,
1000
0100
1000
0100
,
0010
0000
0000
0100
0000
0000
0020
0000
0030
0000
0001
0000
0010
0000
0100
0000
,
0010
0100
1000
0100
,
0010
0000
0000
0100
0000
0000
0010
0000
0000
0000
0010
0000
0200
0000
0300
0000
,
0010
0001
0010
0100
,
1000
0000
0000
0100
0000
0000
2000
0000
0000
0000
0000
0000
3000
0000
0000
0000
,
0100
0000
0010
0000
0001
0000
0010
0100
,
0020
0030
0220
0330
,
0001
1000
0001
1000
0000
0100
1000
0000
,
0100
0010
0001
0100
0000
0010
0200
0000
,
0300
0000
0000
0000
0100
0000
1000
0100
0000
0000
0010
0000
0100
0000
0010
0000
,
0100
0000
0000
0010
0000
0000
0100
0000
0010
0000
0000
0000
0001
0000
0000
0000
,
0010
0100
1000
0100
0000
0010
0100
0000
,
0010
0001
0100
0010
0000
1000
0100
0000
,
1000
0100
0010
0001
0010
0100
0010
0100
,
0220
0000
0330
0000
1000
0100
1000
0100
,
0220
0330
0020
0030
0001
0010
0100
1000
,
0100
0000
0000
1000
0000
0000
0100
0000
2000
0000
0000
0000
3000
0000
0000
0000
,
0200
0300
0020
0030
0001
0100
0010
0100
,
1000
0000
0000
0100
0000
0000
1000
0000
0200
0000
0000
0000
0300
0000
0000
0000
,
0020
0000
0000
0030
0002
0000
0000
0003
0020
0000
0000
0000
0030
0000
0000
0000
,
0200
0000
0000
0300
2000
0000
0000
3000
0200
0000
0300
0000
1000
0000
1000
0000
,
2200
0000
3300
0010
0010
0000
0011
0000
,
0220
0000
0330
0000
0100
0010
0001
0100
,
0020
0000
0000
0030
2000
0000
3000
0000
0200
0000
0300
0000
2000
0000
3000
0000
,
0100
0000
0000
0010
0000
0000
0100
0000
0020
0000
0000
0000
0030
0000
0000
0000
,
0001
0010
0100
0010
,
0100
0000
0000
1000
0000
0000
0100
0000
2000
0000
0000
0000
3000
0000
0000
0000
,
2000
3000
2020
3030
0200
0000
0300
0000
,
0002
0000
0000
0003
0202
0000
0000
0303
0020
0000
0000
0030
0100
0000
0010
0000
,
0200
0000
0000
0000
0300
0000
1000
0000
0200
0000
0000
0300
0020
0000
0030
0000
,
2002
0000
0000
3003
,
0100
0000
1000
0100
0000
0010
0000
0000
,
0100
0000
0010
0001
0000
0010
0000
0000
,
0100
0000
1000
0100
0000
0010
0000
0000
,
0100
0000
1000
0100
0000
0010
0000
0000
,
0100
0010
0100
0010
0000
0001
0000
0000
,
0001
0010
0001
0010
0000
0100
0000
0000
,
1000
0100
1000
0100
,
0220
0330
2002
3003
,
2002
0000
0000
0000
,
0000
0000
0000
0000
,
0000
0000
0000
0000
,
0000
0000
0000
0000
,
3003
0000
0000
0000
;

//--------------- dance-single - Wrland ----------------
#NOTEDATA:;
#STEPSTYPE:dance-single;
#DESCRIPTION:Wrland;
#DIFFICULTY:Hard;
#METER:9;
#RADARVALUES:0,0,0,0,0;
#NOTES:
0000
0000
0000
0000
,
0000
0000
0000
0000
,
0000
0000
0000
0000
,
0000
0000
0000
0000
,
1000
0000
0001
0000
1000
0000
0002
0000
0000
0003
0100
0000
0020
0000
0030
0000
,
1000
0000
0100
0000
1000
0000
0200
0000
0300
0000
0010
0000
0200
0000
0000
0300
,
0002
0000
0000
0003
0200
0000
0000
0300
0020
0000
0000
0030
0200
0000
0300
0000
,
1000
0100
0010
0001
0010
0100
1000
0200
,
0000
0300
0000
0000
0100
0000
0100
0010
0000
0000
0100
0000
0010
0000
0001
0000
,
0200
0000
0300
0020
0000
0030
0200
0000
0000
0300
1000
0000
0100
0000
1000
0000
,
0200
0000
0300
0020
0000
0030
0200
0000
0300
0000
0010
0000
0100
0000
0010
0000
,
0001
0000
1000
0020
0000
0030
0200
0000
0000
0300
0010
0000
0200
0000
0300
0000
,
1000
1000
0100
2000
3000
0100
0010
0001
,
0100
0010
0100
0020
0000
0000
0030
0000
,
2200
0000
0000
3300
0022
0000
0033
0000
0220
0000
0330
0000
2200
0000
3300
0000
,
0220
0330
2002
3003
,
0100
0010
0001
0200
0300
0010
0200
0300
,
1000
0100
1000
0200
0300
0010
0200
0000
,
0300
0000
0000
0000
0100
0000
0010
0100
0000
0000
0010
0000
0001
0000
0100
0000
,
0020
0030
0000
0100
0000
0000
0010
0000
0002
0000
0003
0000
0200
0000
0300
0000
,
1000
0100
1000
0200
0300
0010
0200
0300
,
0001
0100
0001
0200
0300
0010
0200
0000
,
0300
1000
0001
1000
0001
1000
0001
1000
,
2002
0000
0000
0000
3003
0000
0000
0000
0100
0000
1000
0000
0100
1000
0100
0010
,
0002
0000
0003
0000
0110
0000
0100
0010
0100
0000
0010
0000
0100
0000
1000
0000
,
0200
0000
0300
0002
0000
0003
0100
0000
0020
0000
0030
0000
0100
0000
1000
0100
,
2000
0000
3000
0000
0100
0000
0010
0000
0001
0000
0100
0000
0010
0100
0010
0000
,
2000
3000
0000
1100
0000
0000
0100
0000
0220
0330
0000
0000
0010
0000
0001
0000
,
0200
0000
0300
0000
0010
0000
0100
0000
2000
0000
0000
3000
0100
0000
0010
0000
,
0001
0100
0010
1000
0200
0300
1000
0001
,
2002
0000
3003
0100
1000
0100
0020
0030
,
0110
0000
0110
0000
0110
0000
1001
0000
1001
0000
0100
0000
0010
0000
0100
0010
,
0200
0000
0000
0300
0001
0000
0100
0000
0010
0000
1000
0000
0100
0000
1000
0000
,
0200
0300
0000
0100
0000
0000
1000
0000
0200
0000
0300
0000
1000
0000
0100
0000
,
0020
0030
0002
0003
0100
0010
0100
1000
,
0200
0000
0300
0010
0000
0000
0001
0000
0200
0000
0000
0000
0300
0000
0000
0000
,
2002
3003
0220
0330
2200
3300
0100
0010
,
0001
0000
0100
0000
0010
0000
0100
0000
2000
0000
0000
3000
0100
0000
0010
0000
,
0002
0000
0003
0100
0010
0100
0010
0001
,
2002
0000
0000
0000
0000
0000
0000
0000
0000
0000
0000
0000
0000
3003
0000
0000
,
0100
1000
0100
2000
3000
0100
0010
0001
,
0100
0010
0100
2000
3000
0100
0020
0030
,
0200
0300
0001
0100
0020
0030
0100
1000
,
0100
0000
0000
1000
0000
0000
0100
0000
0020
0000
0030
0000
0100
0000
0000
0000
,
0100
0010
0001
0200
0300
0010
0200
0300
,
1000
0100
0010
0002
0003
0100
0020
0030
,
0002
0003
2000
3000
0002
0003
2000
3000
,
1000
1100
0100
0110
0010
0011
0010
0110
,
2002
0000
0000
0000
,
0000
0000
0000
0000
,
0000
0000
0000
0000
,
0000
0000
0000
0000
,
3003
0000
0000
0000
;
