#TITLE:Como La Flor;
#SUBTITLE:;
#ARTIST:Selena;
#TITLETRANSLIT:;
#SUBTITLETRANSLIT:;
#ARTISTTRANSLIT:;
#GENRE:Tejano;
#CREDIT:Wrland;
#MUSIC:Como La Flor.ogg;
#BANNER:Como La Flor-vb.mp4;
#BACKGROUND:BG.png;
#LYRICSPATH:Como La Flor.lrc;
#PREVIEWVID:preview.mp4;
#CDTITLE:Entre a mi mundo.png;
#SAMPLESTART:56.839;
#SAMPLELENGTH:12.000;
#SELECTABLE:YES;
#OFFSET:0.000;
#BPMS:0.000=87.720
,7.000=91.064
,157.000=45.532
,158.000=37.532
,159.000=36.600
,160.000=38.532
,161.000=35.532
,162.000=38.532
,163.000=36.532
;
#STOPS:;
#DISPLAYBPM:91.000;
#METERTYPE:DDR X;
#JACKET:Como La Flor-jacket.png;
#CDIMAGE:Como La Flor-cd.png;
#BGCHANGES:0.000=Como La Flor.avi=0.000=0=0=0=StretchNoLoop====,
99999=-nosongbg-=1.000=0=0=0 // don't automatically add -songbackground-
;
#FGCHANGES:;

//--------------- dance-single - Wrland ----------------
#NOTES:
     dance-single:
     Wrland:
     Beginner:
     3:
     0,0,0,0,0:
0000
0000
0000
0000
,
0000
0000
0000
0000
,
0000
0000
0000
0000
,
0000
0000
0000
0000
,
0000
0000
0000
0000
,
0000
0000
0000
0000
,
0000
0000
0000
0000
,
0000
0000
0000
1000
,
0000
1000
0000
1000
,
0000
0000
0000
0001
,
0000
0001
0000
0001
,
0000
0000
0000
0010
,
0000
0100
0000
0010
,
0000
0000
0000
0100
,
0000
1000
0000
0100
,
0000
0000
0000
1000
,
0000
1000
0000
0100
,
0000
0010
0000
0001
,
0000
0010
0000
0100
,
0000
1000
0000
0100
,
0000
0010
0000
0100
,
0000
1000
0000
1000
,
0100
1000
0000
1100
,
0000
0000
0000
0100
,
0010
0001
0000
0101
,
0000
0100
0000
1000
,
0000
0100
0000
1000
,
0000
0100
0000
0010
,
0000
0001
0000
0010
,
0000
0100
0000
1000
,
0000
0100
0000
1000
,
0000
0100
0000
0010
,
0000
0100
0000
0100
,
0000
1000
0000
0100
,
0000
0010
0000
0001
,
0001
0001
0000
1001
,
0000
0000
0000
1000
,
1000
1000
0000
1001
,
0000
0000
0000
0100
,
0010
0100
0020
0030
,
2000
3000
0200
0300
,
0020
0000
0000
0000
,
0030
0000
0000
0000
;

//--------------- dance-single - Wrland ----------------
#NOTES:
     dance-single:
     Wrland:
     Easy:
     5:
     0,0,0,0,0:
0000
0000
0000
0000
,
0000
0000
0000
0000
,
0000
0000
0000
0000
,
0000
0000
0000
0000
,
0000
0000
0000
0000
,
0000
0000
0000
0000
,
0000
0000
0000
0000
,
0000
0000
0000
1000
,
0100
1000
0100
0010
,
0100
0010
0001
0001
,
0010
0100
0100
1000
,
0100
1000
0100
0010
,
0100
0010
0001
0010
,
0100
1000
0100
1000
,
0100
1000
0100
0010
,
0001
0010
0100
1000
,
1000
0100
1000
0100
,
1000
0100
1000
0000
0100
0000
0010
0000
,
0001
0001
0010
0100
,
0010
0100
1000
0100
,
1000
0100
0010
0001
,
0010
0100
0010
1000
,
0100
0000
1000
0000
1000
0001
2000
0000
,
3000
0002
0003
0001
,
1000
0000
0001
0000
0001
1000
0001
0000
,
0001
1000
0100
1000
,
0100
1000
0100
0010
,
0001
0010
0100
1000
,
0000
1000
0100
0010
,
0100
0010
0001
0100
,
0010
0100
0010
0001
,
0100
0001
0100
0010
,
0100
1000
0100
1000
,
0100
0010
0100
0010
,
0001
0010
0100
1000
,
0100
0000
1000
0000
0000
0000
1000
0001
,
1000
0220
0330
0001
,
1000
0000
0001
0000
0000
0000
0001
1000
,
0001
2200
3300
0100
,
0010
0000
0202
0303
0200
0000
0300
0000
,
2000
3000
0200
0300
,
0020
0000
0000
0000
,
0030
0000
0000
0000
;

//--------------- dance-single - Wrland ----------------
#NOTES:
     dance-single:
     Wrland:
     Medium:
     8:
     0,0,0,0,0:
0000
0000
0000
0000
,
0000
0000
0000
0000
,
0000
0000
0000
0000
,
0000
0000
0000
0000
,
0000
0000
0000
0000
,
0000
0000
0000
0000
,
0000
0000
0000
0000
,
0000
0000
0000
0000
0000
0100
1000
0000
,
0100
0000
1000
0000
0100
0000
1000
0000
0100
0000
0010
0000
0001
0000
0100
0001
,
0000
0000
0000
0000
0010
0000
0100
0010
0000
0000
0100
0000
1000
0000
0100
0000
,
0000
0000
0100
0000
0010
0000
0001
0000
0100
0000
0001
0000
0100
0000
0001
0100
,
0000
0000
0000
0000
0010
0000
0100
0010
0000
0000
0100
0000
0010
0000
0100
0000
,
0000
0000
1000
0000
0100
0000
1000
0000
0000
0000
0100
0000
1000
0000
0100
1000
,
0000
0000
0000
0000
0100
0000
0010
0100
0000
0000
0010
0000
0001
0000
0000
0000
,
0001
0000
0100
0000
0010
0000
0000
0000
0100
0000
0010
0000
0100
0000
0010
0100
,
0000
0000
0000
0000
0100
0000
0000
1000
0100
1000
0000
0100
0020
0000
0030
0000
,
0002
0000
0000
0003
0200
0000
0300
0000
0001
0000
0100
0002
0000
0003
0000
0000
,
0010
0000
0100
0020
0000
0030
0000
0100
0010
0000
0100
0000
2000
0000
3000
0000
,
0200
0300
2000
3000
0200
0300
0010
0001
,
0200
0300
0010
0100
2000
3000
0200
0300
,
0020
0030
0002
0003
0020
0030
0002
0003
,
0200
0000
0300
0000
0020
0000
0030
0000
0100
0010
0000
0000
0220
0000
0330
0000
,
0202
0000
0000
0303
0000
0000
2002
0000
0000
3003
0000
0000
1000
0000
0100
0000
0010
0000
0100
0000
0000
0010
0000
0000
,
0200
0300
0010
0100
0020
0030
0202
0303
,
0022
0000
0000
0033
0000
0000
2200
0000
0000
3300
0000
0000
0100
0000
0010
0000
0100
0000
0010
0000
0000
0001
0000
0000
,
0200
0300
0010
0100
2000
3000
0100
1000
,
0200
0300
1000
0100
0020
0030
0220
0330
,
2200
0000
0000
0000
0000
0000
3300
0000
0000
0000
0000
0000
0220
0000
0000
0000
0000
0000
0330
0000
0000
0000
0000
0000
0001
0000
0000
0000
1000
0000
0000
0000
0100
0000
0000
0000
1000
0000
0000
0000
0000
0000
0100
0000
0000
2000
0000
0000
,
0000
0000
3000
0000
0100
0000
0010
0100
0010
0001
0000
0100
0020
0000
0030
0000
,
0100
0000
1000
0100
2000
3000
0100
0000
,
0010
0000
0001
0000
0100
0000
0010
0100
0100
0000
0010
0000
0100
0000
0010
0000
,
0001
0100
0020
0030
2000
3000
0100
1000
,
0200
0000
0300
0000
2000
0000
3000
0000
0100
0000
0010
0000
0002
0000
0000
0003
,
0100
0010
0200
0300
0010
0001
0100
0010
,
0100
0000
0010
0000
0002
0000
0000
0003
1000
0100
0000
0000
2200
0000
3300
0000
,
0220
0000
0000
0000
0000
0000
0330
0000
0000
0000
0000
0000
0202
0000
0000
0000
0000
0000
0303
0000
0000
0000
0000
0000
0001
0000
0000
0000
1000
0000
0000
0000
0100
0000
0000
0000
1000
0000
0000
0000
0000
0000
0100
0000
0000
0010
0000
0000
,
0001
0000
0100
0000
0010
0000
0100
1000
0100
0000
1000
0000
2200
0000
3300
0000
,
0220
0000
0000
0000
0000
0000
0330
0000
0000
0000
0000
0000
0202
0000
0000
0000
0000
0000
0303
0000
0000
0000
0000
0000
0010
0000
0000
0000
0100
0000
0000
0000
0010
0000
0000
0000
1000
0000
0000
0000
0000
0000
0100
0000
0000
2000
0000
0000
,
0000
0000
3000
0000
0100
0000
0010
0200
0000
0300
0000
0000
0202
0000
0303
0000
,
0220
0000
0330
0000
1010
0000
0000
0000
0200
0000
0000
0300
0020
0000
0000
0030
,
0200
0000
0000
0300
0020
0000
0000
0030
0200
0000
0000
0300
0020
0000
0000
0030
,
0200
0000
0000
0000
,
0300
0000
0000
0000
;

//--------------- dance-single - Wrland ----------------
#NOTES:
     dance-single:
     Wrland:
     Hard:
     10:
     0,0,0,0,0:
0000
0000
0000
0000
,
0000
0000
0000
1000
,
0100
0000
0010
0100
0000
0000
0010
0010
0001
0000
0010
0100
0000
0000
0010
0100
,
0010
0000
0001
0100
0000
0000
0001
0100
0001
0100
0001
0010
2200
0000
3300
0000
,
2200
0000
0000
0000
0000
0000
3300
0000
0000
0000
0000
0000
0220
0000
0000
0000
0000
0000
0000
0000
0000
0330
0000
0000
0001
0000
0000
0000
0010
0000
0000
0000
1000
0000
0000
0000
0100
0000
0000
0000
0000
0000
0010
0000
0000
0200
0000
0000
,
0000
0000
0300
0000
0001
0000
0100
0002
0000
0000
0003
0000
0220
0000
0330
0000
,
0022
0000
0000
0000
0000
0000
0000
0000
0000
0033
0000
0000
2200
0000
0000
0000
0000
0000
3300
0000
0000
0000
0000
0000
0001
0000
0000
0000
0010
0000
0000
0000
1000
0000
0000
0000
0100
0000
0000
0000
0000
0000
0010
0000
0000
0200
0000
0000
,
0000
0000
0000
0300
0001
0000
0100
0002
0000
0003
0010
0000
0100
0000
1000
0000
,
0100
0000
1000
0000
0100
0000
1000
0000
0100
0000
0010
0000
0001
0000
0100
0001
,
0000
1000
0100
0010
0010
0001
0100
0010
0100
0010
0001
0100
0010
0000
0100
0000
,
1000
0000
0100
0000
1000
0000
0100
0000
0010
0000
0001
0000
0100
0000
0010
0100
,
0000
0000
0010
0000
0100
0010
0001
0100
1000
0100
0001
0100
0010
0000
0100
0000
,
0010
0000
0100
0000
0010
0000
0001
0000
0000
0000
0001
0000
0100
0000
0001
0200
,
0000
0000
0300
0000
0010
0000
1000
0010
0000
0000
0100
0000
0100
0000
1000
0000
,
0100
0000
1000
0100
0010
0000
0100
0000
0010
0000
0001
1000
0001
0010
0000
0100
,
0010
0100
0000
1000
0100
1000
0000
0100
0010
0100
0000
0010
0200
0000
0300
0010
,
0100
0010
0000
0100
0020
0000
0030
0001
1000
0000
0100
2000
0000
0000
3000
0000
,
0100
0000
1000
0200
0000
0300
0000
0100
0010
0000
0001
0000
0100
0000
0010
0000
,
0100
0010
0202
0303
2020
3030
0220
0330
,
0202
0000
0303
0000
0220
0000
0330
1000
0100
0000
0010
0000
0100
0000
0010
0000
,
0001
0000
0100
0000
0010
0000
1000
0100
0000
1000
0100
0000
0010
0000
0001
0000
,
0100
0000
0010
0000
0001
0000
0100
0000
0001
0100
0000
0000
2020
0000
3030
0000
,
0202
0000
0000
0000
0000
0000
0303
0000
0000
0000
0000
0000
2020
0000
0000
0000
0000
0000
0000
0000
0000
3030
0000
0000
0100
0000
0000
0000
0010
0000
0000
0000
0001
0000
0000
0000
1000
0000
0000
0000
0000
0000
0100
0000
0000
1000
0000
0000
,
0000
0100
0010
0001
0100
0000
0010
0000
0100
0000
0010
0000
0202
0000
0303
0000
,
0220
0000
0000
0000
0000
0000
0330
0000
0000
0000
0000
0000
2020
0000
0000
0000
0000
0000
3030
0000
0000
0000
0000
0000
0100
0000
0000
0000
0010
0000
0000
0000
0001
0000
0000
0000
1000
0000
0000
0000
0000
0000
0100
0000
0000
0100
0000
0000
,
0000
1000
0100
0010
0001
0000
0010
0100
0000
0010
0100
0000
0010
0000
0100
0010
,
0000
1000
0100
0010
0001
0000
0100
0020
0000
0000
0030
0000
2002
0000
3003
0000
,
2200
0000
0000
0000
0000
0000
3300
0000
0000
0000
0000
0000
0220
0000
0000
0000
0000
0000
0330
0000
0000
0000
0000
0000
0001
0000
0000
0000
0010
0000
0000
0000
0100
0000
0000
0000
0001
0000
0000
0000
0000
0000
1000
0000
0000
0001
0000
0000
,
0000
0100
1000
0100
0010
0000
0100
0010
0001
0100
0000
0001
0100
0000
0000
0010
,
1000
0100
0000
0010
0100
0000
0000
0010
0100
0000
0010
0200
0000
0000
0300
0000
,
0001
0000
0100
0001
0000
0000
0000
0010
0100
0000
1000
0000
0100
0000
1000
0000
,
0100
0010
2200
3300
0220
0330
0202
0303
,
0220
0000
0330
0000
2020
0000
3030
0100
0010
0000
0001
0000
0202
0000
0303
0000
,
0010
0000
0100
0000
2000
0000
3000
0000
0100
0000
0010
0000
0002
0000
0003
0100
,
0001
0000
0100
0000
0010
0000
0100
0000
1000
0100
0000
0000
2200
0000
3300
0000
,
0220
0000
0000
0000
0000
0000
0330
0000
0000
0000
0000
0000
0202
0000
0000
0000
0000
0000
0303
0000
0000
0000
0000
0000
0001
0000
0000
0000
0010
0000
0000
0000
0100
0000
0000
0000
0001
0000
0000
0000
0000
0000
1000
0000
0000
0001
0000
0000
,
0000
0100
1000
0100
1000
0000
0100
0000
0010
0000
0001
0000
2200
0000
3300
0000
,
0220
0000
0000
0000
0000
0000
0330
0000
0000
0000
0000
0000
0202
0000
0000
0000
0000
0000
0303
0000
0000
0000
0000
0000
0010
0000
0000
0000
0100
0000
0000
0000
0001
0000
0000
0000
1000
0000
0000
0000
0000
0000
0100
0000
0000
1000
0000
0000
,
0000
0100
0010
0001
0100
0000
0010
0000
0100
0000
0010
0000
0202
0000
0303
0000
,
0220
0000
0330
0000
1010
0000
0000
0000
2000
0000
0000
3000
0200
0000
0000
0300
,
0020
0000
0000
0030
0002
0000
0000
0003
0002
0000
0000
0003
0020
0000
0000
0030
,
0200
0000
0000
0000
,
0300
0000
0000
0000
;
