#VERSION:0.83;
#TITLE:Ciega, Sordomuda;
#SUBTITLE:;
#ARTIST:Shakira;
#TITLETRANSLIT:;
#SUBTITLETRANSLIT:;
#ARTISTTRANSLIT:;
#GENRE:Latin;
#ORIGIN:;
#CREDIT:Wrland;
#BANNER:Ciega, Sordomuda.png;
#BACKGROUND:BG.png;
#PREVIEWVID:preview.mp4;
#JACKET:Ciega, Sordomuda-jacket.png;
#CDIMAGE:Ciega, Sordomuda-cd.png;
#DISCIMAGE:;
#LYRICSPATH:Ciega, Sordomuda.lrc;
#CDTITLE:Wrland Season 3 CITYGHT + last one night.png;
#MUSIC:Ciega, Sordomuda.ogg;
#OFFSET:0.002000;
#SAMPLESTART:56.030998;
#SAMPLELENGTH:12.000000;
#SELECTABLE:YES;
#DISPLAYBPM:119.000000;
#BPMS:0.000=119.930;
#STOPS:;
#DELAYS:;
#WARPS:;
#TIMESIGNATURES:0.000=4=4;
#TICKCOUNTS:0.000=4;
#COMBOS:0.000=1;
#SPEEDS:0.000=1.000=0.000=0;
#SCROLLS:0.000=1.000;
#FAKES:;
#LABELS:0.000=Song Start;
#BGCHANGES:0.000=Ciega Sordomuda.avi=0.000=0=0=0=StretchNoLoop====,
99999=-nosongbg-=1.000=0=0=0 // don't automatically add -songbackground-
;
#KEYSOUNDS:;
#ATTACKS:
;

//---------------dance-single - Wrland----------------
#NOTEDATA:;
#CHARTNAME:;
#STEPSTYPE:dance-single;
#DESCRIPTION:Wrland;
#CHARTSTYLE:;
#DIFFICULTY:Beginner;
#METER:2;
#RADARVALUES:0.104414,0.158361,0.000000,0.026104,0.000000,84.000000,84.000000,0.000000,3.000000,0.000000,0.000000,0.000000,0.000000,0.000000,0.104414,0.158361,0.000000,0.026104,0.000000,84.000000,84.000000,0.000000,3.000000,0.000000,0.000000,0.000000,0.000000,0.000000;
#CREDIT:;
#DISPLAYBPM:119.000000;
#NOTES:
0000
0000
0000
0000
,
0000
0000
0000
0000
,
0000
0000
0000
0000
,
0000
0000
0000
0000
,
0000
0000
0000
0000
,
0000
0000
0000
0000
,
0100
0000
0000
0000
,
0100
0000
0000
0000
,
1000
0000
0000
0000
,
1000
0000
0000
0000
,
0001
0000
0000
0000
,
0100
0000
0000
0000
,
0010
0000
0000
0000
,
0100
0000
0000
0000
,
1000
0000
0000
0000
,
0100
0000
0000
0000
,
0001
0000
0000
0000
,
0100
0000
0000
0000
,
1000
0000
0000
0000
,
0010
0000
0000
0000
,
0100
0000
0000
0000
,
0001
0000
0000
0000
,
0010
0000
0000
0000
,
1000
0000
0000
0000
,
0100
0000
0000
0000
,
0010
0000
0000
0000
,
0100
0000
0000
0000
,
0001
0000
0000
0000
,
1000
0001
1000
0000
,
0001
1000
0001
0000
,
0100
0000
0100
0000
,
0020
0000
0030
0000
,
0010
0100
0010
0000
,
0001
0100
0001
0000
,
1000
0000
0100
0000
,
1000
0100
0010
0000
,
0100
0010
0100
0000
,
0001
0100
0001
0000
,
0010
0000
0100
0000
,
0010
0000
0200
0300
,
0001
0100
0001
0000
,
0010
1000
0010
0000
,
0100
0000
1000
0000
,
0100
0000
1000
0000
,
0010
0100
0010
0000
,
0001
0100
0001
0000
,
0010
0000
0100
0000
,
0010
0000
0200
0300
,
1000
0010
1000
0000
,
0001
0100
0001
0000
,
0010
0000
0100
0000
,
0010
0001
0010
0000
,
0100
0000
0000
0000
;

//---------------dance-single - Wrland----------------
#NOTEDATA:;
#CHARTNAME:;
#STEPSTYPE:dance-single;
#DESCRIPTION:Wrland;
#CHARTSTYLE:;
#DIFFICULTY:Easy;
#METER:4;
#RADARVALUES:0.183968,0.271477,0.000000,0.052207,0.000000,148.000000,148.000000,0.000000,6.000000,0.000000,0.000000,0.000000,0.000000,0.000000,0.183968,0.271477,0.000000,0.052207,0.000000,148.000000,148.000000,0.000000,6.000000,0.000000,0.000000,0.000000,0.000000,0.000000;
#CREDIT:;
#DISPLAYBPM:119.000000;
#NOTES:
// measure 0
0000
0000
0000
0000
,  // measure 1
0000
0000
0000
0000
,  // measure 2
0000
0000
0000
0000
,  // measure 3
0000
0000
0000
0000
,  // measure 4
0000
0000
0000
0000
,  // measure 5
0000
0000
0000
0000
,  // measure 6
0100
0000
1000
0000
,  // measure 7
1000
0000
0100
0000
,  // measure 8
0010
0000
0001
0000
,  // measure 9
0010
0000
0100
0000
,  // measure 10
1000
0000
0100
0000
,  // measure 11
0010
0000
1000
0000
,  // measure 12
0100
0000
1000
0000
,  // measure 13
0010
0000
0001
0000
,  // measure 14
1000
0000
0100
0000
,  // measure 15
1000
0000
0100
0000
,  // measure 16
0010
0000
0001
0000
,  // measure 17
0100
0000
1000
0000
,  // measure 18
0100
0000
1000
0000
,  // measure 19
0010
0000
0001
0000
,  // measure 20
0100
0000
0010
0000
,  // measure 21
0100
0000
1000
0000
,  // measure 22
0010
0000
0001
0000
,  // measure 23
0010
0000
0100
0000
,  // measure 24
1000
0000
1000
0000
,  // measure 25
0100
0000
0010
0000
,  // measure 26
0001
0000
1000
0000
,  // measure 27
0001
1000
0001
1000
,  // measure 28
1000
0000
1000
0000
0100
1000
0100
0000
,  // measure 29
0010
0000
0001
0000
0010
0001
0010
0000
,  // measure 30
0010
0100
0200
0300
,  // measure 31
1000
1000
2000
3000
,  // measure 32
0100
0000
1000
0000
0100
1000
0100
0000
,  // measure 33
0010
0000
0001
0000
0010
0001
0010
0000
,  // measure 34
0100
0010
0100
0000
,  // measure 35
0010
0010
0001
0000
,  // measure 36
0010
0000
0001
0000
0010
0001
0010
0000
,  // measure 37
0100
0000
0100
0000
1000
0100
1000
0000
,  // measure 38
0100
0100
0200
0300
,  // measure 39
1000
0100
2000
3000
,  // measure 40
0010
0000
0100
0000
0010
0100
0010
0000
,  // measure 41
0001
0000
0010
0000
0001
0010
0001
0000
,  // measure 42
0010
0100
0010
0000
,  // measure 43
0010
0100
1000
0000
,  // measure 44
1000
0000
0100
0000
1000
0100
1000
0000
,  // measure 45
0010
0000
0100
0000
0010
0100
0010
0000
,  // measure 46
0001
0001
0002
0003
,  // measure 47
0010
0100
2000
3000
,  // measure 48
0100
0000
1000
0000
0100
1000
0100
0000
,  // measure 49
1000
0000
0100
0000
0010
0100
0010
0000
,  // measure 50
0001
0000
0001
0000
0010
0100
0010
0100
,  // measure 51
0000
0000
0010
0000
0100
0010
0001
0100
,  // measure 52
0001
0000
0000
0000
;

//---------------dance-single - Wrland----------------
#NOTEDATA:;
#CHARTNAME:;
#STEPSTYPE:dance-single;
#DESCRIPTION:Wrland;
#CHARTSTYLE:;
#DIFFICULTY:Medium;
#METER:7;
#RADARVALUES:0.341832,0.407215,0.147920,0.530772,0.000000,275.000000,258.000000,17.000000,61.000000,0.000000,0.000000,0.000000,0.000000,0.000000,0.341832,0.407215,0.147920,0.530772,0.000000,275.000000,258.000000,17.000000,61.000000,0.000000,0.000000,0.000000,0.000000,0.000000;
#CREDIT:;
#DISPLAYBPM:119.000000;
#NOTES:
0000
0000
0000
0000
,
0000
0000
0000
0000
,
0000
0000
0000
0000
,
0000
0000
0000
0000
,
0000
0000
0000
0000
,
0000
0000
1000
0100
1000
0100
0010
0001
,
0100
0000
0200
0300
0010
0000
0100
0000
,
0010
0000
0001
0100
0001
0100
0001
0010
,
0100
0100
2000
3000
1000
0000
0100
0000
,
1000
0000
1000
0100
1000
0100
1000
0100
,
0010
0100
0000
0010
0000
0100
0010
0001
,
0200
0300
0020
0030
0200
0300
0020
0030
,
0001
0000
0001
0100
0001
0000
0010
0000
,
0100
0000
1000
0100
1000
0100
0010
0001
,
0200
0300
0020
0030
0200
0300
0010
0000
,
0100
0000
1000
0100
1000
0100
1000
0100
,
0010
0200
0300
0010
0000
0100
0000
0100
,
0010
0000
0100
1000
0100
1000
0100
0010
,
0100
0200
0300
0200
0300
0010
0001
0200
,
0300
0020
0030
0200
0300
0010
0100
0010
,
0001
0000
0001
0100
0001
0100
0010
0100
,
1000
0200
0300
2000
3000
0200
0300
2000
,
3000
0000
1000
0100
1000
0100
0010
0001
,
0100
0020
0030
0200
0300
0200
0300
0020
,
0030
0000
0010
0000
0100
0000
0010
0001
,
0100
0000
0001
0000
0200
0300
0020
0030
,
0100
0000
1000
0100
1000
0100
1000
0100
,
0010
0001
0100
0010
0100
0010
0100
0010
,
0110
0000
1001
0000
1000
0001
1000
0000
,
1100
0000
0110
0000
0001
0100
0001
0200
,
0000
0300
0010
0000
0100
0000
0010
0002
,
0000
0003
0010
0000
0100
0000
1000
0100
,
1000
0100
0010
0000
0101
0000
0010
0000
,
0100
0010
0002
0003
0100
0000
1010
0000
,
0200
0300
1000
0100
1000
0100
0010
0002
,
0000
0003
0100
0000
0010
0100
0010
0001
,
2000
3000
0220
0330
2000
3000
0202
0303
,
0020
0030
0022
0033
0020
0030
0022
0033
,
0100
0000
0010
0100
0010
0001
0100
0020
,
0000
0030
0100
0000
1000
0000
0100
0000
,
2000
3000
2020
3030
2000
3000
2020
3030
,
0200
0300
0220
0330
0200
0300
0220
0330
,
0100
0000
0010
0001
0100
0001
0100
0002
,
0000
0003
0010
0000
0100
0010
0100
0010
,
0202
0303
0010
0000
0100
0010
0001
0000
,
0020
0030
0100
0000
1000
0100
0010
0002
,
0000
0003
0100
0010
0100
0010
0001
0100
,
0000
0010
0001
0100
0100
0010
0100
0010
,
0110
0100
1000
0100
0010
0001
0100
0020
,
0000
0030
0100
0000
1000
0000
0100
0000
,
1000
0000
0100
0010
0001
0100
0010
0100
,
0000
0000
0100
0000
0010
0001
0100
0001
,
0101
0000
0000
0000
;

//---------------dance-single - Wrland----------------
#NOTEDATA:;
#CHARTNAME:;
#STEPSTYPE:dance-single;
#DESCRIPTION:Wrland;
#CHARTSTYLE:;
#DIFFICULTY:Hard;
#METER:10;
#RADARVALUES:0.494724,0.565576,0.452461,0.321943,0.073960,398.000000,346.000000,52.000000,37.000000,0.000000,0.000000,0.000000,0.000000,0.000000,0.494724,0.565576,0.452461,0.321943,0.073960,398.000000,346.000000,52.000000,37.000000,0.000000,0.000000,0.000000,0.000000,0.000000;
#CREDIT:;
#DISPLAYBPM:119.000000;
#NOTES:
0000
0000
0000
0000
,
0000
0000
0000
0000
,
0000
0000
0000
0000
,
0000
0000
0000
0000
,
0000
0000
0000
0000
,
1000
0000
0001
1000
0001
1000
0001
1000
,
2002
0000
3003
0000
1000
0000
0100
0000
1000
0000
0100
1000
0100
0000
0010
0100
,
0020
0030
0001
0100
0010
0100
0010
0001
,
0100
0000
0001
0000
0100
0000
0001
0100
0002
0000
0003
0020
0000
0030
0100
0000
,
0200
0300
1000
0100
0010
0001
0100
0010
,
0100
0020
0030
0002
0003
0200
0300
0020
,
0030
0200
0300
0020
0030
0001
0100
0001
,
0010
0000
0100
0000
0000
2000
0000
3000
0200
0000
0300
0020
0030
0000
0010
0000
,
0200
0000
0300
0000
0010
0000
0100
0000
0020
0000
0030
0100
0000
0000
0010
0000
,
0002
0000
0003
0000
0101
0000
0010
1000
0100
0000
0010
0001
0100
0000
1000
0000
,
0200
0300
0010
0100
0010
0001
0100
0001
,
0100
0000
0001
0000
0100
0000
1000
0100
2000
0000
3000
0200
0000
0300
0010
0000
,
0200
0000
0000
0300
0010
0000
0100
0000
0010
0000
0001
0000
0100
0000
0001
0000
,
0100
0002
0003
0020
0030
0100
0010
0200
,
0300
0000
0020
0000
0030
0000
0002
0000
0000
0003
0100
0000
0010
0000
0100
0000
,
1010
0000
0100
0010
0001
0100
0010
0100
,
0010
0002
0003
0200
0300
0100
0010
0100
,
0020
0030
0001
0100
0001
0100
0001
0100
,
0010
0200
0300
2000
3000
0100
1000
0100
,
0020
0000
0000
0030
0100
0000
0010
0000
0001
0000
0100
0000
0001
0000
0100
0000
,
0010
0200
0300
2000
3000
0200
0300
2000
,
3000
0000
1000
0100
0010
0001
0100
0010
,
0100
0000
0010
0000
0001
0000
0100
0000
0001
0000
0100
0001
0100
0000
0010
0000
,
0100
0010
0100
0010
0101
0101
0101
0101
,
0010
0100
1000
0100
1100
1100
1100
1100
,
0000
0100
0010
0100
0010
0100
0010
0001
,
0000
0000
0001
0000
0100
0000
0001
0100
0001
0000
0100
0000
0010
0000
0100
0000
,
0010
0001
0100
0001
0101
0101
0101
0101
,
0010
1000
0010
1000
1010
1010
1010
1010
,
0000
0100
0010
0100
0010
0001
0100
0010
,
0000
0100
0010
0001
0100
0010
0100
1000
,
0100
1000
0100
1000
1100
1100
1100
1100
,
0100
0010
0001
0100
0101
0101
0101
0101
,
0010
0100
0010
0001
0100
0010
1000
0100
,
0000
0000
1000
0000
0100
0000
1000
0100
1000
0000
0100
0000
0010
0000
0001
0000
,
0100
0010
0100
0010
0110
0110
0110
0110
,
0001
0100
0001
0100
0101
0101
0101
0101
,
0010
0100
0010
0001
0100
0010
1000
0100
,
0000
1000
0100
1000
0100
0010
0001
0100
,
0010
0100
0010
0001
0101
0110
1010
0110
,
0100
0010
0100
0001
0101
0110
1100
0110
,
0100
0000
0010
0000
0001
0000
0100
0000
0001
0000
0100
0001
0100
0000
0010
0000
,
0100
0000
1000
0000
0100
0000
1000
0000
0100
0000
1000
0100
1000
0000
1000
0000
,
0100
0010
0001
0100
0101
0110
1100
0110
,
0100
0010
0100
1000
1100
0110
0101
0101
,
0010
0100
0010
0001
0100
0010
0100
0010
,
0000
0000
0100
0000
1000
0000
0100
0000
0010
0000
0100
0010
0100
0000
0010
0000
,
1001
0000
0000
0000
;
