#VERSION:0.83;
#TITLE:Chu☆Chu☆Tonight;
#SUBTITLE:;
#ARTIST:VENUS;
#TITLETRANSLIT:;
#SUBTITLETRANSLIT:;
#ARTISTTRANSLIT:;
#GENRE:BEMANI;
#CREDIT:Wrland;
#MUSIC:Chu Chu Tonight.ogg;
#BANNER:Chu Chu Tonight.png;
#BACKGROUND:Chu Chu Tonight-bg.png;
#CDTITLE:Wrland Season 3 CITYGHT.png;
#SAMPLESTART:60.551;
#SAMPLELENGTH:12.000;
#SELECTABLE:YES;
#OFFSET:-5.824;
#BPMS:0.000=165.000;
#STOPS:;
#DISPLAYBPM:165.000;
#JACKET:Chu Chu Tonight-jacket.png;
#CDIMAGE:Chu Chu Tonight-cd.png;
#METERTYPE:DDR X;
#BGCHANGES:;
#FGCHANGES:;

//--------------- dance-single - Wrland ----------------
#NOTEDATA:;
#STEPSTYPE:dance-single;
#DESCRIPTION:Wrland;
#DIFFICULTY:Beginner;
#METER:1;
#RADARVALUES:0,0,0,0,0;
#NOTES:
0000
0000
0000
0000
,
0000
0000
0000
0000
,
0000
0000
0000
0000
,
0000
0000
0000
0000
,
0100
0000
0000
0000
,
0000
0000
0000
0000
,
0100
0000
0000
0000
,
0000
0000
0000
0000
,
0010
0000
0000
0000
,
0000
0000
0000
0000
,
0001
0000
0000
0000
,
0000
0000
0000
0000
,
0001
0000
0000
0000
,
0000
0000
0000
0000
,
1000
0000
0000
0000
,
0000
0000
0000
0000
,
0100
0000
0000
0000
,
0000
0000
0000
0000
,
0010
0000
0000
0000
,
0000
0000
0000
0000
,
0100
0000
0000
0000
,
0000
0000
0000
0000
,
0010
0000
0000
0000
,
0000
0000
0000
0000
,
0100
0000
0000
0000
,
0000
0000
0000
0000
0000
0000
0000
2000
,
0000
0000
0000
0000
,
3000
0000
0000
0000
,
0001
0000
0000
0000
,
0000
0000
0000
0000
,
0100
0000
0000
0000
,
0000
0000
0000
0000
,
0010
0000
0000
0000
,
0000
0000
0000
0000
0000
0000
0000
0100
,
0000
0000
0000
0000
,
0000
0000
0000
0000
0000
0000
0000
0020
,
0000
0000
0000
0000
,
0030
0000
0000
0000
,
0000
0010
0000
0000
,
0000
0000
0000
0000
0000
0000
0000
0100
,
0000
0000
0000
0000
,
0000
0000
0000
0000
0000
0000
0000
0010
,
0000
0000
0000
0000
,
0000
0000
0000
0000
,
0001
0000
0000
0000
,
0000
0000
0000
0000
,
1000
0000
0000
0000
,
0000
0000
0000
0000
,
0100
0000
0000
0000
,
0000
0000
0000
0000
,
0010
0000
0000
0000
,
0000
0000
0000
0000
,
0100
0000
0000
0000
,
0000
0000
0000
0000
,
0001
0000
0000
0000
,
0000
0000
0000
0000
,
0100
0000
0000
0000
,
0000
0000
0000
0000
,
0010
0000
0000
0000
,
0000
0000
0000
0000
,
0001
0000
0000
0000
,
0000
0000
0000
0000
,
1000
0000
0000
0000
,
0000
0000
0000
0000
,
0100
0000
0000
0000
,
0000
0000
0000
0000
0000
0000
0000
0010
,
0000
0000
0000
0000
,
0000
0000
0000
0000
0000
0000
0000
0100
,
0000
0000
0000
0000
,
0000
0000
0000
0000
0000
0000
0000
0010
,
0000
0000
0000
0000
,
0000
0000
0000
0000
0000
0000
0000
0100
,
0000
0000
0000
0000
,
0000
0000
0000
0000
0000
0000
0000
0001
,
0000
0000
0000
0000
,
0000
0000
0000
0000
,
0010
0000
0000
0000
,
0000
0000
0000
0000
,
1000
0000
0000
0000
,
0000
0000
0000
0000
,
0100
0000
0000
0000
,
0000
0000
0000
0000
,
1000
0000
0000
0000
,
0000
0000
0000
0000
,
0010
0000
0000
0000
,
0000
0000
0000
2002
,
0000
0000
0000
0000
,
3003
0000
0000
0000
;

//--------------- dance-single - Wrland ----------------
#NOTEDATA:;
#STEPSTYPE:dance-single;
#DESCRIPTION:Wrland;
#DIFFICULTY:Easy;
#METER:2;
#RADARVALUES:0,0,0,0,0;
#NOTES:
0000
0000
0000
0000
,
0000
0000
0000
0000
,
0000
0000
0000
0000
,
0000
0000
0000
0000
,
0100
0000
0000
0000
,
0100
0000
0000
0000
,
0100
0000
0000
0000
,
0010
0000
0000
0000
,
0001
0000
0000
0000
,
0001
0000
0000
0000
,
0001
0000
0000
0000
0000
0000
0000
0010
,
0000
0000
0000
0000
,
0100
0000
0000
0000
,
0100
0000
0000
0000
,
1000
0000
0000
0000
,
0100
0000
0000
0000
,
0010
0000
0000
0000
,
0001
0000
0000
0000
,
0010
0000
0000
0000
,
0100
0000
0000
0000
,
1000
0000
0000
0000
,
1000
0000
0000
0000
,
0100
0000
0000
0000
,
1000
0000
0000
0000
,
0010
0000
0000
0000
,
0100
0000
0000
0000
0000
0000
0000
0110
,
0000
0000
0000
0000
,
0010
0000
0000
0000
,
0001
0000
0000
0000
,
0010
0000
0000
0000
,
0100
0000
0000
0000
,
1000
0000
0000
0000
,
0100
0000
0000
0000
,
0010
0000
0000
0000
0000
0000
0000
0100
,
0000
0000
0000
0000
,
0010
0000
0000
0000
0000
0000
0000
0001
,
0000
0000
0000
0000
0000
0000
0000
2000
,
0000
0000
0000
0000
3000
0000
0000
0100
,
0000
0110
0000
0000
,
0010
0000
0000
0000
0000
0000
0000
0011
,
0000
0000
0000
0000
0000
0000
0000
0010
,
0000
0000
0000
0000
0000
0000
0000
0100
,
0000
0000
0000
0000
,
1000
0000
0000
0000
,
0100
0000
0000
0000
0000
0000
0000
0010
,
0000
0000
0000
0000
,
0100
0000
0000
0000
,
0100
0000
0000
0000
,
0010
0000
0000
0000
,
0010
0000
0000
0000
,
0001
0000
0000
0000
,
0001
0000
0000
0000
,
1000
0000
0000
0000
,
0100
0000
0000
0000
,
1000
0000
0000
0000
,
0100
0000
0000
0000
,
0010
0000
0000
0000
,
0100
0000
0000
0000
,
0001
0000
0000
0000
,
0010
0000
0000
0000
,
0001
0000
0000
0000
,
0010
0000
0000
0000
0000
0000
0000
0100
,
0000
0000
0000
0000
,
0010
0000
0000
0000
0000
0000
0000
0100
,
0000
0000
0000
0000
,
0010
0000
0000
0000
0000
0000
0000
0100
,
0000
0000
0000
0000
,
0001
0000
0000
0000
0000
0000
0000
1000
,
0000
0000
0000
0000
0000
0000
0000
0200
,
0000
0000
0000
0000
0300
0000
0000
0010
,
0000
0000
0000
0000
,
0000
0000
0000
0000
0000
0000
0000
0010
,
0000
0000
0000
0000
,
0000
0000
0000
0000
0000
0000
0000
0100
,
0000
0000
0000
0000
,
0100
0000
0000
0000
,
0010
0000
0000
0000
0000
0000
0000
0001
,
0000
0000
0000
0000
,
0100
0000
0000
0000
,
0100
0000
0000
0000
,
0010
0000
0000
0000
,
0001
0000
0000
0000
,
0010
0000
0000
0000
,
0100
0000
0000
0000
,
1000
0000
0000
0000
0000
0000
0000
0010
,
0000
0000
0000
0220
,
0000
0000
0000
0000
,
0330
0000
0000
0000
;

//--------------- dance-single - Wrland ----------------
#NOTEDATA:;
#STEPSTYPE:dance-single;
#DESCRIPTION:Wrland;
#DIFFICULTY:Medium;
#METER:5;
#RADARVALUES:0,0,0,0,0;
#NOTES:
0000
0000
0000
0000
,
0000
0000
0000
0000
,
0000
0000
0000
0000
,
0000
0000
0000
0000
,
0100
0000
0000
0000
0100
0000
0000
0100
,
0000
0100
0000
0100
0010
0000
0000
0000
,
0001
0000
0000
0000
0001
0000
0000
0001
,
0000
0001
0000
0001
0010
0000
0000
0000
,
0100
0000
0000
0000
0100
0000
0000
1000
,
0000
1000
0000
0100
1000
0000
0000
0000
,
0100
0000
0000
0000
0010
0100
0000
0010
,
0000
0000
0000
0000
,
0100
0100
0100
0000
,
0010
0010
0010
0000
,
0001
0001
0001
0000
,
0010
0010
0010
0000
,
0100
0100
0100
0000
,
1000
1000
1000
0000
,
0100
1000
0100
0000
,
0010
0100
0010
0000
,
0001
0100
0010
0000
,
0001
0010
1000
0000
,
0010
1000
0100
0000
,
0100
1000
0100
0000
,
0100
0010
0001
0000
,
0100
0000
0010
0000
0100
0000
0000
0002
,
0000
0003
0000
0000
,
1000
0100
1000
0000
,
0100
0000
0000
0100
0000
0000
0100
0020
,
0000
0030
0000
0001
,
0010
0001
0000
0000
,
0010
0100
0010
0000
,
0001
0000
0000
0000
0000
0000
0010
0200
,
0000
0000
0300
0000
0000
0100
0010
0100
,
0000
0010
0100
0010
0001
0000
0010
0000
,
0100
1000
0100
0010
0000
0100
0010
0200
,
0000
0000
0000
0000
0300
0000
0000
0010
,
0000
0100
0000
0010
0100
0000
0000
0010
,
0000
0100
0010
0100
0010
0100
0000
0000
,
0001
0100
0001
0100
0000
0001
0000
1100
,
0000
0100
1000
0100
1000
0100
0010
0001
,
0000
0010
0000
0100
0000
0010
0000
0100
,
0000
1000
0100
1000
0000
0000
0000
0000
,
0001
0100
0001
0100
0000
0000
0010
0000
,
0100
0010
0100
0010
0000
0001
0000
0220
,
0000
0000
0330
0000
,
1000
0000
0100
1000
0000
0000
0100
0000
,
0010
0100
0010
0001
,
0100
0000
0001
0000
0100
0000
0010
0002
,
0000
0000
0000
0003
,
0010
0100
0010
0001
,
0100
0010
0100
1000
,
0100
0000
1000
0000
0100
0000
0010
0200
,
0000
0000
0000
0300
,
0001
0000
0000
1000
0000
0000
0001
0000
,
2000
0000
3000
0000
,
0100
0000
0000
1000
0000
0000
0100
0000
,
2000
0000
0000
3000
,
0010
0000
0000
0100
0000
0000
0010
0000
,
0200
0000
0000
0300
,
0001
0000
0000
0100
0000
0000
0001
0000
,
0200
0000
0000
0000
0300
0000
0000
0020
,
0000
0000
0030
0000
,
0100
0000
0100
0000
0100
0000
0100
2000
,
0000
0000
3000
0000
0000
0100
0010
0200
,
0000
0000
0000
0000
0300
0000
0000
0010
,
0000
0001
0010
0000
0001
0000
0000
0000
,
0110
0000
0000
0000
1100
0000
0000
0100
,
0000
0010
0100
0000
0010
0000
0001
0200
,
0000
0000
0300
0000
0000
0010
0000
0100
,
0000
0010
0100
0010
0100
0010
0000
0000
,
0001
1000
0001
1000
0000
0001
0000
0100
,
0000
0010
0100
0010
0001
1000
0100
0010
,
0000
0100
0000
0010
0000
0100
0000
0010
,
0000
0001
0010
0001
0000
0000
0000
0000
,
1000
0100
1000
0100
0000
0000
0100
0000
,
0010
0100
0010
0100
0000
0010
0000
0202
,
0000
0000
0303
0000
,
0010
0000
0100
0000
1000
0100
0000
0010
,
0000
0100
0010
0100
0010
0000
0001
0000
,
0100
0000
0010
0000
0100
0010
0000
0010
,
0000
0100
0010
0100
1000
0000
0100
0000
,
0001
0000
0100
0000
0010
0100
0000
1000
,
0000
0100
1000
0100
0100
0000
1000
0000
,
0100
0000
0010
0000
0001
0100
0000
0010
,
0000
0100
0010
0100
0010
0000
0220
0000
,
0000
0000
0000
0000
,
0330
0000
0000
0000
;

//--------------- dance-single - Wrland ----------------
#NOTEDATA:;
#STEPSTYPE:dance-single;
#DESCRIPTION:Wrland;
#DIFFICULTY:Hard;
#METER:8;
#RADARVALUES:0,0,0,0,0;
#NOTES:
0000
0000
0000
0000
,
0000
0000
0000
0000
,
0000
0000
0000
0000
,
0000
0000
0000
0000
,
0110
0000
0011
0000
1100
0000
0000
0100
,
0000
0010
0000
0001
0100
0000
0010
0000
,
0000
0000
0101
0000
1010
0000
0000
0100
,
0000
0010
0000
0001
0100
0000
1000
0000
,
0000
0000
1100
0000
0110
0000
0000
0001
,
0000
0010
0000
0100
0010
0000
0001
0000
,
0100
0000
0011
0000
0110
1000
0000
1101
,
0000
0100
0010
1000
0100
0000
0001
0000
,
0110
0000
0010
0000
0100
0000
0000
0100
,
0010
0100
0010
0001
0100
0010
0100
1000
,
0000
0100
1000
0000
,
1000
0100
1000
0100
0010
0001
0100
0010
,
0100
0010
0002
0000
0003
0000
0000
0010
,
0100
0010
0100
0010
0000
0000
0000
0001
,
1000
0001
0000
0100
1000
0100
0010
0100
,
0000
0010
0100
0010
0001
1000
0100
0010
,
0000
0000
0100
0000
0010
0000
0000
0001
,
0100
0001
0100
0010
1000
0010
1000
0010
,
0000
0000
0100
0000
1000
0000
0000
0100
,
0010
0100
0010
0001
0100
0010
1000
0100
,
0010
0000
0002
0000
0003
0000
0000
0100
,
1000
0100
1000
0100
0000
0010
0001
0022
,
0000
0000
0033
0000
,
0001
0010
0000
0100
0000
0010
0100
0010
,
0002
0003
0000
2000
3000
0000
0001
2000
,
0000
0000
0000
0000
3000
0000
0000
0100
,
0000
0010
0100
0010
0001
0100
0000
1000
,
0000
0100
1000
0100
0010
0100
0010
0001
,
0200
0000
0000
0000
0300
0000
0010
0200
,
0000
0000
0300
0000
0000
1000
0100
0010
,
0000
0001
0100
0010
0100
1000
0100
0001
,
0100
0010
0100
0010
0000
0011
0000
2200
,
0000
0000
0000
0000
3300
0000
0000
1100
,
0000
1100
0000
0010
0220
0330
0000
0100
,
0000
0010
0001
0100
0010
0100
0010
0100
,
0001
0100
0010
1000
0000
0010
0000
0100
,
0000
0001
1000
0010
1000
0010
0100
0001
,
0000
0100
0000
0010
0000
1000
0000
0010
,
0000
0100
0001
0100
0000
0000
0010
0000
,
0100
0010
0100
0010
0000
0000
0001
0000
,
0010
0001
0010
0001
0000
0010
0000
0100
,
0000
0010
0010
0010
0100
0000
0110
0000
,
1000
0000
0100
0010
0000
0000
0001
1000
,
0010
0000
0100
0000
0010
0100
0010
0000
,
0001
1000
0100
0010
0001
0000
0100
0010
,
0000
0100
0010
0100
0010
0000
0001
0000
,
0100
0000
0010
1000
0000
0100
1000
0100
,
0010
0001
0100
0010
,
0100
0010
0100
0010
0100
0010
0100
0010
,
0000
0100
0010
0100
0010
0001
1000
0001
,
2000
3000
0000
0200
0300
0000
1000
0000
,
0200
0300
0000
0020
0030
0000
0001
0000
,
0020
0030
0000
0200
0300
0000
0010
0000
,
0200
0300
0000
0020
0030
0000
0001
0000
,
0020
0030
0000
0200
0300
0000
1000
0000
,
0200
0300
0000
2000
3000
0000
0100
0000
,
0020
0030
0000
0200
0300
0000
0010
0000
,
0001
0010
0100
0010
0000
0001
0100
0020
,
0000
0000
0000
0030
,
0000
0100
0010
0100
0010
0100
0000
0002
,
0000
0000
0003
0000
0000
1000
0001
2000
,
0000
0000
3000
0000
0100
0010
0000
1001
,
0000
0100
0010
0000
2000
3000
0000
0000
,
1000
0000
1000
0000
1000
0100
0010
0011
,
0000
0001
0010
0000
0200
0300
0010
0200
,
0000
0000
0300
0000
0000
0010
0000
0100
,
0000
0010
0100
0010
0001
0100
0010
1001
,
0100
0011
0100
0010
0000
0100
0000
0101
,
0000
0010
0100
1000
0100
0010
0001
0110
,
0000
1010
0000
0101
0000
1001
0000
0100
,
0000
0010
0100
0010
0000
0000
0001
0000
,
0100
0010
1000
0100
0000
0000
1000
0000
,
0100
1000
0100
0010
0000
0100
0000
0010
,
0000
0001
0010
0100
1000
0000
1001
0000
,
0001
0000
0100
0000
0010
0010
0000
0100
,
0000
0010
0001
0100
0010
0000
1000
0000
,
0100
0000
0001
0000
0100
0100
0000
0010
,
0000
1000
0001
0100
0010
0000
1000
0000
,
0010
0000
0100
0000
0001
1000
0000
0001
,
0000
0100
0010
1000
0010
0000
0100
0000
,
0001
0000
0100
0000
0010
0100
0000
0010
,
0000
0100
0010
0100
0010
0000
1MM1
0000
;
