#VERSION:0.83;
#TITLE:CASE 143;
#SUBTITLE:;
#ARTIST:스트레이 키즈;
#TITLETRANSLIT:;
#SUBTITLETRANSLIT:;
#ARTISTTRANSLIT:Stray Kids;
#GENRE:K-Pop;
#CREDIT:Wrland;
#MUSIC:CASE 143.ogg;
#BANNER:CASE 143.png;
#BACKGROUND:BG.png;
#CDTITLE:Wrland Season 3 CITYGHT.png;
#SAMPLESTART:42.601;
#SAMPLELENGTH:12.000;
#SELECTABLE:YES;
#OFFSET:0.002;
#BPMS:0.000=99.993
,40.000=49.997
,48.000=99.993
,111.000=49.997
,119.000=99.993
;
#STOPS:63.000=0.600;
#DISPLAYBPM:49.000:99.000;
#JACKET:CASE 143-jacket.png;
#CDIMAGE:CASE 143-cd.png;
#METERTYPE:DDR X;
#BGCHANGES:0.000=CASE 143.avi=1.000=0=0=0=StretchNoLoop====,
99999.000=-nosongbg-=1.000=0=0=0=StretchNoLoop====
;
#FGCHANGES:;

//--------------- dance-single - Wrland ----------------
#NOTEDATA:;
#STEPSTYPE:dance-single;
#DESCRIPTION:Wrland;
#DIFFICULTY:Beginner;
#METER:2;
#RADARVALUES:0,0,0,0,0;
#NOTES:
0000
0000
0000
0000
,
0000
0000
0000
0000
,
0100
0000
0000
0000
,
0000
0000
0000
0000
,
0010
0000
0000
0000
,
0000
0000
0000
0000
,
0010
0000
0000
0000
,
0000
0000
0000
0000
,
0100
0000
0000
0000
,
0000
0000
0000
0000
,
2000
0000
3000
0000
,
2000
0000
3000
0000
,
0002
0000
0003
0000
,
0000
0000
0000
0000
,
0020
0000
0030
0000
,
0000
0000
0000
0000
0000
0000
0000
0000
0000
0000
0000
0000
0000
0000
0000
0000
0000
0000
0000
0000
0000
0000
0000
0000
0000
0000
0000
0000
0000
0000
0000
0000
0000
0000
0000
0000
0000
0000
0000
0000
0000
0000
0000
0000
0000
0000
0000
0000
0000
0000
0000
0000
0000
0000
0000
0000
0000
0000
0000
0000
0000
0000
0000
0000
0000
0000
0000
0000
0000
0000
0000
0000
0000
0000
0000
0000
0000
0000
0000
0000
0000
0000
0000
0000
0000
0000
0000
0000
0000
0000
0000
0000
0000
0000
0000
0000
0000
0000
0000
0000
0000
0000
0000
0000
0000
0000
0000
0000
0000
0000
0000
0000
0000
0000
0000
0000
0000
0000
0000
0000
0000
0000
0000
0000
0000
0000
0000
0000
0000
0000
0000
0000
0000
0000
0000
0000
0000
0000
0000
0000
0000
0000
0000
0000
0000
0100
0000
0000
0000
0000
0000
0000
0000
0000
0000
0000
0000
0000
0000
0000
0000
0000
0000
0000
0000
0000
0000
0000
0000
0000
0000
0000
0000
0000
0000
0000
0000
0000
0000
0000
0000
0000
0000
0000
0000
0000
0000
0000
0000
0000
0000
0000
,
0000
0000
0000
0000
,
0000
0000
0100
0000
,
0000
0000
0000
0000
,
0000
0000
0010
0000
,
0000
0000
0000
0000
,
0000
0000
1001
0000
,
0000
0000
0000
0000
,
0000
0000
0000
1001
,
0000
0000
0000
0000
,
0000
0000
0000
1000
,
0000
0000
0000
0000
,
0000
0000
0000
0200
,
0000
0300
0000
0020
,
0000
0030
0000
0200
,
0000
0300
0000
0000
,
0000
0000
0000
0020
,
0000
0030
0000
0000
,
0000
0000
0000
0001
,
0000
0000
0000
0000
,
0000
0000
0000
1000
,
0000
0000
0000
0000
,
0000
0000
0000
0100
,
0000
0000
0000
0000
,
0000
0000
0000
0100
,
0000
0000
0000
0000
,
0000
0000
0000
0010
,
0000
0000
0000
0000
,
0000
0000
0000
0001
,
0000
0000
0000
0000
,
0000
0000
0000
0000
,
0110
0000
0110
0000
2002
3003
0100
0000
,
0000
0000
0000
0000
,
0000
0000
0000
0010
,
0000
0000
0000
1001
;

//--------------- dance-single - Wrland ----------------
#NOTEDATA:;
#STEPSTYPE:dance-single;
#DESCRIPTION:Wrland;
#DIFFICULTY:Easy;
#METER:4;
#RADARVALUES:0,0,0,0,0;
#NOTES:
0000
0000
0000
0000
,
0000
0000
0000
0000
,
0100
0000
0000
0000
,
1000
0000
0000
0000
,
0010
0000
0000
0000
,
0001
0000
0000
0000
,
0100
0000
0000
0000
,
1000
0000
0000
0000
,
0100
0000
0000
0000
,
0010
0000
0000
0000
,
0002
0003
2000
3000
,
2000
3000
0200
0300
,
0200
0000
0300
0000
,
0020
0000
0030
0000
,
0002
0000
0003
0000
,
2000
0000
0000
0000
0000
0000
0000
0000
0000
0000
0000
0000
0000
0000
0000
0000
0000
0000
0000
0000
0000
0000
0000
0000
0000
0000
0000
0000
0000
0000
0000
0000
0000
0000
0000
0000
0000
0000
0000
0000
0000
0000
0000
0000
0000
0000
0000
0000
0000
0000
0000
0000
0000
0000
0000
0000
0000
0000
0000
0000
0000
0000
0000
0000
0000
0000
0000
0000
0000
0000
0000
0000
0000
0000
0000
0000
0000
0000
0000
0000
0000
0000
0000
0000
0000
0000
0000
0000
0000
0000
0000
0000
0000
0000
0000
0000
3000
0000
0000
0000
0000
0000
0000
0000
0000
0000
0000
0000
0000
0000
0000
0000
0000
0000
0000
0000
0000
0000
0000
0000
0000
0000
0000
0000
0000
0000
0000
0000
0000
0000
0000
0000
0000
0000
0000
0000
0000
0000
0000
0000
0000
0000
0000
0000
0000
1001
0000
0000
0000
0000
0000
0000
0000
0000
0000
0000
0000
0000
0000
0000
0000
0000
0000
0000
0000
0000
0000
0000
0000
0000
0000
0000
0000
0000
0000
0000
0000
0000
0000
0000
0000
0000
0000
0000
0000
0000
0000
0000
0000
0000
0000
0000
,
0100
0100
1000
1100
,
0100
0100
0110
0001
,
0010
0001
0011
0100
,
0010
0100
1100
1000
,
0100
1000
1100
0100
,
0010
0001
0101
0010
,
0100
1000
0100
1000
,
1000
0001
1001
0200
,
0000
0300
0000
0020
,
0000
0030
0000
0200
,
0000
0300
0000
0020
,
0000
0030
0000
0002
,
1003
2000
3001
0200
,
0310
0020
0031
0001
,
0000
0000
0000
1000
,
0000
0000
0000
0100
,
0000
0000
0000
0010
,
0000
0000
0000
0100
,
0100
0010
0101
0010
,
0100
1000
1010
0100
,
1000
0100
0110
0001
,
0010
0001
0011
0100
,
0010
0100
1100
0100
,
0010
0001
0101
0010
,
0100
1000
1100
0100
,
0010
0100
0110
0100
,
0100
0010
0010
0001
,
0001
0010
0100
1000
,
0100
1000
0100
0010
,
0001
0100
0010
0110
,
0110
1001
1001
1000
,
0100
0010
0001
0010
,
0100
0010
0001
0100
,
0010
0100
0010
0110
;

//--------------- dance-single - Wrland ----------------
#NOTEDATA:;
#STEPSTYPE:dance-single;
#DESCRIPTION:Wrland;
#DIFFICULTY:Medium;
#METER:8;
#RADARVALUES:0,0,0,0,0;
#NOTES:
0000
0000
0000
0000
,
0000
0000
0000
0000
,
1000
0100
0010
0001
,
0010
0100
0010
0001
,
0010
0000
0000
0001
0000
0000
0100
0000
0000
0010
0000
0000
0200
0000
0300
0000
,
1000
0100
0010
0100
,
0010
0000
0000
0000
0001
1000
0001
0100
0000
0010
0000
0000
0100
0000
0000
0000
,
0010
0100
0010
0100
0010
0000
0001
0100
0000
0010
0000
0000
0110
0000
0000
0000
,
1000
0100
1000
0100
0010
0001
0010
0001
0010
0100
0010
0000
0100
0000
0110
0000
,
1000
0000
0001
1000
0001
1000
0001
1000
0001
0100
0010
0000
0100
0000
0010
0000
,
0001
0010
0100
0010
0001
0010
0100
0110
,
1000
0000
0100
1000
0000
0000
0100
0000
0010
0000
0001
0100
0000
0000
0010
0100
0010
0000
0001
0000
0100
0000
0010
0000
0100
0000
1000
0000
0100
0000
1000
0000
,
1000
0000
0010
0001
0000
0100
0000
0010
0000
0000
0100
0000
0010
0000
1000
0000
,
0100
0000
1000
0100
0000
0010
0000
0002
0000
0003
0000
0100
0010
0001
0100
0000
,
0010
0010
0100
0010
0001
0100
1000
0100
,
0100
0000
0000
0000
0000
0000
0000
0000
0000
0000
0000
0000
1000
0000
0000
0000
0000
0000
0000
0000
0000
0000
0000
0000
0100
0000
0000
0000
0000
0000
0000
0000
0000
0000
0000
0000
0010
0000
0000
0000
0000
0000
0000
0000
0000
0000
0000
0000
0001
0000
0000
0000
0000
0000
0000
0000
0000
0000
0000
0000
0100
0000
0000
0000
0000
0000
0000
0000
0000
0000
0000
0000
0010
0000
0000
0000
0000
0000
0000
0000
0000
0000
0000
0000
0001
0000
0000
0000
0000
0000
0000
0000
0000
0000
0000
0000
0200
0000
0000
0000
0000
0000
0000
0000
0000
0000
0000
0000
0000
0000
0000
0000
0000
0000
0000
0000
0000
0000
0000
0000
0300
0000
0000
0000
0000
0000
0000
0000
0000
0000
0000
0000
0000
0000
0000
0000
0000
0000
0000
0000
0000
0000
0000
0000
0110
0100
0000
0000
0000
0000
0000
0000
0000
0000
0000
0000
0000
0000
0000
0000
0000
0000
0000
0000
0000
0000
0000
0000
0010
0000
0000
0000
0000
0000
0000
0000
0000
0000
0000
0000
0100
0000
0000
0000
0000
0000
0000
0000
0000
0000
0000
0000
,
0000
0010
0000
0001
0000
0100
0000
1000
0100
0000
1000
0000
2000
0000
3000
0000
,
2000
0000
3000
0000
0200
0000
0300
0000
0202
0000
0000
0303
0010
0000
0100
0010
,
0000
0001
0000
0100
0000
0010
0000
0100
1000
0000
0100
0000
0200
0000
0300
0000
,
0020
0000
0030
0000
0200
0000
0300
0000
0220
0000
0330
0000
0010
0000
0001
0010
,
0000
0100
0000
1000
0000
0100
0000
0010
0001
0000
0100
0000
0200
0000
0300
0000
,
0020
0000
0030
0000
0002
0000
0003
0000
0220
0000
0330
0000
1000
0000
0100
1000
,
0000
0100
0000
0010
0000
0001
0000
0100
0010
0000
0100
0000
2200
0000
3300
0000
,
0220
0000
0330
0000
0022
0000
0033
0001
0010
0000
0100
0000
0020
0000
0030
0000
,
0200
0300
0020
0030
0002
0003
0100
0010
,
0100
0000
1000
0000
0100
0000
0000
0000
0010
0100
0000
0000
0020
0000
0030
0000
,
0002
0003
0020
0030
0200
0300
1000
0100
,
0010
0000
0001
0000
0100
0010
0000
0000
0100
0010
0000
0000
0002
0000
0003
0000
,
2000
3000
0002
0003
2000
3000
0200
0300
,
0020
0000
0030
0000
0200
0000
0300
0000
0020
0000
0030
0000
0001
0000
1000
0001
,
0010
0001
0020
0000
0030
0000
0100
0010
1000
0010
0002
0000
0103
0010
0000
0001
,
0010
0100
0010
0001
0100
0000
0010
0000
0100
0000
0010
0000
0001
0000
1000
0000
,
0001
0000
0100
0000
0010
0000
0100
0000
1000
0000
0100
0000
1000
0200
0000
0300
,
0010
0002
0000
0003
0110
0000
0000
0000
0000
0000
0000
0000
0110
0000
0100
0010
,
0000
0001
0000
0100
0000
0010
0000
1000
0100
0000
0010
0000
0200
0000
0300
0000
,
0200
0000
0300
0000
0002
0000
0003
0000
0220
0000
0330
0000
1000
0000
0001
1000
,
0000
0100
0000
0010
0000
0001
0000
0100
0010
0000
0100
0000
2020
0000
3030
0000
,
0220
0000
0330
0000
0022
0000
0033
0100
0010
0000
0100
0000
0010
0000
0100
0010
,
0000
0001
0000
0100
0000
0010
0000
1000
0100
0000
1000
0000
2000
0000
3000
0000
,
0200
0000
0300
0000
0020
0000
0030
0000
0202
0000
0000
0303
0010
0000
0100
0010
,
0000
0001
0000
0100
0000
0010
0000
0100
1000
0000
0100
0000
0020
0000
0030
0000
,
0200
0000
0300
0000
0010
0000
0001
0000
0100
0001
0010
0100
1010
0000
0100
0000
,
0010
0100
0010
0100
0010
0000
0001
0000
0100
0010
0100
1000
0100
0000
0100
0010
,
0000
0100
0000
0002
0000
0000
0003
0000
0100
0010
1000
0010
0200
0000
0300
0000
,
0100
0010
0100
0010
0100
0000
0010
0000
0001
0000
0100
0000
0001
0000
0100
0000
,
0001
0000
0100
0000
0010
1000
0100
0010
0001
0100
0010
0100
0000
0000
0000
0000
,
0100
0000
0010
0000
0100
0000
0010
0000
0001
0000
0100
0000
1000
0000
0100
1000
,
0000
0100
0000
0020
0000
0000
0030
0000
0100
0000
0010
0000
0001
0000
0100
0001
,
0000
0100
0000
0010
0000
1000
0000
0100
1000
0000
0100
0000
0110
0000
0000
0000
,
1001
0000
0110
0000
1001
1001
0000
0000
;

//--------------- dance-single - Wrland ----------------
#NOTEDATA:;
#STEPSTYPE:dance-single;
#DESCRIPTION:Wrland;
#DIFFICULTY:Hard;
#METER:11;
#RADARVALUES:0,0,0,0,0;
#NOTES:
0000
0000
0000
0000
,
0000
0000
0000
0000
,
0100
0000
0010
0100
0000
0020
0000
0030
0001
0000
0100
0001
0000
0200
0000
0300
,
1000
0010
0100
0001
0020
0030
0100
0001
0020
0030
0100
2000
3000
0200
0300
0000
,
0100
0200
0300
0220
0330
0000
0010
0200
0300
0001
0020
0030
0202
0000
0303
0000
,
2000
3000
0100
0020
0030
0001
0002
0003
0200
0300
0010
0100
0020
0030
0100
0000
,
0022
0000
0033
0100
1000
0100
1000
0100
0000
0010
0000
0010
0100
0010
0100
0010
,
0001
1000
0001
0100
0010
0001
1000
0010
0000
0100
0000
0000
MMMM
0000
0000
0000
,
0100
1000
0010
0001
0100
0001
0010
0100
0010
0100
0010
1000
0011
0000
0220
0000
,
0330
0000
0001
1000
0001
1000
0001
1000
0001
0100
0010
0100
0010
0000
0100
0000
,
0010
0000
0100
0010
0000
0100
0020
0000
0030
0000
0001
0000
1000
0000
0001
0000
1000
0000
0001
1000
0000
0001
1000
0200
0000
0300
0010
0000
0100
0000
0010
1000
,
0001
0000
0100
0020
0000
0030
0100
0100
2000
3000
0100
0020
0000
0030
0001
0100
0010
0000
0100
0000
1000
0000
0100
0000
0010
0000
0001
0000
0110
0000
1001
0000
,
0100
0000
0010
0100
0000
0010
0000
0002
0000
0003
0100
0000
1000
0000
0100
0000
,
0010
0000
0001
0100
0000
0010
0000
0200
0000
0300
0000
0010
0100
0010
0200
0000
,
0300
0011
0011
1100
1100
1100
0110
1001
,
1000
0000
0000
0000
0000
0000
0000
0000
0000
0000
0000
0000
0000
0000
0000
0000
0000
0000
0000
0000
0000
0000
0000
0000
1000
0000
0000
0000
0000
0000
0000
0000
0000
0000
0000
0000
0000
0000
0000
0000
0000
0000
0000
0000
0000
0000
0000
0000
0001
0000
0000
0000
0000
0000
0000
0000
0000
0000
0000
0000
1000
0000
0000
0000
0000
0000
0000
0000
0000
0000
0000
0000
0001
0000
0000
0000
0000
0000
0000
0000
0000
0000
0000
0000
1000
0000
0000
0000
0000
0000
0000
0000
0000
0000
0000
0000
2002
0000
0000
0000
0000
0000
0000
0000
0000
0000
0000
0000
0000
0000
0000
0000
0000
0000
0000
0000
0000
0000
0000
0000
3003
0000
0000
0000
0000
0000
0000
0000
0000
0000
0000
0000
0000
0000
0000
0000
0000
0000
0000
0000
0000
0000
0000
0000
1MM1
1000
0000
0000
0000
0000
0000
0000
0000
0000
0000
0000
0000
0000
0000
0000
0000
0000
0000
0000
0000
0000
0000
0000
0100
0000
0000
0000
0000
0000
0000
0000
0000
0000
0000
0000
0010
0000
0000
0000
0000
0000
0000
0000
0000
0000
0000
0000
,
0000
0001
0000
0100
0000
0010
0000
1000
0010
0000
1000
0000
0100
0000
0001
0100
,
0000
0001
0000
0100
0000
0010
0100
0000
0220
0000
0330
0000
0001
0000
0010
0001
,
0000
0010
0000
0100
0000
1000
0000
0100
1000
0000
0100
0000
0010
0000
0001
0100
,
0000
0010
0000
0100
0000
0010
0001
0000
0202
0000
0303
0000
0100
0000
0100
1000
,
0000
0100
0000
0010
0000
0001
0000
0100
0010
0000
0100
0000
1000
0000
0100
0010
,
0000
0001
0000
0100
0000
0010
0100
0000
0220
0000
0330
0000
1000
0000
0001
1000
,
0000
0001
0000
0100
0000
0010
0000
0001
1000
0000
0001
0000
2002
0000
3003
0000
,
2200
0000
3300
0000
0220
0000
0330
0001
0100
0000
0001
0000
2000
0000
3000
0000
,
2200
3300
0200
0300
0220
0330
0010
0010
,
0001
0000
0010
0001
0100
1000
0000
0000
0100
0010
0000
0000
0200
0000
0300
0000
,
2000
0000
3000
0000
0100
0020
0000
0030
0002
0000
0000
0003
0010
0000
0100
0000
,
1000
0000
0000
0000
0000
0000
0100
0000
0000
0000
0000
0000
0001
0000
0000
0100
0000
0000
0000
0000
0000
0000
0000
0000
0001
0000
0000
0100
0000
0000
0000
0000
0000
0000
0000
0000
0010
0000
0000
0000
0000
0000
0100
0000
0010
0000
0001
0000
,
0100
0000
0010
0000
1000
0000
0200
0000
0000
0300
0020
0000
0000
0000
0030
0000
0000
0000
0100
0000
0010
0000
0001
0000
0100
0000
0010
0000
1000
0000
0200
0000
0300
0000
2000
0000
0000
0000
3000
0000
0000
0000
1000
0000
0100
0000
0010
0000
,
0001
0000
0100
0000
0010
0000
0100
0000
0100
0000
1000
0000
0001
0000
0100
0000
0010
0000
0001
0000
0100
0000
0010
0000
0002
0000
0000
0000
0003
0000
2002
0000
0000
0000
3003
0000
0100
0000
0000
0000
0000
0000
0010
0000
0000
0100
0000
0000
,
0010
0100
0020
0000
0030
0000
0001
0010
0001
0010
0002
0003
0010
0100
0000
1000
,
0100
0001
0010
0001
0100
0000
0010
1000
0100
0001
0000
0000
0100
0000
1100
0000
,
0100
0000
0110
0000
0010
0000
0011
0000
0001
0000
0011
0000
0010
0200
0000
0300
,
1000
0200
0000
0300
0011
0000
0000
0000
0000
0000
MMMM
0000
0100
0000
0010
0100
,
0000
0010
0000
0001
0000
0100
0000
1000
0100
0000
0010
0000
0001
0000
0100
0010
,
0000
0100
0000
1000
0000
0100
1000
0000
2200
0000
3300
0000
0100
0000
0010
0001
,
0000
0100
0000
0010
0000
0001
0000
0100
0010
0000
0100
0000
2002
0000
3003
0000
,
2002
0000
3003
0000
0220
0000
0330
0110
0110
0000
0110
0000
0010
0000
0100
0010
,
0000
0001
0000
0100
0000
1000
0000
0100
0010
0000
0001
0000
0100
0000
1000
0100
,
0000
0010
0000
0001
0000
0100
0010
0000
0202
0000
0303
0000
0010
0000
0100
0010
,
0000
0100
0000
1000
0000
0100
0000
0100
1000
0000
0100
0000
0110
0000
0110
0000
,
0110
0000
0100
0010
0001
0100
0010
1000
0100
0010
0001
0100
0010
0000
0100
0000
,
0010
0100
0010
0001
0100
0000
0010
0000
1000
0100
1000
0100
1000
0000
0100
0010
,
0000
0001
0000
0200
0000
0000
0300
0000
0010
1000
0100
0010
0001
0000
0100
0000
,
0010
0100
0010
0100
1000
0000
0100
0000
0011
0000
0100
0010
0100
0001
0010
0001
,
0100
0010
0100
1000
0100
0000
0010
0100
0010
0000
0001
1000
0100
0000
0010
0100
,
0022
0000
0033
0000
0220
0000
0330
0000
1MM1
0000
0000
0000
0100
0000
0010
0100
,
0000
0010
0000
0002
0000
0000
0003
0000
0200
0000
0000
0000
0310
0000
0010
0100
,
0000
0010
0000
0001
0000
0100
0000
0010
0100
0000
0010
0000
2200
0000
3300
0000
,
0220
0000
0330
0000
0022
0000
0033
0001
1000
0000
0001
0000
1001
0000
0000
0000
;
