#VERSION:0.83;
#TITLE:Buttons ft. Snoop Dogg;
#SUBTITLE:;
#ARTIST:The Pussycat Dolls;
#TITLETRANSLIT:;
#SUBTITLETRANSLIT:;
#ARTISTTRANSLIT:;
#GENRE:Pop;
#ORIGIN:;
#TAGS:;
#CREDIT:;
#BANNER:Buttons ft. Snoop Dogg.png;
#BACKGROUND:Buttons ft. Snoop Dogg-bg.png;
#PREVIEWVID:;
#JACKET:Buttons ft. Snoop Dogg-jacket.png;
#CDIMAGE:Buttons ft. Snoop Dogg-cd.png;
#DISCIMAGE:;
#LYRICSPATH:;
#CDTITLE:Wrland Season 3 CITYGHT.png;
#MUSIC:Buttons ft. Snoop Dogg.ogg;
#OFFSET:0.007000;
#SAMPLESTART:17.356001;
#SAMPLELENGTH:12.000000;
#SELECTABLE:YES;
#BPMS:0.000000=105.393997
;
#STOPS:;
#DELAYS:;
#WARPS:;
#TIMESIGNATURES:0.000000=4=4
;
#TICKCOUNTS:0.000000=4
;
#COMBOS:0.000000=1
;
#SPEEDS:0.000000=1.000000=0.000000=0
;
#SCROLLS:0.000000=1.000000
;
#LABELS:0.000000=Song Start
;
#BGCHANGES:0.000=Buttons ft. Snoop Dogg.avi=1.000=0=0=0=StretchNoLoop====,
99999.000=-nosongbg-=1.000=0=0=0=StretchNoLoop====,
99999=-nosongbg-=1.000=0=0=0 // don't automatically add -songbackground-
;
#KEYSOUNDS:;
#ATTACKS:
;

//---------------dance-single - ----------------
#NOTEDATA:;
#CHARTNAME:;
#CHARTHASH:2147483647;
#STEPSTYPE:dance-single;
#BANNER:;
#DESCRIPTION:;
#CHARTSTYLE:;
#DIFFICULTY:Beginner;
#METER:1;
#METERF:0.000000;
#LASTSECONDHINT:166.226364;
#RADARVALUES:0.027143,0.042031,0.000000,0.005758,0.000000,33.000000,33.000000,0.000000,1.000000,0.000000,0.000000,0.000000,0.000000,0.000000,0.027143,0.042031,0.000000,0.005758,0.000000,33.000000,33.000000,0.000000,1.000000,0.000000,0.000000,0.000000,0.000000,0.000000;
#CREDIT:;
#NOTES:
0000
0000
0000
0000
,
0000
0000
0000
0000
,
0000
0000
0000
0000
,
0000
0000
0000
0000
,
0000
0000
0000
0000
,
0000
0000
0000
0000
,
0000
0000
0000
0000
,
0000
0000
0000
0000
,
1000
0000
0000
0000
,
0000
0000
0000
0000
,
1000
0000
0000
0000
,
0000
0000
0000
0000
,
0010
0000
0000
0000
,
0000
0000
0000
0000
,
0010
0000
0000
0000
,
0000
0000
0000
0000
,
0100
0000
0000
0000
,
0000
0000
0000
0000
,
0100
0000
0000
0000
,
0000
0000
0000
0000
,
0001
0000
0000
0000
,
0000
0000
0000
0000
,
0010
0000
0000
0000
,
0000
0000
0000
0000
,
0100
0000
0000
0000
,
0000
0000
0000
0000
,
1000
0000
0000
0000
,
0000
0000
0000
0000
,
0100
0000
0000
0000
,
0000
0000
0000
0000
,
1000
0000
0000
0000
,
0000
0000
0000
0000
,
0010
0000
0000
0000
,
0000
0000
0000
0000
,
0001
0000
0000
0000
,
0000
0000
0000
0000
,
0010
0000
0000
0000
,
0000
0000
0000
0000
,
0100
0000
0000
0000
,
0000
0000
0000
0000
,
0010
0000
0000
0000
,
0000
0000
0000
0000
,
0100
0000
0000
0000
,
0000
0000
0000
0000
,
1000
0000
0000
0000
,
0000
0000
0000
0000
,
0100
0000
0000
0000
,
0000
0000
0000
0000
,
1000
0000
0000
0000
,
0000
0000
0000
0000
,
1000
0000
0000
0000
,
0000
0000
0000
0000
,
0001
0000
0000
0000
,
0000
0000
0000
0000
,
0001
0000
0000
0000
,
0000
0000
0000
0000
,
0100
0000
0000
0000
,
0000
0000
0000
0000
,
0010
0000
0000
0000
,
0000
0000
0000
0000
,
0100
0000
0000
0000
,
0000
0000
0000
0000
,
1000
0000
0000
0000
,
0000
0000
0000
0000
,
1000
0000
0000
0000
,
0000
0000
0000
0000
,
0001
0000
0000
0000
,
0000
0000
0000
0000
,
0100
0000
0000
0000
,
0000
0000
0000
0000
,
0010
0000
0000
0000
,
0000
0000
0000
0000
,
0200
0000
0000
0000
,
0300
0000
0000
0000
;

//---------------dance-single - ----------------
#NOTEDATA:;
#CHARTNAME:;
#CHARTHASH:950993109;
#STEPSTYPE:dance-single;
#BANNER:;
#DESCRIPTION:;
#CHARTSTYLE:;
#DIFFICULTY:Easy;
#METER:2;
#METERF:0.000000;
#LASTSECONDHINT:166.226364;
#RADARVALUES:0.057576,0.084062,0.005758,0.011515,0.000000,70.000000,69.000000,1.000000,2.000000,0.000000,0.000000,0.000000,0.000000,0.000000,0.057576,0.084062,0.005758,0.011515,0.000000,70.000000,69.000000,1.000000,2.000000,0.000000,0.000000,0.000000,0.000000,0.000000;
#CREDIT:;
#NOTES:
// measure 0
0000
0000
0000
0000
,  // measure 1
0000
0000
0000
0000
,  // measure 2
0000
0000
0000
0000
,  // measure 3
0000
0000
0000
0000
,  // measure 4
0010
0000
0000
0000
,  // measure 5
0010
0000
0000
0000
,  // measure 6
0100
0000
0000
0000
,  // measure 7
0100
0000
0000
0000
,  // measure 8
1000
0000
0000
0000
,  // measure 9
0001
0000
0000
0000
,  // measure 10
1000
0000
0000
0000
,  // measure 11
0100
0000
0000
0000
,  // measure 12
0010
0000
0000
0000
,  // measure 13
0100
0000
0000
0000
,  // measure 14
0010
0000
0000
0000
,  // measure 15
1000
0000
0000
0000
,  // measure 16
0100
0000
0000
0000
,  // measure 17
0010
0000
0000
0000
,  // measure 18
0100
0000
0000
0000
,  // measure 19
0010
0000
0000
0000
,  // measure 20
0100
0000
0000
0000
,  // measure 21
0100
0000
0000
0000
,  // measure 22
0010
0000
0000
0000
,  // measure 23
0001
0000
0000
0000
,  // measure 24
1000
0000
0000
0000
,  // measure 25
1000
0000
0000
0000
,  // measure 26
0100
0000
0000
0000
,  // measure 27
0010
0000
0000
0000
,  // measure 28
0100
0000
0000
0000
,  // measure 29
0100
0000
0000
0000
,  // measure 30
0010
0000
0000
0000
,  // measure 31
0001
0000
0000
0000
,  // measure 32
1000
0000
0000
0000
,  // measure 33
1000
0000
0000
0000
,  // measure 34
0100
0000
0000
0000
,  // measure 35
0010
0000
0000
0000
,  // measure 36
0001
0000
0000
0000
,  // measure 37
0010
0000
0000
0000
,  // measure 38
0100
0000
0000
0000
,  // measure 39
1000
0000
0000
0000
,  // measure 40
0100
0000
0000
0000
,  // measure 41
1000
0000
0000
0000
,  // measure 42
0100
0000
0000
0000
,  // measure 43
1000
0000
0000
0000
,  // measure 44
1000
0000
0000
0000
,  // measure 45
0100
0000
0000
0000
,  // measure 46
0010
0000
0000
0000
,  // measure 47
0100
0000
0000
0000
,  // measure 48
1000
0000
0000
0000
,  // measure 49
1000
0000
0000
0000
,  // measure 50
0100
0000
0000
0000
,  // measure 51
0100
0000
0000
0000
,  // measure 52
0010
0000
0000
0000
,  // measure 53
0100
0000
0000
0000
,  // measure 54
0010
0000
0000
0000
,  // measure 55
0100
0000
0000
0000
,  // measure 56
0001
0000
0000
0000
,  // measure 57
0001
0000
0000
0000
,  // measure 58
0010
0000
0000
0000
,  // measure 59
0100
0000
0000
0000
,  // measure 60
1000
0000
0000
0000
,  // measure 61
0100
0000
0000
0000
,  // measure 62
1000
0000
0000
0000
,  // measure 63
1000
0000
0000
0000
,  // measure 64
0010
0000
0000
0000
,  // measure 65
0001
0000
0000
0000
,  // measure 66
0100
0000
0000
0000
,  // measure 67
0010
0000
0000
0000
,  // measure 68
1000
0000
0000
0000
,  // measure 69
0100
0000
0000
0000
,  // measure 70
0010
0000
0000
0000
,  // measure 71
0001
0000
0000
0000
,  // measure 72
2002
0000
0000
0000
,  // measure 73
3003
0000
0000
0000
;

//---------------dance-single - ----------------
#NOTEDATA:;
#CHARTNAME:;
#CHARTHASH:2147483647;
#STEPSTYPE:dance-single;
#BANNER:;
#DESCRIPTION:;
#CHARTSTYLE:;
#DIFFICULTY:Medium;
#METER:4;
#METERF:0.000000;
#LASTSECONDHINT:166.226364;
#RADARVALUES:0.212210,0.252185,0.063334,0.143941,0.000000,258.000000,247.000000,11.000000,25.000000,0.000000,0.000000,0.000000,0.000000,0.000000,0.212210,0.252185,0.063334,0.143941,0.000000,258.000000,247.000000,11.000000,25.000000,0.000000,0.000000,0.000000,0.000000,0.000000;
#CREDIT:;
#NOTES:
0000
0000
0000
0000
,
0000
0000
0000
0000
,
0000
0000
0000
0000
,
0000
0000
0000
0000
,
0020
0000
0030
0100
,
2000
0000
0000
3000
,
2000
0000
3000
1000
,
0200
0000
0300
0000
,
0100
0100
0100
0010
,
0001
0001
0001
0010
,
0100
1000
0100
1000
,
1000
0100
1000
0100
,
0010
0001
0010
0100
,
0100
1000
0100
0010
,
0001
0010
0010
0100
,
1000
0100
2002
3003
,
0100
1000
0100
1000
,
0100
0010
0100
0010
,
0001
0010
0100
0010
,
0100
0010
0100
1000
,
1000
1000
0100
0010
,
0001
0010
0100
0010
,
0100
0010
0100
1000
,
1000
1000
0100
1000
,
1000
0100
0010
0100
,
0100
1000
0100
0010
,
0001
0010
0001
0010
,
0100
0100
1000
0100
,
0010
0100
0010
0100
,
0010
0001
0010
0100
,
0010
0100
0010
0100
,
1000
0100
0010
0001
0020
0000
0030
0000
,
0100
0010
0100
1000
,
1000
0100
0010
0001
,
0100
0010
0100
1000
,
0100
1000
0100
0010
,
0100
0010
0100
0010
,
0001
0010
0100
0010
,
0100
0010
1000
0100
,
1000
0100
0010
0001
,
2000
3000
0200
0300
,
0020
0030
0200
0300
,
0020
0030
0002
0003
,
0020
0030
0200
0300
,
2000
3000
0200
0300
,
0020
0030
0200
0300
,
0020
0030
0002
0003
,
0020
0030
0200
0300
,
1000
1000
1000
1001
,
0001
0001
0001
1001
,
0010
0010
0010
0110
,
0100
0100
0100
0110
,
0100
1000
0100
1100
,
0100
0010
0100
0110
,
0010
0001
0010
0011
,
0010
0100
1000
0100
,
1000
1000
0100
0010
,
0100
0010
0001
0100
,
0010
0100
0010
0100
,
1000
0100
1000
0100
,
0010
0001
0010
0100
,
1000
0100
1000
0100
,
0010
0100
1000
0100
,
0010
0100
0010
0001
,
1001
0010
0100
0010
,
0100
1000
0100
0010
,
0001
0100
0010
0100
,
1000
0100
0010
0001
,
0010
0100
1000
0100
,
1000
0100
0010
0001
,
0010
0100
0010
0100
,
0010
0100
0110
0100
,
2002
0000
0000
0000
,
3003
0000
0000
0000
;

//---------------dance-single - ----------------
#NOTEDATA:;
#CHARTNAME:;
#CHARTHASH:986322739;
#STEPSTYPE:dance-single;
#BANNER:;
#DESCRIPTION:;
#CHARTSTYLE:;
#DIFFICULTY:Hard;
#METER:9;
#METERF:0.000000;
#LASTSECONDHINT:166.226364;
#RADARVALUES:0.414551,0.483355,0.282125,0.431824,0.089244,504.000000,455.000000,49.000000,75.000000,0.000000,0.000000,0.000000,0.000000,0.000000,0.414551,0.483355,0.282125,0.431824,0.089244,504.000000,455.000000,49.000000,75.000000,0.000000,0.000000,0.000000,0.000000,0.000000;
#CREDIT:;
#NOTES:
0000
0000
0000
0000
,
0000
0000
0000
0000
,
0000
0000
0000
0000
,
0000
0000
0000
0000
,
2000
0000
0000
0000
3000
0000
1000
0001
,
2000
0000
0000
0000
3000
0000
0100
0010
,
0200
0000
0000
0300
,
2002
0000
0000
0000
0000
0000
0000
0000
3003
0000
1000
0000
0100
0010
0001
0010
,
1001
0100
0010
0100
0020
0030
0001
0010
,
0100
1000
0100
1000
0200
0300
1001
0000
,
0100
1000
0100
0010
0001
0010
0100
1000
,
0100
0000
1000
0000
0100
0000
0010
0000
0001
0000
0100
0000
0010
0100
0010
0100
,
0001
0100
1000
0100
2000
3000
1100
0010
,
0100
0010
0100
0010
0002
0003
0101
0000
,
0010
0100
0010
0100
1000
0100
1000
0100
,
0100
1000
0100
0100
0110
0000
0200
0300
,
0100
1000
0020
0030
0100
0010
0100
0010
,
0001
0100
0010
0000
0001
1000
0001
1000
,
0100
1000
2200
3300
0100
0010
0100
0010
,
0000
0100
0020
0030
0100
0010
0100
0010
,
0001
0000
0101
0000
0010
0000
1100
0000
0100
0010
0100
0010
0000
0001
0010
0000
,
0100
0000
0010
0000
1000
0000
0100
0000
1000
0001
1000
0001
0000
0100
0010
0000
,
0100
0000
0010
0000
0100
0000
0010
0000
0100
0010
0100
0010
0000
0010
1000
0000
,
0010
0100
0001
0100
0001
1000
2002
3003
,
0100
0010
0020
0030
0100
0010
0200
0300
,
0100
0010
1000
2020
3030
0100
0010
0100
,
0010
0100
1000
0100
0010
0001
0100
1000
,
0010
0000
0100
0000
1000
0000
0200
0000
0300
0000
1000
0100
1000
0000
0100
0000
,
0020
0030
2002
3003
0100
0010
0100
1000
,
0200
0000
0300
0000
2200
0000
3300
0000
0100
0000
0010
0100
0010
0000
0100
0000
,
0022
0000
0033
0000
0100
0000
0010
0001
1000
0000
0100
0000
0020
0000
0030
0000
,
0100
0000
1000
0000
0100
0000
1000
0000
2002
0000
3003
0000
0100
0000
0010
0100
,
0010
0100
0010
0100
2002
3003
1010
0100
,
0010
1000
0010
0100
0020
0030
0110
0000
,
1000
0001
0100
0010
1000
0010
0100
0010
,
1000
0000
0001
0000
0100
0000
0010
0000
1000
0000
0010
0000
1000
0000
0010
1000
,
0010
0100
0010
0100
2020
3030
0101
0100
,
0010
1000
0010
0100
0220
0330
1010
0000
,
0100
0001
0100
0001
0010
0001
0100
0101
,
0110
0100
0010
1000
1010
0000
0202
0303
,
2002
0000
0000
0000
3003
0000
1000
0100
,
2000
0000
0000
0000
0000
3000
0100
1000
,
0200
0000
0000
0000
0300
0000
0100
0010
,
0002
0000
0000
0003
0010
0000
0100
0000
,
2002
0000
0000
0000
3003
0000
1000
0100
,
2000
0000
0000
0000
0000
3000
0100
0010
,
0200
0000
0000
0000
0000
0300
0010
0001
,
0020
0000
0000
0030
2000
0000
0000
3000
,
0100
0010
0100
0010
0100
0001
0202
0303
,
1000
0000
0010
0000
1000
0000
0010
0000
0100
0000
0010
0000
0110
0000
0001
0001
,
1000
0010
0100
0010
1000
0010
2020
3030
,
0200
0000
0300
0010
0200
0000
0300
0001
0100
0000
0001
0000
1000
0100
0010
0001
,
0100
0010
1000
0010
0100
0010
2020
3030
,
0100
0000
0001
0000
0100
0000
0001
0000
0100
0000
0001
0000
0011
0010
0010
0010
,
0001
0100
0010
1000
0001
0100
2020
3030
,
2000
0000
3000
0010
0200
0000
0300
0001
0100
0000
0001
0000
1000
0000
0100
1000
,
0101
0010
0100
0010
2020
3030
0101
1000
,
0010
0100
0010
1000
0020
0030
0110
0000
,
1000
0001
0100
0010
1000
0010
0110
0010
,
1000
0000
0010
0000
0100
0000
0001
0000
0100
0000
0010
0000
1000
0000
0010
1000
,
0010
0100
0010
1000
0002
0003
0101
0100
,
0010
1000
0100
0010
2000
3000
1010
0000
,
0100
0010
1000
0010
0100
0010
0100
0110
,
1000
0000
0010
0000
0100
0000
0001
0000
1001
0000
0000
0000
0110
0000
1000
0001
,
1000
0100
0010
1000
0020
0030
0100
0010
,
1000
0010
0100
0010
2000
3000
1010
0000
,
0100
0010
1000
0010
0100
0010
0100
0001
,
0100
0000
0001
0000
0010
0000
0100
0000
0001
0000
0100
0000
0001
0000
1000
0001
,
0100
0010
1000
0010
0200
0300
1001
0010
,
0100
0010
0100
0010
2000
3000
0100
0000
,
0100
1000
0100
0010
0100
0010
0100
0001
,
0100
0010
0100
0010
1001
0000
0110
0000
,
2002
0000
0000
0000
,
3003
0000
0000
0000
;
