#TITLE:Burning Love;
#SUBTITLE:;
#ARTIST:阿部靖広 feat.Luca;
#TITLETRANSLIT:;
#SUBTITLETRANSLIT:;
#ARTISTTRANSLIT:Yasuhiro Abe feat.Luca;
#GENRE:BEMANI;
#CREDIT:Wrland;
#MUSIC:Burning Love.ogg;
#BANNER:Burning Love.png;
#BACKGROUND:Burning Love-bg.png;
#CDTITLE:Wrland Season 3 CITYGHT + last one night.png;
#SAMPLESTART:35.913;
#SAMPLELENGTH:12.000;
#SELECTABLE:YES;
#OFFSET:-4.148;
#BPMS:0.000=85.000;
#STOPS:;
#DISPLAYBPM:85.000;
#JACKET:Burning Love-jacket.png;
#CDIMAGE:Burning Love-cd.png;
#METERTYPE:DDR X;
#BGCHANGES:;
#FGCHANGES:;

//--------------- dance-single - Wrland ----------------
#NOTES:
     dance-single:
     Wrland:
     Beginner:
     2:
     0,0,0,0,0:
0000
0000
0000
0000
,
0000
0000
0000
0000
,
0100
0000
0000
0000
,
0000
0100
0000
0000
0000
0000
0000
0000
0000
0000
0000
0000
0000
0000
0000
0000
,
0010
0000
0000
0000
,
0000
1000
0000
0000
0000
0000
0000
0000
0000
0000
0000
0000
0000
0000
0000
0000
,
0000
0100
0000
0000
0000
0000
0000
0000
0000
0000
0000
0000
0000
0000
0000
0000
,
0000
0010
0000
0000
0000
0000
0000
0000
0000
0000
0000
0000
0000
0000
0000
0000
,
0000
0100
0000
0000
0000
0000
0000
0000
0000
0000
0000
0000
0000
0000
0000
0000
,
0000
1000
0000
0000
0000
0000
0000
0000
0000
0000
0000
0000
0000
0000
0000
0000
,
0200
0300
0010
0000
,
0000
0000
0000
0000
0000
0000
0000
0000
0000
1000
0000
0000
0000
0000
0000
0000
,
0000
0000
0000
0000
0000
0000
0000
0000
0000
0100
0000
0000
0000
0000
0000
0000
,
0000
0000
0000
0000
0000
0000
0000
0000
0000
0010
0000
0000
0000
0000
0000
0000
,
0000
0000
0100
0000
,
0000
0000
0000
0000
0000
0000
0000
0000
0000
1000
0000
0000
0000
0000
0000
0000
,
0000
0000
0000
0000
0000
0000
0000
0000
0000
0001
0000
0000
0000
0000
0000
0000
,
0000
0000
0000
0000
0000
0000
0000
0000
0000
0200
0000
0000
0000
0000
0000
0000
,
0300
0000
0010
0000
,
0000
0000
0000
0000
0000
0000
0000
0000
0000
0100
0000
0000
0000
0000
0000
0000
,
0000
0000
1000
0000
,
0000
0000
0000
0000
0000
0000
0000
0000
0000
0001
0000
0000
0000
0000
0000
0000
,
0000
0000
0100
0000
,
0000
0000
0000
0000
0000
0000
0000
0000
0000
0010
0000
0000
0000
0000
0000
0000
,
0000
0000
0100
0000
,
0000
0000
0000
0000
0000
0000
0000
0000
0000
1000
0000
0000
0000
0000
0000
0000
,
0000
0000
0000
0000
0000
0000
0000
0000
0000
0001
0000
0000
0000
0000
0000
0000
,
0000
0000
0000
0000
0000
0000
0000
0000
0000
0200
0000
0000
0000
0000
0000
0000
,
0300
0000
0000
0000
0000
0000
0000
0000
0000
1000
0000
0000
0000
0000
0000
0000
,
0000
0000
0000
0000
0000
0000
0000
0000
0000
0100
0000
0000
0000
0000
0000
0000
,
0000
0000
0020
0030
,
0100
0000
0000
0000
,
0000
0010
0000
0000
0000
0000
0000
0000
0000
0000
0000
0000
0000
0000
0000
0000
,
0000
0001
0000
0000
0000
0000
0000
0000
0000
0000
0000
0000
0000
0000
0000
0000
,
0000
1000
0000
0000
0000
0000
0000
0000
0000
0000
0000
0000
0000
0000
0000
0000
,
0100
0000
0000
0000
,
0000
0010
0000
0000
0000
0000
0000
0000
0000
0000
0000
0000
0000
0000
0000
0000
,
0000
0001
0000
0000
0000
0000
0000
0000
0000
0000
0000
0000
0000
0000
0000
0000
,
0000
2000
0000
0000
0000
0000
0000
0000
0000
0000
0000
0000
3000
0000
0000
0000
;

//--------------- dance-single - Wrland ----------------
#NOTES:
     dance-single:
     Wrland:
     Easy:
     4:
     0,0,0,0,0:
0000
0000
0000
0000
,
0000
0000
0000
0000
,
1000
0000
0000
0000
0000
0000
0000
1000
0000
0000
0000
0000
0000
0000
0000
0000
,
0000
0100
0000
0000
0000
0000
0000
0000
0000
0100
0000
0000
0000
0000
0000
0000
,
0010
0000
0000
0000
0000
0000
0000
0010
0000
0000
0000
0000
0000
0000
0000
0000
,
0000
0100
0000
0000
0000
0000
0000
0000
0000
0100
0000
0000
0000
0000
0000
0000
,
0000
0010
0000
0000
0000
0000
0000
0000
0000
0000
0000
0000
0100
0000
0000
0000
,
0000
1000
0000
0000
0000
0000
0000
0000
0000
0100
0000
0000
0000
0000
0000
0000
,
0000
0010
0000
0000
0000
0000
0000
0000
0000
0001
0000
0000
0000
0000
0000
0000
,
0000
0100
0000
0000
0000
0000
0000
0000
0000
0100
0000
0000
0000
0000
0000
0000
,
0020
0030
0100
0000
,
0000
1000
0000
0000
0000
0000
0000
0000
0000
0100
0000
0000
0000
0000
0000
0000
,
0000
0010
0000
0000
0000
0000
0000
0000
0000
0100
0000
0000
0000
0000
0000
0000
,
0000
0100
0000
0000
0000
0000
0000
0000
0000
1000
0000
0100
1000
0000
0000
0100
,
0000
0010
0100
0000
0000
0000
0000
0000
0010
0000
0000
0000
0000
0000
0000
0000
,
0000
0001
0000
0000
0000
0000
0000
0000
0000
0100
0000
0000
0000
0000
0000
0000
,
0000
1000
0000
0000
0000
0000
0000
0000
0000
0100
0000
0000
0000
0000
0000
0000
,
0000
0100
0000
0000
0000
0000
0000
0000
0000
0010
0000
0001
0020
0000
0030
0000
,
0100
0100
0000
0100
0000
1000
0000
0000
0100
0000
0000
0000
0000
0000
0000
0000
,
0000
0000
1000
0000
0000
0000
0000
0000
0000
0100
0000
0000
0000
0000
0000
0000
,
0000
0010
0000
0000
0001
0000
0000
0000
,
0000
0000
0100
0000
0000
0000
0000
0000
0000
1000
0000
0000
0000
0000
0000
0000
,
0000
0100
0000
0000
0010
0000
0000
0000
,
0000
0000
0100
0000
0000
0000
0000
0000
0000
1000
0000
0000
0000
0000
0000
0000
,
0000
0001
0000
0000
0100
0000
0000
0000
,
0010
0000
0000
0000
0000
0000
0000
0000
0000
1000
0000
0000
0000
0000
0000
0000
,
0000
0000
0100
0000
0000
0000
0000
0000
0000
0010
0000
0000
0000
0000
0000
0000
,
0000
0000
0000
0000
0100
0000
0000
0000
0000
0020
0000
0000
0000
0000
0000
0000
,
0030
0000
0000
0000
0000
0000
0000
0000
0000
0100
0000
0000
0000
0000
0000
0000
,
0000
0000
0000
0000
0010
0000
0000
0000
0000
0001
0000
0000
0000
0000
0000
0000
,
0100
1000
0100
0010
1000
0000
0010
0000
0001
0000
0000
0000
0000
0000
0000
0000
,
0100
0000
0000
0000
0000
0000
0000
0010
0000
0000
0000
0000
0000
0000
0000
0000
,
0000
0001
0000
0000
0000
0000
0000
1000
0000
0000
0000
0000
0000
0000
0000
0000
,
0000
0100
0000
0000
0000
0000
0000
0000
0000
0010
0000
0000
0000
0000
0000
0000
,
0000
0100
0000
1000
0100
0000
0000
0100
0000
0010
0100
0000
0000
0000
0000
0000
,
0001
0000
0000
0000
0000
0000
0000
0000
0000
0100
0000
0000
0000
0000
0000
0000
,
0000
1000
0000
0000
0000
0000
0000
0100
0000
0000
0000
0000
0000
0000
0000
0000
,
0000
0010
0000
0000
0000
0000
0000
0100
0010
0000
0000
0000
0000
0100
0000
0000
,
0000
0100
0000
0010
0200
0000
0000
0000
0000
0000
0000
0000
0300
0000
0000
0000
;

//--------------- dance-single - Wrland ----------------
#NOTES:
     dance-single:
     Wrland:
     Medium:
     7:
     0,0,0,0,0:
0000
0000
0000
0000
,
0000
0000
0000
0000
,
0010
0000
0001
0010
0001
0020
0030
0100
0000
0000
1000
0000
1000
0000
0000
0000
,
0000
0100
0000
0010
0000
0100
0000
0010
0000
0001
0000
0100
0020
0000
0030
0000
,
0100
0000
1000
0100
1000
0200
0300
0100
0000
0000
0010
0000
0010
0000
0000
0000
,
0000
0100
0000
0010
0000
0001
0000
0010
0000
0100
0000
1000
0000
0100
0002
0000
,
0003
0010
0000
0000
0100
0000
1000
0200
0000
0300
0000
0000
0100
0000
0010
0200
,
0300
0001
1000
0001
1000
0001
2000
0000
3000
0100
0010
0100
0010
0100
0020
0000
,
0030
0100
0000
0000
0010
0000
0100
0020
0000
0000
0030
0000
0001
0000
0001
2000
,
3000
0100
0000
0000
0010
0100
0000
0000
0010
0100
0010
0001
1100
0000
0011
0000
,
0220
0000
0000
0000
0330
0000
0000
0000
1000
0000
0100
0020
0000
0030
0000
0100
,
0001
0010
1000
0010
0100
0010
0000
0002
0003
0100
0010
0200
0000
0300
0000
0010
,
0100
0010
0000
0001
0100
0020
0030
0200
0300
1000
0100
1000
0100
0000
0010
0100
,
0020
0000
0000
0030
0001
0100
0000
0010
0000
0010
0000
0100
0020
0000
0030
0001
,
0000
0100
0020
0000
0000
0000
0030
0000
1000
0000
0100
2000
0000
3000
0000
0100
,
0010
0100
0000
0010
0001
0100
0000
0020
0030
0100
0010
0100
0020
0000
0030
0001
,
0100
0002
0003
1000
1000
0100
0000
0100
0000
0010
0100
0010
0002
0000
0003
0100
,
0020
0000
0000
0030
0000
0100
0000
1000
0000
0100
0000
1000
0200
0000
0300
0000
,
0010
0011
0000
0200
0000
0000
0300
0000
0010
0000
0100
0010
0100
0010
0000
0000
,
0000
0000
0001
0000
1000
0000
0000
0000
0000
0100
0000
1000
0100
1000
0000
0000
,
0000
0000
0100
0000
0000
0000
0010
0000
0100
0000
1000
0100
0010
0100
0000
0000
,
0000
0000
0010
0000
0001
0000
0000
0000
0000
0100
0010
0000
0100
0010
0000
0000
,
0000
0000
0001
0000
0000
1000
0100
0000
0010
0000
0100
0010
0100
0010
0000
1000
,
0001
1000
0100
0020
0000
0000
0030
0000
0000
1000
0000
0100
0010
0001
0000
0000
,
0000
0000
0001
0000
0000
1000
0000
0000
0100
0000
0010
0100
0010
0001
0000
0000
,
0100
0000
1000
0000
0100
0000
0000
0000
0000
0100
0000
0010
0100
0010
0000
0000
,
0000
0000
0100
0000
0000
1000
0000
0000
0000
0110
0000
0000
1000
0000
0100
2000
,
0000
3000
0000
0000
0100
0000
0010
0200
0000
0000
0000
0000
0000
0000
0000
0000
,
0000
0300
0000
0000
0000
0000
0000
0000
0000
0010
0000
0000
0100
0000
0010
0200
,
0000
0300
0000
0000
0001
0000
1000
0001
0000
0200
0000
0300
1000
0200
0300
0000
,
0100
0010
0100
0010
0001
0000
0100
0000
0020
0000
0000
0000
0030
0000
0000
0000
,
0100
0000
1000
0200
0000
0300
0000
0100
0010
0200
0000
0000
0300
0000
0000
0000
,
0000
0001
1000
0002
0000
0003
0000
0100
1000
0200
0000
0000
0300
0000
0000
0000
,
0000
0100
0010
0100
0010
0000
0001
0100
0020
0000
0000
0030
0000
0100
0000
1000
,
0000
0100
0000
0010
0022
0033
0000
0100
0000
1000
2200
0000
0000
3300
0000
0000
,
0100
0000
0010
0200
0000
0300
0000
0010
0100
0010
0000
0001
0100
0001
0000
0100
,
0000
0010
0001
2000
0000
3000
0000
1000
0100
1000
0000
0100
1000
0100
0000
0010
,
0000
0100
0010
0001
0200
0000
0300
0100
0020
0000
0000
0030
0000
0100
0000
1000
,
0000
0100
0000
0001
0200
0000
0000
0000
0000
0000
0000
0000
0300
0000
0000
0000
;

//--------------- dance-single - Wrland ----------------
#NOTES:
     dance-single:
     Wrland:
     Hard:
     10:
     0,0,0,0,0:
0000
0000
0000
0000
,
0000
0000
0000
0000
,
1000
0000
0100
1000
0100
2000
3000
0100
0010
0001
0100
0020
0030
0000
0100
1000
,
0100
2000
3000
0200
0300
0002
0003
0200
0300
0020
0030
0100
0020
0000
0030
0000
,
0010
0000
0100
0010
0001
0100
0000
0010
0100
1000
0100
0020
0030
0000
0100
0000
,
0010
0200
0300
0020
0030
0002
0003
0200
0300
0020
0030
0200
0300
1000
0002
0000
,
0003
0200
0300
0000
0100
0000
0100
0220
0000
0000
0330
0000
0010
0000
0010
0022
,
0033
1000
0100
1000
0100
1000
0200
0300
0000
0100
0010
0100
0010
0001
0100
0010
,
0100
2000
0000
3000
0100
0000
1000
0200
0000
0000
0300
0000
0100
0000
0010
0100
,
0000
0022
0000
0033
1000
2200
0000
3300
0100
0010
0100
0010
0002
0003
0200
0300
,
0220
0000
0000
0000
0000
0330
0000
0000
0100
0000
0010
0200
0000
0000
0300
0010
,
0001
1000
0100
0010
0001
0200
0300
0020
0030
0100
1000
0100
2000
0000
3000
0100
,
0010
0001
0100
0010
1000
0200
0300
0020
0030
0100
0010
0001
0200
0300
0010
0100
,
2000
0000
0000
0000
3000
0200
0300
0020
0030
0200
0300
1000
2200
0000
3300
0200
,
0300
0010
0022
0000
0000
0000
0033
0000
0002
0003
0010
0200
0000
0000
0300
1000
,
0100
0010
0001
0010
0100
0020
0030
0200
0300
0010
0100
0010
0002
0000
0003
0010
,
0100
1000
0100
0010
0001
0200
0300
0020
0030
0100
0010
0100
0020
0030
0000
0001
,
0200
0000
0000
0300
0000
0020
0030
0200
0300
2000
3000
0100
0220
0000
0000
0330
,
1001
1001
0000
1001
0000
1001
0000
0000
0100
0000
0010
0100
0010
0001
0000
0010
,
0100
0010
1000
0001
0100
0000
1000
0100
1000
0100
0000
0010
0100
0010
0000
0010
,
0001
0100
0010
0100
0001
1000
0100
0000
0010
0000
0100
1000
0100
0010
0001
0100
,
0010
0001
1000
0000
0100
0000
0010
0001
1000
0100
0010
0100
0010
0001
0000
1000
,
0001
1000
0100
0010
0000
1000
0001
0000
0100
0000
0010
0100
0010
0001
0100
1000
,
0100
0010
0001
0010
0000
0100
1000
0100
1000
0000
0000
0100
0010
0100
0000
0010
,
0001
0010
1000
0100
0010
0001
0010
0000
0110
0000
0001
0100
1000
0100
0000
0010
,
0100
0000
0010
0000
0001
0100
0010
1000
0100
0000
0010
0001
0010
0100
0010
0000
,
0100
0010
0100
0000
0010
0001
0000
0000
1000
0022
0033
0000
0100
0000
1000
0200
,
0000
0000
0300
0000
0100
0000
0010
0002
0000
0000
0000
0000
0000
0000
0000
0000
,
0000
0000
0000
0000
0003
0000
0000
0000
0000
2000
3000
0000
0100
0000
1000
0200
,
0000
0000
0300
0000
0100
0000
0010
0200
0300
0020
0000
0030
0001
0020
0030
0000
,
0100
1000
0100
0010
0002
0003
0200
0300
0220
0000
0000
0000
0330
0000
0000
0000
,
0100
0000
1000
0200
0000
0300
0000
0100
0010
0002
0003
0100
0010
0200
0300
2000
,
3000
0100
0010
0001
0200
0300
0000
0010
0100
0010
0001
0100
0010
2000
3000
0100
,
0000
0100
1000
0100
2000
3000
0001
0100
0020
0000
0000
0030
0000
0200
0300
0020
,
0030
0002
0003
0100
0220
0330
0000
0020
0030
1000
2200
0000
0000
0000
3300
0000
,
0100
0000
0010
0200
0000
0000
0300
0001
0100
0002
0003
0010
0100
2000
3000
0100
,
0000
0010
0001
0100
0020
0000
0030
0100
1000
0100
0010
0001
0100
0020
0030
0200
,
0300
1000
0100
0010
0002
0000
0003
0100
0020
0000
0000
0030
0000
0002
0003
0200
,
0300
1000
0000
0010
2200
0000
0000
0000
0000
0000
0000
0000
3300
0000
0000
0000
;
