#VERSION:0.83;
#TITLE:Booty Punch;
#SUBTITLE:;
#ARTIST:ZikkityZak;
#TITLETRANSLIT:;
#SUBTITLETRANSLIT:;
#ARTISTTRANSLIT:;
#GENRE:Rock;
#CREDIT:Wrland;
#MUSIC:Booty Punch.ogg;
#BANNER:Booty Punch.png;
#BACKGROUND:Booty Punch-bg.png;
#CDTITLE:Wrland Season 3 CITYGHT + last one night.png;
#SAMPLESTART:0.960;
#SAMPLELENGTH:15.000;
#SELECTABLE:YES;
#OFFSET:-0.960;
#BPMS:0.000=250.000
,32.000=125.000
,48.000=250.000
,72.000=125.000
,202.000=250.000
,264.000=125.000
,281.000=250.000
,329.000=125.000
;
#STOPS:;
#DISPLAYBPM:125.000:500.000;
#JACKET:Booty Punch-jacket.png;
#CDIMAGE:Booty Punch-cd.png;
#METERTYPE:DDR X;
#BGCHANGES:;
#FGCHANGES:;

//--------------- dance-single - Wrland ----------------
#NOTEDATA:;
#STEPSTYPE:dance-single;
#DESCRIPTION:Wrland;
#DIFFICULTY:Beginner;
#METER:6;
#RADARVALUES:0,0,0,0,0;
#NOTES:
0000
0000
0000
0000
,
0000
0000
0000
0000
,
1000
0000
1000
0000
,
1000
0000
0100
0000
,
1000
0000
0100
0000
,
1000
0000
0100
0000
,
0010
0000
0100
0000
,
0010
0000
0001
0000
,
0100
0100
1000
0100
,
1000
0100
0010
0100
,
0010
0001
0100
0010
,
0100
0010
0100
0010
,
0001
0000
0001
0000
,
0100
0000
0001
0000
,
0100
0000
0001
0000
,
0010
0000
0100
0000
,
1000
0000
0100
0000
,
1000
0000
0100
0000
,
1000
0100
1000
0100
,
0010
0001
0100
0001
,
0100
0010
0100
1000
,
0100
1000
0100
1000
,
0100
0000
0010
0000
0100
0010
0000
0100
,
0010
0000
1000
0000
0100
0010
0000
0001
,
0100
0000
0010
0000
0100
1000
0000
0100
,
1000
0000
0100
0000
1000
0100
0000
0010
,
0001
0000
0100
0000
0010
0100
0000
0001
,
0100
0000
0010
0000
0100
0010
0000
0001
,
0100
0000
0010
0000
1000
0100
0000
1000
,
0100
0000
0010
0000
0001
0100
0000
0010
,
0100
0001
0200
2300
,
3200
0300
0200
0320
,
0032
0003
0002
0203
,
0320
0030
0200
2300
,
3200
0300
2000
3200
,
2300
3000
0200
0320
,
0032
0000
0000
0003
0200
0000
0320
0000
,
0032
0003
0020
0230
,
0320
0030
1000
0100
,
0010
0100
0010
0001
,
0100
0010
0100
1000
,
0100
1000
0100
0010
,
0001
0100
0010
0100
,
1000
0100
1000
0100
,
0010
0001
0100
0001
,
0100
0001
0010
0100
,
0010
0001
0100
1000
,
1000
1000
0001
0001
,
0001
0001
0010
0010
,
0010
0010
0100
0100
,
0100
0100
1000
0000
,
0100
0000
1000
0000
,
0100
0000
1000
0000
,
0100
0000
0010
0000
,
0001
0000
0100
0000
,
0010
0000
0100
0000
,
0010
0000
0001
0000
,
0100
0000
0010
0000
,
0100
0000
0010
0000
,
0100
0000
1000
0000
,
0100
0000
1000
0000
,
0100
0000
0010
0000
,
0100
0000
0010
0000
,
0001
0000
0100
0000
,
0010
0000
0100
0000
,
0010
0000
0100
0000
,
0010
0100
0010
0000
0001
0100
0001
0000
,
0020
0000
0130
0000
,
1000
0000
0100
0010
0100
0000
0010
0000
,
0001
0200
0000
0310
,
0000
0100
0000
1000
,
0000
0100
0000
1000
,
0000
0100
0000
0010
,
0000
0001
0000
0100
,
0000
0010
0000
0100
,
0000
0010
0000
0001
,
0000
0100
0000
0100
,
0000
1000
0000
1000
,
0000
0100
0000
0100
,
0000
1000
0000
1000
,
0000
0100
0000
0001
,
0000
0100
0000
0010
,
0000
0100
0100
1000
,
0100
1000
0100
0010
,
0001
0100
0010
0100
,
1000
0100
0010
0001
,
0100
0220
0000
0000
,
0000
0000
0000
0000
,
0000
0000
0000
0000
,
0000
0000
0000
0330
;

//--------------- dance-single - Wrland ----------------
#NOTEDATA:;
#STEPSTYPE:dance-single;
#DESCRIPTION:Wrland;
#DIFFICULTY:Easy;
#METER:10;
#RADARVALUES:0,0,0,0,0;
#NOTES:
0000
0000
0000
0000
,
0000
0000
0000
0000
,
1000
0100
1000
0100
,
0010
0001
0100
0010
,
0100
0010
0001
0100
,
0010
0100
0010
0100
,
0010
0100
0010
0100
,
0010
0001
0100
0010
,
0200
0300
2000
3000
0100
1000
0200
0300
,
0020
0030
0100
0000
0010
0001
0100
0000
,
0020
0030
0100
0010
0200
0300
2000
3000
,
0200
0300
0020
0030
0002
0003
0100
0000
,
0010
0100
0010
0001
,
0100
0010
0100
1000
,
0100
0010
0001
0100
,
0010
1000
0100
0010
,
1000
0100
0010
0001
,
0100
0010
0100
0010
,
0002
0003
0200
0300
1000
0000
0100
0000
,
1000
0100
1000
0100
,
0020
0030
0002
0003
0100
0000
0010
0000
,
0200
0300
0020
0030
0001
0010
0100
1000
,
0100
0010
0001
0100
0010
0100
0010
0000
,
0001
0100
0001
0000
0100
0100
1000
0000
,
1000
0100
1000
0000
0100
0010
0001
0000
,
0100
0010
0100
0000
0010
0001
0010
0000
,
0100
1000
0100
0000
1000
0100
1000
0000
,
0100
0010
0001
0000
0100
0010
0100
0000
,
0010
0001
0100
0000
0001
0100
0010
0000
,
0100
1000
0100
0000
1000
0100
0010
0000
,
0001
0100
0001
0100
0022
0000
0033
0000
,
2200
3300
0220
0330
,
0202
0303
2020
3030
,
0202
0303
0220
0330
,
2200
3300
0022
0033
,
0220
0330
2200
3300
,
0220
0330
0022
0033
,
0220
0330
2200
3300
,
0220
0330
1000
0100
,
1000
0100
1000
0000
0100
0000
0010
0000
,
0001
0000
0100
0000
0001
0100
0000
0001
,
0100
0010
0100
1000
,
0100
0000
1000
0000
0100
1000
0000
0100
,
1000
0000
0100
0000
0010
0100
0000
0001
,
0100
0000
0010
0000
0100
1000
0000
0100
,
1000
0000
0100
0000
0001
0100
0000
0010
,
0100
0000
0010
0000
0001
0100
0000
0001
,
0100
0000
0010
0000
0100
1000
0000
0100
,
1000
0000
0100
0000
0010
0100
0000
0010
,
0100
0000
0001
0000
1000
0100
0000
1000
,
0100
0010
0001
0010
,
0100
0000
1000
0100
,
1000
0000
0100
0010
,
0001
0000
0001
0010
,
0100
0000
1000
0100
,
1000
0000
0100
0010
,
0001
0000
0100
0010
,
0100
0000
1000
0100
,
1000
0000
0100
0010
,
0001
0000
0100
0010
,
1000
0000
0100
1000
,
0100
0000
0100
0010
,
0100
0000
0010
0001
,
0100
0000
0001
0100
,
0001
0000
0010
0100
,
0010
0000
0001
0010
,
0100
1000
0100
1000
0100
0010
0100
0000
,
0220
0330
2002
3003
2200
3300
0220
0330
,
0100
0010
0001
0100
0010
0100
1000
0000
,
0220
0330
0202
0303
0220
0330
2002
3003
,
1000
0100
1000
0000
0100
0000
0010
0000
,
0001
0100
0010
0100
,
1000
0100
0010
0001
,
0100
0010
0100
0010
,
0001
0100
0010
0100
,
0010
0100
0010
0001
,
0100
0010
1000
0100
,
0010
0001
0100
0010
,
0100
1000
0100
0010
,
0001
0100
0010
1000
,
0100
1000
0100
0010
,
0001
0100
0010
0100
,
0010
0000
0101
0000
0010
0100
1100
0000
,
0100
0010
0110
0000
0001
0100
0101
0000
,
1010
0000
0100
0000
0010
0001
0101
0000
,
0010
0100
1100
0000
0100
0010
0110
0000
,
0101
0022
0000
0000
,
0000
0000
0000
0000
,
0000
0000
0000
0000
,
0000
0000
0000
0033
;

//--------------- dance-single - Wrland ----------------
#NOTEDATA:;
#STEPSTYPE:dance-single;
#DESCRIPTION:Wrland;
#DIFFICULTY:Medium;
#METER:13;
#RADARVALUES:0,0,0,0,0;
#NOTES:
0000
0000
0000
0000
,
0000
0000
0000
0000
,
1000
0100
1000
0100
1000
0100
1000
0100
,
1001
0000
1100
0000
,
0011
0001
0110
0000
,
0001
0100
0001
0100
0001
0100
0010
1000
,
0101
0000
1100
0000
,
0101
0010
0001
0100
,
0010
0000
0100
1000
0100
0000
1000
0100
,
0010
0000
0001
0100
0001
0100
0001
0000
,
0010
0000
1000
0100
1000
0000
0100
0010
,
0001
0000
0100
0010
0100
0010
0001
0100
,
0001
0100
0001
0100
0001
0100
0001
0100
,
1001
0000
0011
0000
,
0110
0000
1001
0000
,
0100
1000
0100
1000
0100
0010
0010
0100
,
0010
0000
0101
0000
,
1001
0000
0100
0000
1010
0001
0010
0000
,
0100
0000
0010
0100
0010
0000
0001
0100
,
0001
0000
0010
0100
1000
0100
1000
0000
,
0100
0000
0010
0001
0100
0000
0010
0100
,
1000
0000
0000
0000
0100
0000
0010
0000
0001
0010
0100
0000
0010
0001
0100
0000
,
0010
0100
0010
0000
0100
0000
0010
0000
0100
0000
1000
0000
0100
0000
0000
0010
,
0000
0000
0100
0000
0010
0000
0000
0001
0000
1000
0000
0000
0001
0000
0010
0000
,
0100
0000
1000
0000
0100
0000
0000
0000
1000
0000
0100
0000
0010
0000
0000
0001
,
0000
0000
0100
0000
0010
0000
0000
0100
0000
0000
0010
0000
0001
0000
0000
0000
,
0100
0000
0010
0000
0100
0000
0010
0000
1000
0000
0000
0010
0000
0000
0100
0000
,
0001
0000
0000
0010
0000
0100
0000
0000
1000
0000
0100
0000
1000
0000
0010
0000
,
0100
0000
0010
0000
0001
0000
0010
0000
0100
0000
0000
1000
0000
0000
0100
0000
,
0010
0000
0000
0100
0000
0000
0010
0000
0100
0000
0010
0000
0001
0000
1000
0000
,
0100
0010
0100
0010
2002
0000
3003
0000
,
2200
3300
0220
0330
,
0022
0033
2002
3003
,
2200
3300
0202
0303
,
0220
0330
2200
3300
,
0220
0330
0022
0033
,
2200
3300
0220
0330
,
2002
3003
2200
3300
,
0220
0000
0330
0000
1001
0000
0100
0010
,
0100
0000
0010
0000
0001
0100
0010
0001
,
0100
0000
0010
0000
0100
1000
0000
0100
,
1000
0000
0100
0000
0001
0100
0000
0010
,
0100
0000
0010
0000
0001
0100
0001
0100
,
0010
0000
0100
1000
0100
0010
0001
0000
,
0100
1000
0100
0010
0001
0000
0100
1000
,
0100
0010
0001
0000
0010
0100
0010
0001
,
0100
0010
0100
0010
0101
0000
0010
0000
,
0100
0010
0001
0000
0100
0010
0000
0100
,
1000
0000
0100
0000
0001
0100
0000
0010
,
0100
0000
0010
0000
0001
0000
0100
1000
,
0100
0000
0010
0001
0100
0000
0010
0000
,
0100
0000
0010
0000
0001
0100
0001
0000
,
0010
0000
0100
0000
1000
0100
1000
0000
,
0100
0000
0010
0000
0100
0001
0100
0000
,
0010
0000
0100
0000
0010
0100
0010
0000
,
0100
0000
1000
0000
0100
1000
0100
0000
,
0100
0000
0010
0000
0001
0100
0001
0000
,
0010
0000
0100
0000
0010
0100
0010
0000
,
0001
0000
0010
0000
0001
0010
0001
0000
,
0010
0000
0100
0000
1000
0100
1000
0000
,
0100
0000
0010
0000
0100
0010
0001
0000
,
0010
0000
0100
0000
0010
0001
0010
0000
,
0100
0000
1000
0000
0100
1000
0100
0000
,
0010
0000
0001
0000
0100
0001
0100
0000
,
0010
0000
0100
0000
0010
0100
0010
0000
,
0001
0000
0100
0000
0001
0100
0001
0000
,
1000
0100
0000
0010
0001
0000
0100
0010
0000
0100
1000
0000
0200
0000
0000
0000
,
0320
0230
0320
0032
,
0203
0000
0000
0000
0310
0000
0000
0200
0000
0000
0000
0000
0320
0000
0000
0000
,
0230
0320
0032
2003
,
3002
0000
1003
0100
0010
0001
0010
0100
,
0010
0100
0010
0000
0000
0000
0100
0000
,
0000
1000
0000
0100
,
0000
0000
0001
0100
0001
0100
0001
1000
,
0010
0100
0010
0000
0000
0000
1000
0000
,
0000
0100
0000
0010
,
0000
0000
0001
0100
0001
0100
0010
1000
,
0100
0010
0101
0000
0000
0000
1010
0000
,
0000
1100
0000
0010
,
1000
0000
0100
0010
0100
0100
0001
0010
,
0100
0100
0010
0000
0000
0000
0011
0000
,
0000
0000
1100
0000
0000
0000
0110
0010
,
0100
0000
0001
0010
0100
0010
0001
0000
,
0100
1000
0100
0000
0010
0100
0010
0001
,
0100
0000
1000
0100
1000
0100
1000
0000
,
0100
0010
0001
0000
0100
0010
0100
0010
,
0001
0100
2002
0000
0000
0000
0000
0000
,
0000
0000
0000
0000
,
0000
0000
0000
0000
,
0000
0000
0000
3003
;

//--------------- dance-single - Wrland ----------------
#NOTEDATA:;
#STEPSTYPE:dance-single;
#DESCRIPTION:Wrland;
#DIFFICULTY:Hard;
#METER:15;
#RADARVALUES:0,0,0,0,0;
#NOTES:
0000
0000
0000
0000
,
0000
0000
0000
0000
,
1000
0001
1000
0001
1000
0001
1000
0100
,
0010
1000
0100
0010
0001
0000
0010
0000
,
0100
1000
0100
0010
,
0001
0100
0001
0100
0010
1000
0100
0010
,
0100
0010
0001
0100
0010
0000
0100
0000
,
0010
0001
0010
0100
,
0010
0000
0100
0010
0100
1000
0100
0010
,
0001
0000
0100
0000
0010
0000
0100
0000
0010
0000
0001
0000
0100
0010
0001
0010
,
0100
0000
0100
0010
0001
0100
1000
0100
,
0010
0000
0001
0000
0100
0000
0010
0000
0100
0000
1000
0000
0100
1000
0100
0010
,
0001
0010
0100
0010
0100
0010
0001
0100
,
0001
0010
1000
0100
0010
0000
0001
0000
,
0100
0010
0100
1000
,
0100
0010
0001
0010
0100
0010
1000
0100
,
0010
0001
0010
0000
0100
0000
0010
0000
,
0100
0000
0010
0000
0001
0100
0010
0000
,
0010
0000
0100
0010
0100
1000
0100
0010
,
0001
0000
0100
0000
0010
0000
0100
0000
0010
0000
0001
0000
0100
0010
0001
0100
,
0010
0000
0100
0010
0001
0100
0010
1000
,
0100
0000
0010
0000
0001
0000
0100
0000
0010
0001
0010
0100
0010
0100
0010
0001
,
0010
0100
0010
1000
0100
0010
0001
0010
0100
0000
0001
0000
0100
0000
0000
1000
,
0000
0000
0100
0000
0100
0000
0000
0010
0000
1000
0000
0000
0100
0000
0010
0000
,
0100
0010
1000
0000
0100
0000
0010
0000
1000
0000
0100
0000
0010
0000
0000
0001
,
0000
0000
0100
0000
0010
0000
0000
0100
0000
0000
0010
0000
1000
0000
0010
0000
,
0100
0001
0010
0000
0100
0000
0010
0000
1000
0000
0000
1000
0000
0000
0100
0000
,
0010
0000
0000
0010
0000
0100
0000
0000
1000
0000
0100
0000
1000
0000
0010
0000
,
0100
0001
0010
0000
0001
0000
0010
0000
0100
0000
0000
0001
0000
0000
0100
0000
,
0010
0000
0000
0100
0000
0000
0010
0000
0100
0000
0010
0000
0001
0000
1000
0000
,
0100
0000
0010
0000
0100
0000
0010
0100
2002
0000
0000
0000
3003
0000
0000
0000
,
2200
3300
0220
0330
,
0022
0000
0033
0000
0001
2002
0000
3003
,
2200
3300
2200
3300
,
0220
0000
0330
0000
0100
0220
0000
0330
,
0022
0033
0220
0330
,
2002
0000
3003
0000
1000
2002
0000
3003
,
2002
3003
2200
3300
,
0110
0101
0110
0100
,
0010
0100
0000
0010
0001
0000
0100
1000
,
0100
0010
0001
0000
0100
0010
0000
0100
,
0010
0000
0001
0000
0010
0100
1000
0100
,
0010
0001
0100
0000
0010
0100
0000
1000
,
0100
0000
0010
0000
0001
0100
0010
0100
,
1000
0000
0100
0000
1000
0100
0010
0001
,
0100
0010
0100
1000
0100
0010
0001
0100
,
0010
0100
1000
0000
0100
0010
0100
0010
,
0001
0000
0100
0000
0010
0001
0000
0100
,
0010
0100
1000
0000
0100
0010
0000
0001
,
0100
0000
0010
0000
0100
1000
0100
0010
,
1000
0100
0010
0100
0010
0000
0001
0000
,
0100
0000
0001
0100
0000
0001
0100
0000
,
0010
0100
0010
0001
,
1000
0000
0100
0010
0000
0100
0010
0000
,
0100
0010
0001
0100
,
1000
0000
0100
0000
0010
0100
0000
0001
,
0010
0100
0010
0001
,
0010
0100
0010
0100
,
0010
0000
0001
0000
0100
0001
0100
0000
,
0010
0100
0010
0000
1000
0100
1000
0000
,
0100
0010
0100
0000
0001
0100
0001
0000
,
0010
0100
0010
0000
1000
0100
0010
0000
,
0100
0010
0001
0000
0010
0100
0010
0000
,
0001
0010
0100
0000
1000
0100
0010
0000
,
0100
0010
0001
0000
0010
0001
0010
0000
,
0100
0010
0100
0000
0010
0000
0100
0000
,
0010
0001
0000
0100
0010
0000
0100
0010
0000
0001
0100
0000
1000
0000
0100
0000
,
0010
0000
0001
0000
0100
0000
0010
0000
0100
0000
0001
0010
0100
0000
0010
0000
,
0100
0000
0010
0000
0001
0000
0000
1001
0000
0000
0200
0000
0000
0000
0000
0000
,
0000
0000
0010
0000
0001
0000
0010
0001
,
0010
0001
0010
0001
0310
0000
0100
0000
0001
0000
0100
0000
0010
0000
0001
0000
,
0010
0100
0010
0001
0010
0001
0010
0000
,
1000
0100
0010
0001
,
0100
0000
0010
0100
0010
0001
0010
0100
,
1000
0100
0010
0001
0010
1000
0100
0000
,
1000
0100
0010
0001
,
0100
0000
0010
0001
0010
0100
0010
0001
,
0010
0100
1000
0100
0010
0001
0100
0000
,
0010
0001
0100
0010
,
0100
0000
0001
0010
0100
1000
0100
0010
,
0001
0100
1000
0000
0010
0000
0100
0000
,
1000
0000
0100
0000
0010
0000
0001
1000
,
0100
0010
0001
0000
0010
0100
0010
0000
,
0100
1000
0100
0010
0001
0100
0010
0100
,
1000
0010
0100
0001
0010
0000
0000
0000
0001
0000
0100
0000
0010
0000
0000
0000
,
0100
1000
0100
0010
0100
0010
0001
0100
,
0010
0001
1000
0010
0202
0000
0000
0000
0000
0000
0000
0000
0000
0000
0000
0000
,
0000
0000
0000
0000
,
0000
0000
0000
0000
,
0000
0000
0000
0303
;

//--------------- dance-single - Wrland ----------------
#NOTEDATA:;
#STEPSTYPE:dance-single;
#DESCRIPTION:Wrland;
#DIFFICULTY:Challenge;
#METER:17;
#RADARVALUES:0,0,0,0,0;
#NOTES:
0000
1001
1001
0000
,
1100
0110
0101
0000
,
1010
0100
0010
0001
0010
0100
1001
0100
,
0010
0100
0010
0001
1001
0100
0010
0001
,
1100
0010
0100
1000
0110
0010
1000
0010
,
0101
0010
0001
0010
0110
0100
1000
0010
,
1100
0100
0010
0001
0110
1000
0010
0001
,
0101
0010
0100
0010
0110
0001
0010
0100
,
1001
0100
0010
0001
0100
0010
0100
1000
,
0100
0000
0010
0000
0001
0000
0100
0000
0010
0000
0001
0000
1000
0100
0010
0001
,
0010
0100
0010
0001
0100
0010
1000
0100
,
0010
0000
0001
0000
0100
0000
0010
0000
0100
0000
0010
0000
0001
0100
0001
0100
,
1001
0100
0010
0001
1010
0100
0010
1000
,
0110
0100
1000
0100
0101
0010
0001
0010
,
0110
0100
1000
0100
0011
0010
0001
0010
,
1100
0010
0001
0100
0110
1000
0100
0010
,
0011
0100
0010
0001
0110
0100
0010
0001
,
1001
0100
0010
0001
1100
0010
0001
0100
,
0110
0100
1000
0100
0010
0001
0100
0010
,
0100
0000
0010
0000
0001
0000
0100
0000
0010
0000
0100
0000
1000
0010
0100
0001
,
0010
0001
0100
0010
1000
0100
0010
0001
,
0100
0000
0010
0000
0100
0000
1000
0000
0100
0010
0100
0010
0001
0100
0010
0001
,
0010
0100
1000
0100
0010
0001
0010
0100
1000
0000
0010
0000
0100
0000
0000
1000
,
0000
0001
0100
0000
0100
0000
0000
0010
0000
1000
0000
0000
0100
0000
0010
0000
,
0100
0010
1000
0000
0100
0000
0010
0000
0001
0000
0100
0000
0010
0000
0000
0001
,
0000
1000
0100
0000
0010
0000
0000
0100
0000
0000
0010
0000
1000
0000
0010
0000
,
0100
0001
0010
0000
0100
0000
0010
0000
0001
0000
0000
0010
0000
0000
0100
0000
,
0010
0000
0000
0010
0000
0100
0000
0000
1000
0000
0100
0000
1000
0000
0010
0000
,
0100
0001
0010
0000
0001
0000
0010
0000
0100
0000
0000
0001
0000
0000
0100
0000
,
0010
0000
0000
0100
0000
0000
0010
0000
0100
0000
0010
0000
0001
0000
1000
0000
,
0100
0000
0010
0000
0100
0000
0010
0100
2002
0000
3003
0000
1000
0000
0001
0000
,
2002
3003
1000
0100
2200
3300
0100
0010
,
0220
0330
0010
0001
0022
0033
0001
0010
,
0220
0330
0100
1000
2200
3300
0100
0010
,
0220
0330
0001
0100
0202
0303
0010
0100
,
0220
0330
0010
0001
0022
0033
0010
0100
,
0220
0330
1000
0100
2200
3300
0100
0010
,
0220
0330
0001
0100
0202
0303
0010
0100
,
0220
0330
2002
3003
0100
0010
0100
0010
,
0001
0000
0100
0010
1000
0100
1000
0100
,
0010
0001
0100
0010
0100
0010
0000
0001
,
0100
0000
0010
0000
1000
0000
0100
0010
,
0001
0000
0100
0000
0010
0100
0000
0010
,
0001
0000
0100
0000
0010
0100
0000
1000
,
0100
0000
0100
0000
0010
0001
0000
0100
,
0010
0000
0100
0000
0010
0001
0000
0010
,
0100
0000
1000
0000
0100
1000
0000
0100
,
0010
0000
0001
0000
0100
0010
0000
0001
,
0100
0000
0010
0000
0100
1000
0000
0100
,
1000
0000
0100
0000
0010
0100
0000
0010
,
0001
0100
0010
0100
,
1001
0010
0100
0010
1100
0010
0001
0100
,
0110
1000
0100
0010
0101
0010
0001
0010
,
0110
0010
0001
0100
1100
1000
0100
0010
,
0110
0100
1000
0010
0101
0100
0010
0001
,
0011
0010
0100
1000
0110
0010
0001
0010
,
1100
0100
0010
0001
0110
0010
0100
1000
,
0101
0100
0010
0001
0110
0010
0100
0010
,
1100
0010
0001
0100
0110
1000
0100
0010
,
0101
0100
0010
0001
0110
0010
0001
0010
,
1100
0100
0010
0001
0110
0100
1000
0100
,
1100
0100
0010
0001
0110
0100
1000
0100
,
0011
0100
0010
0001
0110
0010
0001
0010
,
1001
0100
0010
0001
1100
0010
0100
0010
,
0101
1000
0100
0010
0110
0010
0001
0010
,
0101
0010
0100
1000
0110
0010
0001
0000
,
0010
1000
0000
0100
0010
0000
0100
0010
0000
0001
0100
0000
1000
0000
0100
0000
,
0010
0000
0001
0000
0100
0000
0010
0000
0100
0000
0001
0010
0100
0000
0010
0000
,
0100
0000
0010
0000
0001
0000
0000
1001
0000
0000
0200
0000
0000
0000
0000
0000
,
0000
0000
0010
0001
0010
0001
0010
0001
,
0010
0001
0010
0301
1010
0000
0100
0000
0100
0000
0010
0000
1001
0000
0100
0000
,
0010
0001
0110
0010
0100
1000
0101
0010
,
0001
0010
0110
0010
0001
0010
1100
0100
,
0010
0001
0110
0010
0100
1000
0101
0100
,
0010
0001
0110
0001
0010
0100
1100
0010
,
0001
0100
0110
1000
0100
0010
0011
0001
,
0010
0100
1010
0010
0001
1000
0110
0010
,
0100
1000
0101
0010
0100
1000
0110
1000
,
0100
0010
0011
0001
0010
0100
0110
0010
,
0001
0010
1100
0100
0010
0001
0110
0010
,
1000
0100
0101
0010
0001
0010
0110
0100
,
0010
0001
1100
0010
0100
1000
0110
0010
,
0001
0010
0101
1000
0010
0100
0010
0001
,
0001
0100
0010
0100
0010
0001
0100
0010
,
1000
0010
0100
0001
0010
0000
1000
0000
0100
0000
0010
0000
0001
0000
0100
0000
,
0010
0100
1000
0100
0010
0001
0100
0010
,
0001
0010
1000
0100
4004
0000
0000
0000
0000
0000
0000
0000
0000
0000
0000
0000
,
0000
0000
0000
0000
,
0000
0000
0000
0000
,
0000
0000
0000
3003
;

//--------------- dance-double - Wrland ----------------
#NOTEDATA:;
#STEPSTYPE:dance-double;
#DESCRIPTION:Wrland;
#DIFFICULTY:Beginner;
#METER:5;
#RADARVALUES:0,0,0,0,0;
#NOTES:
00000000
00000000
00000000
00000000
,
00000000
00000000
00000000
00000000
,
10000000
00000000
01000000
00000000
,
00100000
00000000
00010000
00000000
,
01000000
00000000
00100000
00000000
,
01000000
00000000
00100000
00000000
,
00010000
00000000
00100000
00000000
,
00010000
00000000
00100000
00000000
,
00010000
00001000
00000100
00000010
,
00000001
00000010
00000100
00000010
,
00000100
00000010
00000001
00000100
,
00000010
00000100
00001000
00000100
,
00000010
00000000
00000001
00000000
,
00000100
00000000
00001000
00000000
,
00010000
00000000
00100000
00000000
,
10000000
00000000
01000000
00000000
,
00100000
00000000
00010000
00000000
,
01000000
00000000
00100000
00000000
,
00010000
00001000
00010000
00001000
,
00010000
00001000
00000100
00000010
,
00000001
00000010
00000100
00001000
,
00000100
00000010
00000010
00001000
,
00000100
00000000
00000010
00000000
00000001
00001000
00000000
00010000
,
00100000
00000000
01000000
00000000
10000000
01000000
00000000
00100000
,
00010000
00000000
00100000
00000000
01000000
10000000
00000000
01000000
,
10000000
00000000
01000000
00000000
00100000
00010000
00000000
01000000
,
00100000
00000000
10000000
00000000
01000000
00100000
00000000
00010000
,
01000000
00000000
00010000
00000000
00001000
00001000
00000000
00000100
,
00000010
00000000
00000001
00000000
00000010
00000100
00000000
00001000
,
00000100
00000000
00000010
00000000
00000001
00000010
00000000
00000100
,
00001000
00000000
00000100
00000000
00002000
00000000
00000000
00003000
,
00010000
00000000
00001000
00000000
00020000
00000000
00000000
00030000
,
00200000
00000000
00000000
00300000
10000000
00000000
01000000
00000000
,
20000000
00000000
00000000
30000000
02000000
00000000
00000000
03000000
,
20000000
00000000
00000000
30000000
01000000
00000000
00100000
00000000
,
02000000
00000000
00000000
03000000
00200000
00000000
00000000
00300000
,
01000000
00000000
00100000
00000000
00020000
00000000
00000000
00030000
,
00002000
00000000
00000000
00003000
00000100
00000000
00000010
00000000
,
00000001
00000010
00000100
00001000
,
00010000
00001000
00010000
00100000
,
01000000
10000000
01000000
00100000
,
00010000
00100000
00010000
00100000
,
01000000
00100000
01000000
10000000
,
01000000
00100000
00010000
00100000
,
01000000
00100000
00010000
01000000
,
00100000
10000000
01000000
00100000
,
01000000
00100000
00010000
01000000
,
00100000
10000000
01000000
10000000
,
01000000
00100000
01000000
00100000
,
00010000
01000000
00100000
01000000
,
00100000
00010000
00001000
00000000
,
00001000
00000000
00000100
00000000
,
00000010
00000000
00000001
00000000
,
00000010
00000000
00000100
00000000
,
00001000
00000000
00000100
00000000
,
00000010
00000000
00000001
00000000
,
00000010
00000000
00000100
00000000
,
00001000
00000000
00000100
00000000
,
00000100
00000000
00000010
00000000
,
00000100
00000000
00000010
00000000
,
00000100
00000000
00000001
00000000
,
00001000
00000000
00000001
00000000
,
00000100
00000000
00000010
00000000
,
00000100
00000000
00001000
00000000
,
00000010
00000000
00000100
00000000
,
00001000
00000000
00010000
00000000
,
00100000
01000000
00100000
00000000
01000000
10000000
02000000
03000000
,
20000000
30000000
02000000
03000000
20000000
30000000
02000000
03000000
,
00100000
00000000
00100000
01000000
00010000
00000000
00010000
10000000
,
00200000
00300000
00020000
00030000
00200000
00300000
00002000
00003000
,
00000200
00000300
00000010
00000000
00000000
00000000
00000100
00000000
,
00000000
00001000
00000000
00000100
,
00000000
00000010
00000000
00000001
,
00000000
00000010
00000000
00000100
,
00000000
00001000
00000000
00000100
,
00000000
00000010
00000000
00000100
,
00000000
00001000
00000000
00000100
,
00000000
00001000
00000000
00010000
,
00000000
00100000
00000000
01000000
,
00000000
10000000
00000000
01000000
,
00000000
10000000
00000000
01000000
,
00000000
00100000
00000000
00010000
,
00000000
01000000
00100000
01000000
,
10000000
01000000
10000000
01000000
,
00100000
00010000
01000000
00100000
,
01000000
10000000
01000000
10000000
,
01000000
20020000
00000000
00000000
,
00000000
00000000
00000000
00000000
,
00000000
00000000
00000000
00000000
,
00000000
00000000
00000000
30030000
;

//--------------- dance-double - Wrland ----------------
#NOTEDATA:;
#STEPSTYPE:dance-double;
#DESCRIPTION:Wrland;
#DIFFICULTY:Easy;
#METER:7;
#RADARVALUES:0,0,0,0,0;
#NOTES:
00000000
00000000
00000000
00000000
,
00000000
00000000
00000000
00000000
,
10000000
01000000
10000000
01000000
,
10000000
01000000
00100000
00010000
,
01000000
00100000
01000000
00100000
,
00100000
00010000
01000000
00100000
,
00010000
01000000
00100000
00010000
,
01000000
00100000
00010000
00100000
,
00010000
00001000
00010000
00001000
,
00010000
00001000
00000100
00000010
,
00000001
00001000
00000001
00000100
,
00000010
00001000
00000100
00000010
,
00001000
00010000
00100000
01000000
,
10000000
01000000
10000000
00000000
,
01000000
00000000
10000000
00000000
,
01000000
00100000
00010000
01000000
,
00100000
01000000
00100000
00010000
,
01000000
00100000
01000000
10000000
,
01000000
10000000
01000000
00100000
,
01000000
00100000
00010000
01000000
,
00100000
00010000
00001000
00000100
,
00000010
00000000
00000010
00000000
00000001
00000100
00001000
00000100
,
00000010
00000001
00000010
00000100
00001000
00000100
00000100
00000000
,
00000100
00001000
00000100
00000000
00000010
00000001
00000100
00000000
,
00000010
00000001
00000001
00000000
00000010
00000100
00000010
00000000
,
00000001
00000010
00000100
00000000
00001000
00010000
00100000
00000000
,
01000000
10000000
01000000
00000000
10000000
01000000
00100000
00000000
,
00010000
01000000
00010000
00000000
00100000
01000000
00100000
00000000
,
10000000
01000000
10000000
00000000
01000000
00100000
00010000
00000000
,
01000000
00100000
01000000
00000000
00100000
00010000
01000000
00000000
,
00100000
01000000
00100000
10000000
20020000
00000000
30030000
00000000
,
22000000
33000000
01000000
00100000
02020000
00000000
03030000
00000000
,
20200000
00000000
30300000
00000000
01000000
00000000
00100000
01000000
,
02200000
03300000
00220000
00330000
,
00022000
00033000
00000100
00000010
00002002
00003003
00000100
00000000
,
00000220
00000330
00000022
00000033
,
00002200
00003300
00001000
00000100
00002020
00000000
00003030
00000000
,
00000100
00000000
00000010
00000100
00000220
00000000
00000330
00000000
,
00000202
00000303
00000010
00001000
00002200
00003300
00001000
00000000
,
00010000
00100000
01000000
10000000
,
01000000
00000000
10000000
00000000
10000000
01000000
00000000
01000000
,
10000000
01000000
00100000
01000000
,
00100000
00000000
00010000
00000000
01000000
00010000
00000000
00100000
,
01000000
00000000
10000000
00000000
01000000
10000000
00000000
01000000
,
00100000
00000000
01000000
00000000
00100000
00010000
00000000
01000000
,
00100000
00000000
00010000
00000000
01000000
00100000
00000000
10000000
,
01000000
10000000
01000000
00100000
,
01000000
00100000
00010000
01000000
,
00100000
00000000
00010000
00000000
00010000
01000000
00000000
00010000
,
01000000
00100000
00010000
00001000
,
00000100
00000010
00000001
00000010
,
00000100
00000000
00000100
00001000
,
00000100
00000000
00001000
00010000
,
00100000
00000000
00100000
10000000
,
01000000
00000000
00100000
01000000
,
00100000
00000000
00010000
01000000
,
00010000
00000000
00100000
01000000
,
10000000
00000000
01000000
10000000
,
01000000
00000000
00100000
00010000
,
01000000
00000000
00100000
00010000
,
01000000
00000000
00010000
00100000
,
00010000
00000000
00001000
00010000
,
00001000
00000000
00000100
00010000
,
00001000
00000000
00000100
00000010
,
00001000
00000000
00000100
00000010
,
00000001
00000000
00000100
00000001
,
00000010
00000100
00000010
00000100
00000010
00000001
00000200
00000300
,
00000202
00000303
00002200
00003300
00000220
00000330
00002002
00003003
,
00000100
00001000
00010000
00010000
00100000
01000000
20000000
30000000
,
22000000
33000000
02200000
03300000
02020000
03030000
02200000
03300000
,
10010000
01000000
00100000
00000000
01000000
00000000
00100000
00000000
,
00010000
01000000
00100000
10000000
,
01000000
00100000
00010000
01000000
,
00100000
10000000
01000000
00100000
,
00010000
01000000
10000000
01000000
,
00100000
00010000
01000000
00100000
,
10000000
01000000
00100000
01000000
,
00100000
00010000
01000000
00100000
,
00010000
00100000
00010000
00100000
,
00010000
00001000
00000100
00000010
,
00000001
00000100
00001000
00000100
,
00000010
00000001
00001000
00000100
,
00001000
00000000
00010000
00000000
00100000
01000000
00100000
00000000
,
10000000
01000000
10000000
00000000
01000000
00100000
00010000
00000000
,
01000000
00000000
00100000
00000000
01000000
00100000
00010000
00000000
,
00001000
00001000
00000100
00000000
00000010
00000001
00000001
00000000
,
00000010
00001000
00022000
00000000
00000000
00000000
00000000
00000000
,
00000000
00000000
00000000
00000000
,
00000000
00000000
00000000
00000000
,
00000000
00000000
00000000
00033000
;

//--------------- dance-double - Wrland ----------------
#NOTEDATA:;
#STEPSTYPE:dance-double;
#DESCRIPTION:Wrland;
#DIFFICULTY:Medium;
#METER:12;
#RADARVALUES:0,0,0,0,0;
#NOTES:
00000000
00000000
00000000
00000000
,
00000000
00000000
00000000
00000000
,
10000000
01000000
10000000
01000000
00100000
01000000
00100000
01000000
,
00100000
00000000
10010000
00000000
,
00110000
00000000
11000000
00000000
,
01000000
00100000
01000000
00100000
00010000
00100000
00010000
00001000
,
00000110
00000000
00000110
00000000
,
00001001
00000000
00000101
00000000
,
00001010
00000000
00000100
00001000
00000100
00000000
00000010
00001000
,
00000100
00000000
00000001
00000000
00000100
00000010
00000100
00000000
,
00000010
00000000
00000001
00000010
00000100
00000000
00001000
00000100
,
00000010
00000000
00000001
00000100
00000100
00001000
00010000
00001000
,
00010000
00100000
00010000
00100000
00010000
00100000
00010000
00100000
,
00010000
00000000
11000000
00000000
,
01100000
00000000
00110000
00000000
,
00010000
00001000
00010000
00001000
00010000
00001000
00010000
00001000
,
00010000
00000000
00000101
00000000
,
00001010
00000000
00000000
00000000
00000101
00000010
00000100
00000001
,
00000100
00000000
00001000
00010000
00100000
00000000
00100000
10000000
,
01000000
00000000
00100000
00010000
01000000
00100000
01000000
10000000
,
01000000
00000000
00100000
01000000
10000000
00000000
01000000
00100000
,
00010000
00000000
00000000
00000000
01000000
00000000
00100000
00000000
00010000
00100000
01000000
00000000
00100000
00010000
00100000
00000000
,
00001000
00000100
00000010
00000000
00000100
00000000
00000010
00000000
00001000
00000000
00000010
00000000
00000001
00000000
00000000
00000100
,
00000000
00000000
00000010
00000000
00001000
00000000
00000000
00100000
00000000
10000000
00000000
00000000
00010000
00000000
00100000
00000000
,
00100000
00000000
01000000
00000000
00100000
00000000
00000000
00000000
00010000
00000000
01000000
00000000
00100000
00000000
00000000
10000000
,
00000000
00000000
01000000
00000000
00100000
00000000
00000000
01000000
00000000
00000000
00100000
00000000
00010000
00000000
00000000
00000000
,
01000000
00000000
00100000
00000000
01000000
00000000
00100000
00000000
10000000
00000000
00000000
00100000
00000000
00000000
01000000
00000000
,
00010000
00000000
00000000
00100000
00000000
01000000
00000000
00000000
10000000
00000000
01000000
00000000
10000000
00000000
00100000
00000000
,
01000000
00000000
00100000
00000000
00010000
00000000
00100000
00000000
01000000
00000000
00000000
10000000
00000000
00000000
01000000
00000000
,
00100000
00000000
00000000
01000000
00000000
00000000
00100000
00000000
01000000
00000000
00100000
00000000
00010000
00000000
10000000
00000000
,
01000000
00100000
00010000
00001000
00002200
00000000
00003300
00000000
,
00000220
00000330
00002200
00003300
,
00000202
00000303
00000220
00000330
,
00000022
00000033
00002200
00003300
,
00000220
00000330
00002200
00003300
,
00000220
00000330
00000022
00000033
,
00000220
00000330
00002200
00003300
,
00002002
00003003
00000220
00000330
,
00000022
00000000
00000033
00000000
00001010
00000000
00001000
00010000
,
00100000
00000000
00100000
00000000
10000000
01000000
00100000
00010000
,
01000000
00100000
10000000
00000000
01000000
10000000
00000000
01000000
,
10000000
01000000
00100000
00010000
,
01000000
00000000
10000000
00000000
01000000
00000000
10000000
01000000
,
00100000
00000000
00010000
00000000
01000000
00000000
00100000
00010000
,
01000000
00000000
10000000
00000000
01000000
00100000
00010000
01000000
,
00100000
00000000
01000000
00000000
00100000
00010000
01000000
00100000
,
10000000
00000000
01000000
00000000
00100000
00010000
00001000
00000100
,
00000001
00000000
00000010
00000000
00000100
00000010
00000000
00000100
,
00001000
00000000
00000100
00000000
00001000
00000100
00000000
00000010
,
00000001
00000000
00000010
00000000
00000100
00001000
00000000
00000100
,
00001000
00000010
00000010
00000100
,
00001000
00000000
00000010
00000000
00000001
00000100
00000010
00000000
,
00000010
00000000
00000100
00000000
00001000
00000100
00001000
00000000
,
00000100
00000000
00000010
00000000
00000100
00000001
00000100
00000000
,
00000010
00000000
00000100
00000000
00000010
00000100
00000010
00000000
,
00001000
00000000
00010000
00000000
00100000
01000000
10000000
00000000
,
01000000
00000000
00100000
00000000
00100000
01000000
00010000
00000000
,
00100000
00000000
01000000
00000000
10000000
01000000
00100000
00000000
,
00010000
00000000
00100000
00000000
01000000
00100000
00010000
00000000
,
00100000
00000000
01000000
00000000
00100000
01000000
00010000
00000000
,
01000000
00000000
00100000
00000000
01000000
10000000
00010000
00000000
,
00100000
00000000
01000000
00000000
00100000
01000000
00100000
00000000
,
01000000
00000000
10000000
00000000
01000000
00100000
01000000
00000000
,
00100000
00000000
00010000
00000000
01000000
10000000
01000000
00000000
,
00100000
00000000
01000000
00000000
00100000
01000000
00100000
00000000
,
00010000
00000000
01000000
00000000
00010000
01000000
00010000
00000000
,
01000000
10000000
00000000
00100000
01000000
00000000
00010000
00100000
00000000
00010000
00100000
00000000
20000000
00000000
00000000
00000000
,
30200000
02300000
03200000
00320000
,
02030000
00000000
00000000
00000000
03100000
00000000
00000000
02000000
00000000
00000000
00000000
00000000
03200000
00000000
00000000
00000000
,
02300000
03200000
00320000
20030000
,
30020000
00000000
10030000
01000000
10000000
01000000
10000000
01000000
,
10000000
01000000
10000000
00000000
00000000
00000000
01100000
00000000
,
00000000
01010000
00000000
01100000
,
00000000
00000000
10000000
01000000
00100000
01000000
00100000
00010000
,
00010000
01000000
00100000
00000000
00000000
00000000
01100000
00000000
,
00000000
11000000
00000000
01100000
,
00000000
00000000
00010000
01000000
00010000
01000000
00100000
01000000
,
10000000
01000000
10000000
00000000
00000000
00000000
11000000
00000000
,
00000000
01100000
00000000
01010000
,
00000000
00000000
01000000
00100000
01000000
00100000
00010000
00001000
,
00000100
00000010
00000100
00000000
00000000
00000000
00000101
00000000
,
00000000
00001010
00000000
00001100
,
00000000
00000000
00001010
00000000
00000100
00001000
00000100
00000000
,
00000010
00000001
00000100
00000000
00000010
00000100
00001000
00000100
,
00000010
00000010
00000100
00000000
00000010
00000001
00000100
00000000
,
00000010
00000001
00000100
00000000
00000010
00000100
00001000
00000100
,
00000010
00000001
00022000
00000000
00000000
00000000
00000000
00000000
,
00000000
00000000
00000000
00000000
,
00000000
00000000
00000000
00000000
,
00000000
00000000
00000000
00033000
;

//--------------- dance-double - Wrland ----------------
#NOTEDATA:;
#STEPSTYPE:dance-double;
#DESCRIPTION:Wrland;
#DIFFICULTY:Hard;
#METER:14;
#RADARVALUES:0,0,0,0,0;
#NOTES:
00000000
00000000
00000000
00000000
,
00000000
00000000
00000000
00000000
,
01000000
00100000
01000000
00100000
00010000
00100000
01000000
10000000
,
01000000
00100000
00010000
10000000
00100000
00000000
01000000
00000000
,
00100000
10000000
01000000
00100000
,
00010000
00100000
01000000
10000000
01000000
10000000
01000000
00100000
,
00010000
01000000
00100000
10000000
,
01000000
00100000
00010000
01000000
,
00011000
00000000
00001000
00000100
00000010
00000000
00000001
00000010
,
00000100
00000000
00001000
00000100
00000010
00000010
00000100
00000010
,
00000001
00000000
00000001
00000100
00000010
00000000
00001000
00000100
,
00000010
00000000
00000001
00000010
00000100
00001000
00000100
00001000
,
00010000
00100000
00010000
00100000
10000000
01000000
00100000
00010000
,
00100000
10000000
00100000
01000000
,
00100000
00010000
10000000
01000000
,
00100000
00010000
00100000
01000000
10000000
01000000
00100000
00010000
,
01000000
00100000
00100000
00010000
,
10000000
01000000
00100000
00100000
,
01000000
00000000
00100000
01000000
00100000
00000000
10000000
01000000
,
00100000
00010000
01000000
00100000
01000000
10000000
01000000
00100000
,
00010000
00000000
00001000
00000100
00000010
00000000
00000001
00000100
,
00000010
00000000
00000100
00000000
00000010
00000000
00000100
00000000
00000010
00000001
00000010
00000100
00001000
00000100
00000010
00001000
,
00000100
00000010
00000001
00000010
00000100
00000010
00000001
00000010
00000100
00000000
00000010
00000000
00000100
00000000
00000000
00001000
,
00000000
00000000
00000010
00000000
00000100
00000000
00000000
00000010
00000000
00000001
00000000
00000000
00000010
00000000
00000010
00000000
,
00000100
00000010
00001000
00000000
00000100
00000000
00000010
00000000
00000001
00000000
00000010
00000000
00000100
00000000
00000000
00000001
,
00000000
00000000
00000010
00000000
00000100
00000000
00000000
00001000
00000000
00000000
00000010
00000000
00001000
00000000
00000001
00000000
,
00000100
00000001
00000010
00000000
00000100
00000000
00000010
00000000
00000100
00000000
00000000
00001000
00000000
00000000
00010000
00000000
,
00100000
00000000
00000000
01000000
00000000
00100000
00000000
00000000
00010000
00000000
01000000
00000000
00100000
00000000
10000000
00000000
,
01000000
10000000
00100000
00000000
01000000
00000000
00100000
00000000
01000000
00000000
00000000
00100000
00000000
00000000
01000000
00000000
,
00100000
00000000
00000000
01000000
00000000
00000000
00100000
00000000
01000000
00000000
00100000
00000000
00010000
00000000
10000000
00000000
,
01000000
00000000
00010000
00000000
01000000
00000000
00100000
01000000
20020000
00000000
00000000
00000000
30030000
00000000
00000000
00000000
,
22000000
33000000
02200000
03300000
,
00220000
00000000
00000000
00330000
10000000
22000000
00000000
33000000
,
02200000
03300000
22000000
33000000
,
02200000
00000000
03300000
00000000
00100000
20020000
00000000
30030000
,
00220000
00330000
00022000
00033000
,
00002200
00000000
00003300
00000000
00000100
00000022
00000000
00000033
,
00000022
00000033
00000220
00000330
,
00002200
00003300
00000010
00000100
,
00000010
00000000
00000001
00000010
00000100
00001000
00000000
00000100
,
00001000
00000000
00000100
00000000
00001000
00010000
00000000
00010000
,
01000000
00000000
10000000
00000000
01000000
00100000
00000000
10000000
,
01000000
00000000
00100000
00000000
01000000
10000000
01000000
00100000
,
10000000
00000000
01000000
00000000
10000000
01000000
10000000
01000000
,
00100000
00000000
00010000
00000000
01000000
00100000
01000000
00100000
,
01000000
00000000
00100000
00000000
00010000
10000000
01000000
10000000
,
01000000
00000000
10000000
00000000
01000000
00000000
10000000
01000000
,
00100000
00000000
01000000
00100000
00010000
01000000
00000000
00100000
,
00000000
01000000
00100000
00000000
10000000
01000000
00000000
10000000
,
01000000
00000000
00100000
00000000
01000000
00100000
00000000
00010000
,
01000000
00100000
00011000
00001000
,
00000100
00000000
00000001
00000100
00000000
00000001
00000100
00000000
,
00000010
00000100
00001000
00000001
,
00000010
00000000
00000100
00000010
00000000
00000100
00000010
00000000
,
00000100
00000010
00000001
00000100
,
00001000
00000000
00000100
00000000
00000010
00000100
00000000
00000001
,
00000010
00000100
00000010
00000001
,
00000010
00000100
00001000
00000100
,
00000010
00000000
00000001
00000000
00000100
00000001
00000100
00000000
,
00000010
00000100
00000010
00000000
00001000
00000100
00001000
00000000
,
00000100
00000010
00000100
00000000
00000001
00000100
00000001
00000000
,
00000010
00000100
00000010
00000000
00001000
00000100
00000010
00000000
,
00000100
00000001
00000010
00000000
00000010
00000100
00000010
00000000
,
00000001
00000010
00000100
00000000
00001000
00000100
00000010
00000000
,
00000100
00000010
00000001
00000000
00000010
00000001
00000010
00000000
,
00000100
00001000
00000010
00000000
00000100
00000000
00001000
00000000
,
00100000
10000000
00000000
01000000
00100000
00000000
01000000
00100000
00000000
00010000
00100000
00000000
01000000
00000000
01000000
00000000
,
10000000
00000000
00100000
00000000
00010000
00000000
00100000
00000000
01000000
00000000
10000000
00010000
01000000
00000000
10000000
00000000
,
01000000
00000000
00100000
00000000
00100000
00000000
00000000
10010000
00000000
00000000
02000000
00000000
00000000
00000000
00000000
00000000
,
00000000
00000000
00100000
00000000
00010000
00000000
00100000
00010000
,
00100000
00010000
00100000
00010000
03100000
00000000
01000000
00000000
10000000
00000000
01000000
00000000
00100000
00000000
01000000
00000000
,
00100000
00010000
00100000
01000000
10000000
00100000
01000000
00000000
,
00100000
01000000
00100000
00010000
,
01000000
00000000
00100000
01000000
00100000
00010000
00100000
10000000
,
01000000
00100000
01000000
00000000
10000000
00000000
01000000
00000000
,
00100000
00010000
01000000
00100000
,
10000000
00000000
01000000
00100000
00010000
01000000
00100000
10000000
,
01000000
00100000
01000000
00000000
00100000
00000000
01000000
00000000
,
00100000
00010000
01000000
00100000
,
10000000
00000000
01000000
00100000
00010000
00100000
01000000
10000000
,
01000000
00100000
01000000
00000000
00100000
00000000
00010000
00000000
,
01000000
00000000
01000000
00000000
10000000
00000000
01000000
00010000
,
00100000
10000000
00010000
00001000
00000100
00000010
00001000
00000000
,
00000100
00000010
00000001
00000000
00000100
00000010
00001000
00000100
,
00000010
00000001
00000100
00000000
00000010
00000100
00001000
00000000
,
00000100
00000010
00000001
00000000
00000010
00000100
00001000
00000010
,
00010000
00001000
00022000
00000000
00000000
00000000
00000000
00000000
,
00000000
00000000
00000000
00000000
,
00000000
00000000
00000000
00000000
,
00000000
00000000
00000000
00033000
;

//--------------- dance-double - Wrland ----------------
#NOTEDATA:;
#STEPSTYPE:dance-double;
#DESCRIPTION:Wrland;
#DIFFICULTY:Challenge;
#METER:17;
#RADARVALUES:0,0,0,0,0;
#NOTES:
00000000
10010000
10010000
00000000
,
11000000
01100000
01010000
00000000
,
00110000
00100000
00010000
00100000
11000000
01000000
00100000
10000000
,
01100000
00100000
00010000
00100000
01010000
00100000
10000000
01000000
,
01100000
00100000
00010000
00100000
11000000
01000000
00100000
00010000
,
01100000
00100000
10000000
01000000
01010000
00100000
01000000
00100000
,
01100000
00010000
00100000
01000000
10100000
00100000
01000000
00100000
,
01100000
00010000
00100000
01000000
01010000
00100000
01000000
00100000
,
11000000
01000000
00100000
00010000
01000000
00100000
10000000
01000000
,
00100000
00000000
00010000
00000000
00001000
00000000
00001000
00000000
00000100
00000000
00000010
00000000
00000001
00000010
00000100
00000010
,
00000001
00000100
00000010
00001000
00000001
00000100
00000010
00000100
,
00001000
00000000
00000100
00000000
00000100
00000000
00000010
00000000
00000010
00000000
00000010
00000000
00000001
00000010
00001000
00000010
,
00000101
00000010
00000100
00000010
00000110
00000001
00000010
00000100
,
00001100
00000100
00000010
00000100
00011000
00001000
00010000
00100000
,
00110000
01000000
00100000
01000000
01100000
10000000
01000000
00100000
,
11000000
01000000
00100000
00010000
01100000
00100000
10000000
00100000
,
01010000
00100000
00010000
01000000
10100000
01000000
00100000
00010000
,
01100000
00100000
10000000
00100000
01010000
00100000
01000000
00100000
,
10010000
01000000
10000000
01000000
10000000
00100000
01000000
10000000
,
01000000
00000000
00100000
00000000
00010000
00000000
01000000
00000000
10000000
00000000
01000000
00000000
00100000
00010000
00010000
00100000
,
01000000
00100000
10000000
01000000
00100000
00010000
01000000
00100000
,
10000000
00000000
01000000
00000000
00100000
00000000
00010000
00000000
01000000
00100000
00010000
00100000
01000000
10000000
01000000
00100000
,
00010000
00100000
01000000
10000000
01000000
00100000
00010000
00100000
10000000
00000000
00100000
00000000
01000000
00000000
00000000
00010000
,
00000000
00100000
00010000
00000000
10000000
00000000
00000000
10000000
00000000
01000000
00000000
00000000
00010000
00000000
01000000
00000000
,
00100000
01000000
00010000
00000000
10000000
00000000
01000000
00000000
00100000
00000000
01000000
00000000
00100000
00000000
00000000
00010000
,
00000000
10000000
01000000
00000000
00100000
00000000
00000000
01000000
00000000
00000000
00100000
00000000
10000000
00000000
00100000
00000000
,
01000000
00010000
00100000
00000000
01000000
00000000
00100000
00000000
00010000
00000000
00000000
00001000
00000000
00000000
00000100
00000000
,
00000010
00000000
00000000
00000100
00000000
00000010
00000000
00000000
00000001
00000000
00000010
00000000
00000100
00000000
00000010
00000000
,
00000100
00000001
00000010
00000000
00000001
00000000
00000010
00000000
00000100
00000000
00000000
00001000
00000000
00000000
00000010
00000000
,
00000100
00000000
00000000
00000001
00000000
00000000
00000010
00000000
00000100
00000000
00000010
00000000
00000001
00000000
00001000
00000000
,
00000100
00000000
00000010
00000000
00000100
00000000
00000000
00000100
00002002
00000000
00003003
00000000
00001000
00000000
00000100
00000000
,
00000202
00000303
00000010
00000100
00002200
00003300
00000100
00000010
,
00000220
00000330
00000010
00000001
00000022
00000033
00000001
00000010
,
00000220
00000330
00000100
00001000
00002200
00003300
00000100
00000010
,
00000220
00000330
00000001
00000100
00000202
00000303
00000010
00000100
,
00002200
00003300
00000010
00000001
00000022
00000033
00000010
00000100
,
00000220
00000330
00001000
00000100
00002200
00003300
00000100
00000010
,
00000220
00000330
00000001
00000100
00000202
00000303
00000010
00000100
,
00000220
00000330
00002002
00003003
00001000
00010000
00000000
00010000
,
00100000
00000000
00100000
00000000
01000000
00100000
00000000
01000000
,
00100000
00000000
10000000
00000000
01000000
10000000
00000000
01000000
,
00100000
00000000
00010000
00000000
01000000
00100000
10000000
01000000
,
00100000
00000000
00010000
00000000
10000000
00010000
10000000
00010000
,
01000000
10000000
01000000
00000000
01000000
00000000
00000000
00000000
00100000
00000000
01000000
00000000
00100000
00000000
00010000
00000000
,
01000000
00010000
01000000
00000000
00100000
00000000
00000000
00000000
01000000
00000000
10000000
00000000
01000000
00000000
10000000
00000000
,
01000000
10000000
01000000
00000000
00100000
00000000
00000000
00000000
01000000
00000000
00100000
00000000
00010000
00000000
01000000
00000000
,
00010000
01000000
00010000
00000000
01000000
00000000
00000000
00000000
00100000
00000000
01000000
00000000
00100000
00000000
10000000
00000000
,
01000000
00100000
00010000
01000000
00100000
10000000
00000000
01000000
,
00000000
00100000
01000000
00000000
00100000
01000000
00000000
01000000
,
00100000
00000000
00010000
00000000
00100000
00010000
00000000
00100000
,
00010000
00001000
00010000
00001000
00000110
00000000
00000100
00000000
,
00001001
00000010
00000010
00000100
00000110
00000010
00000001
00000010
,
00001100
00000100
00001000
00000100
00000110
00000010
00000001
00000010
,
00000101
00000010
00000001
00000010
00000110
00000100
00001000
00000100
,
00000110
00000100
00000010
00000001
00001001
00000010
00000100
00000010
,
00001100
00000100
00000010
00000001
00001100
00000010
00000100
00001000
,
00000110
00000010
00000001
00000010
00000101
00000010
00000100
00001000
,
00000110
00000100
00000010
00000001
00001100
00000010
00000100
00000001
,
00000110
00000010
00000100
00001000
00000101
00000100
00000010
00000001
,
00001100
00000100
00001000
00010000
00011000
00100000
00010000
00100000
,
00110000
01000000
00100000
00010000
01100000
00100000
01000000
00100000
,
11000000
01000000
00100000
00010000
01100000
10000000
01000000
00100000
,
01010000
00100000
01000000
10000000
01100000
01000000
00100000
00010000
,
11000000
00100000
10000000
01000000
01100000
00100000
00010000
10000000
,
01010000
10000000
01000000
10000000
01100000
01000000
00100000
00010000
,
10010000
00100000
01000000
00100000
11000000
00010000
00100000
01000000
,
00100000
10000000
00000000
01000000
00100000
00000000
01000000
00100000
00000000
00010000
01000000
00000000
10000000
00000000
01000000
00000000
,
00100000
00000000
00010000
00000000
01000000
00000000
00100000
00000000
01000000
00000000
00010000
00100000
01000000
00000000
00100000
00000000
,
01000000
00000000
00100000
00000000
00010000
00000000
00000000
10010000
00000000
00000000
00200000
00000000
00000000
00000000
00000000
00000000
,
00000000
00000000
10000000
01000000
10000000
01000000
10000000
01000000
,
10000000
01000000
10000000
01300000
00110000
00000000
01000000
00000000
00100000
00000000
01000000
00000000
10010000
00000000
01000000
00000000
,
00100000
00010000
11000000
00100000
01000000
10000000
01100000
00100000
,
00010000
00100000
01010000
00100000
00010000
10000000
01100000
01000000
,
00100000
00010000
11000000
00100000
01000000
10000000
01100000
00100000
,
00010000
10000000
01010000
01000000
10000000
01000000
01100000
00100000
,
00010000
00100000
11000000
01000000
00100000
00010000
01100000
00100000
,
10000000
01000000
01010000
00100000
01000000
10000000
00110000
01000000
,
00100000
00010000
11000000
01000000
00100000
00010000
01100000
00100000
,
01000000
10000000
01010000
01000000
00100000
00010000
01100000
00100000
,
01000000
10000000
11000000
01000000
00100000
00010000
01100000
00100000
,
01000000
10000000
01010000
01000000
00100000
00010000
11000000
00100000
,
01000000
10000000
01100000
10000000
01000000
00100000
01010000
00100000
,
00010000
01000000
10010000
00100000
10000000
01000000
10000000
01000000
,
00100000
00010000
00001000
00001000
00000100
00000010
00000001
00000001
,
00000100
00000010
00000010
00000001
00000100
00000000
00001000
00000000
00000100
00000000
00000010
00000000
00000001
00000000
00000010
00000000
,
00001000
00000010
00000010
00000100
00000010
00000001
00000010
00000100
,
00001000
00000100
00010000
00001000
00044000
00000000
00000000
00000000
00000000
00000000
00000000
00000000
00000000
00000000
00000000
00000000
,
00000000
00000000
00000000
00000000
,
00000000
00000000
00000000
00000000
,
00000000
00000000
00000000
00033000
;
