#TITLE:Blah Blah Blah;
#SUBTITLE:;
#ARTIST:있지;
#TITLETRANSLIT:;
#SUBTITLETRANSLIT:;
#ARTISTTRANSLIT:ITZY;
#GENRE:K-Pop;
#CREDIT:;
#BANNER:Blah Blah Blah.png;
#BACKGROUND:Blah Blah Blah-bg.png;
#JACKET:Blah Blah Blah-jacket.png;
#DISCIMAGE:Blah Blah Blah-cd.png;
#LYRICSPATH:;
#CDTITLE:Wrland Season 3 CITYGHT.png;
#MUSIC:Blah Blah Blah.ogg;
#OFFSET:-0.000000;
#SAMPLESTART:40.639999;
#SAMPLELENGTH:12.000000;
#SELECTABLE:YES;
#DISPLAYBPM:57.000000:115.000000;
#BPMS:0.000000=115.988998
,124.000000=57.993999
,137.000000=231.977005
,143.000000=463.954987
,147.020828=115.988998
,147.520828=85.988998
,149.000000=115.988998
;
#STOPS:13.500000=0.517000,
75.500000=0.259000,
76.000000=0.259000,
147.000000=0.509000,
147.500000=0.259000
;
#BGCHANGES:0.000=Blah Blah Blah.avi=1.000=0=0=0=StretchNoLoop====,
99999.000=-nosongbg-=1.000=0=0=0=StretchNoLoop====,
99999=-nosongbg-=1.000=0=0=0 // don't automatically add -songbackground-
;
#KEYSOUNDS:;
#ATTACKS:;

//---------------dance-single - ----------------
#NOTES:
     dance-single:
     :
     Beginner:
     1:
     0.032506,0.067314,0.000000,0.000000,0.000000,27.000000,27.000000,0.000000,0.000000,0.000000,0.000000,0.032506,0.067314,0.000000,0.000000,0.000000,27.000000,27.000000,0.000000,0.000000,0.000000,0.000000:
0000
0000
0000
0000
,
0000
0000
0000
0000
,
0000
0000
0000
0000
,
0000
0000
0000
0100
,
0000
0000
0000
0000
,
0000
0000
0000
0010
,
0000
0000
0000
0000
,
0000
0000
0000
0100
,
0000
0000
0000
0000
,
0000
0000
0000
1000
,
0000
0000
0000
0000
,
0000
0000
0000
0001
,
0000
0000
0000
0000
,
0000
0000
0000
0100
,
0000
0000
0000
0000
,
0000
0000
0000
0010
,
0000
0000
0000
0000
,
0000
0000
0000
1000
,
0000
0000
0000
0000
,
0000
0000
0100
0000
,
0000
0000
0000
0000
,
0000
0000
0010
0000
,
0000
0000
0000
0000
,
0000
0000
1000
0000
,
0000
0000
0000
0000
,
0000
0000
0001
0000
,
0000
0000
0000
0000
,
0000
0000
0100
0000
,
0000
0000
0000
0000
,
0000
0000
0010
0000
,
0000
0000
0000
0000
,
0000
0100
0000
0000
,
0000
0010
0000
0000
,
0000
1000
0000
0000
,
0000
0100
0000
0000
,
0000
0000
0000
0000
,
0000
0000
0000
0000
,
0000
0010
0000
0000
,
0000
0000
0000
0000
,
0000
0100
0000
0000
,
0000
0000
0000
0000
,
0000
0001
0000
0000
,
0000
0000
0000
0000
,
0000
1000
0000
0000
,
0000
0000
0000
0000
,
0000
0100
0000
0000
,
0000
0000
0000
0000
,
0000
0010
0000
0000
,
0000
0000
0000
0000
,
0000
1000
0000
0000
,
0000
0000
0000
0000
,
0000
0001
0000
0000
,
0000
0000
0000
0000
,
0000
0100
0000
0000
;

//---------------dance-single - ----------------
#NOTES:
     dance-single:
     :
     Easy:
     2:
     0.063808,0.112190,0.000000,0.016855,0.000000,53.000000,53.000000,0.000000,2.000000,0.000000,0.000000,0.063808,0.112190,0.000000,0.016855,0.000000,53.000000,53.000000,0.000000,2.000000,0.000000,0.000000:
0000
0000
0000
0000
,
0000
0000
0000
0000
,
0000
0000
0000
0000
,
0000
0000
0000
0100
,
0000
0000
0000
1000
,
0000
0000
0000
0100
,
0000
0000
0000
0010
,
0000
0000
0000
0001
,
0000
0000
0000
0001
,
0000
0000
0000
1000
,
0000
0000
0000
1000
,
0000
0000
0000
0100
,
0000
0000
0000
1000
,
0000
0000
0000
0100
,
0000
0000
0000
0010
,
0000
0000
0000
0100
,
0000
0000
0000
0010
,
0000
0000
0000
0100
,
0000
0000
0000
0020
,
0000
0030
0100
0000
,
0000
0000
0100
0000
,
0000
0000
0010
0000
,
0000
0000
0001
0000
,
0000
0000
1000
0000
,
0000
0000
1000
0000
,
0000
0000
0100
0000
,
0000
0000
0100
0000
,
0000
0000
0010
0000
,
0000
0000
0100
0000
,
0000
0000
0010
0000
,
0000
0000
1000
0000
,
0000
0001
0000
0001
,
0000
1000
0000
0100
,
0000
1000
0000
0010
,
0000
0100
0000
0000
,
0000
0000
0000
0000
,
0000
0000
0000
0020
,
0030
0100
0000
0000
,
0000
0001
0000
0000
,
0000
1000
0000
0000
,
0000
0100
0000
0000
,
0000
0010
0000
0000
,
0000
0100
0000
0000
,
0000
0001
0000
0000
,
0000
0010
0000
0000
,
0000
0100
0000
0000
,
0000
0001
0000
0000
,
0000
1000
0000
0000
,
0000
0001
0000
0000
,
0000
1000
0000
0000
,
0000
0100
0000
0000
,
0000
1000
0000
0000
,
0000
0100
0000
0000
,
0000
0001
0000
0000
;

//---------------dance-single - ----------------
#NOTES:
     dance-single:
     :
     Medium:
     6:
     0.292553,0.359009,0.075847,0.252823,0.134839,243.000000,234.000000,9.000000,30.000000,0.000000,0.000000,0.292553,0.359009,0.075847,0.252823,0.134839,243.000000,234.000000,9.000000,30.000000,0.000000,0.000000:
0000
0000
0000
0000
,
0000
0000
0000
0000
,
0000
0000
0000
0000
,
0000
0000
0000
0010
,
0100
1000
0100
1000
,
0100
0010
0100
0001
,
0000
0100
0010
0100
,
1000
0100
0010
0001
,
0100
1000
0100
1000
,
0100
0001
0010
0100
,
0000
0000
0000
0000
0010
0000
0000
0000
0100
0000
0000
0000
0010
0000
0000
0001
,
0000
0000
1000
0000
0000
0000
0000
0000
0100
0010
0100
0001
0010
0000
0000
0000
,
1000
0001
0100
0010
,
0100
0010
0100
0010
,
0001
0100
0010
0100
,
0010
0100
1001
0100
,
1000
0100
0010
0001
,
0100
0001
0010
0100
,
0100
0000
0000
0000
0000
0000
0000
0000
0000
0000
0000
0000
0000
0000
0000
0000
0000
0000
0000
0000
0000
0000
0000
0000
0000
0000
0000
0000
0000
0000
0000
0000
0000
0000
0000
0000
0000
0000
0000
0000
0000
0000
0000
0000
0000
0000
0000
0000
0010
0000
0000
0000
0000
0000
0000
0000
0000
0000
0000
0000
0000
0000
0000
0000
0000
0000
0000
0000
0000
0000
0000
0000
0000
0000
0000
0000
0000
0000
0000
0000
0000
0000
0000
0000
0000
0000
0000
0000
0000
0000
0000
0000
0000
0000
0000
0000
0010
0000
0000
0000
0000
0000
0000
0000
0000
0000
0000
0000
0000
0000
0000
0000
0000
0000
0000
0000
0000
0000
0000
0000
0000
0000
0000
0000
0000
0000
0000
0000
0000
0000
0000
0000
0000
0000
0000
0000
0000
0000
0000
0000
0000
0000
0000
0000
1001
0000
0000
0000
0000
0000
0000
0000
0000
0000
0000
0000
0000
0000
0000
0000
0000
0000
0000
0000
0000
0000
0000
0000
0000
0110
0000
0000
0000
0000
0000
0000
0000
0000
0000
0000
0000
0000
0000
0000
0000
0000
0000
0000
0000
0000
0000
0000
,
0000
0100
0010
0000
0000
0000
0000
0000
0000
0000
0000
0000
0000
0000
0000
0000
0000
0000
0000
0000
0000
0000
0000
0000
0000
0000
0000
0000
0000
0000
0000
0000
0000
0000
0000
0000
0000
0000
0000
0000
0000
0000
0000
0000
0000
0000
0000
0000
0000
0000
0000
0000
0000
0000
0000
0000
0000
0000
0000
0000
0000
0000
0000
0000
0000
0000
0000
0000
0000
0000
0000
0000
0000
0000
0000
0000
0000
0000
0000
0000
0000
0000
0000
0000
0000
0000
0000
0000
0000
0000
0000
0000
0000
0000
0000
0000
1001
0000
0000
0000
0000
0000
0000
0000
0000
0000
0000
0000
0000
0000
0000
0000
0000
0000
0000
0000
0000
0000
0000
0000
0100
0000
0000
0000
0000
0000
0000
0000
0000
0000
0000
0000
0000
0000
0000
0000
0000
0000
0000
0000
0000
0000
0000
0000
0010
0000
0000
0000
0000
0000
0000
0000
0000
0000
0000
0000
0000
0000
0000
0000
0000
0000
0000
0000
0000
0000
0000
0000
0100
0000
0000
0000
0000
0000
0000
0000
0000
0000
0000
0000
0000
0000
0000
0000
0000
0000
0000
0000
0000
0000
0000
0000
,
0020
0030
1000
0000
0100
0010
0100
0010
,
0002
0000
0003
0000
0100
0000
0000
0001
0000
0000
1000
0000
0000
0000
0000
0100
,
0000
0000
0001
0000
0000
0000
0000
0100
0000
0000
0010
0000
0000
0000
0000
1000
,
0000
0100
0000
0000
0010
0100
0010
0100
,
0020
0030
0001
0000
1000
0001
1000
0001
,
2000
0000
3000
0000
0100
0000
0000
0001
0000
0000
1000
0000
0000
0000
0000
0100
,
0000
0000
0010
0000
0000
0000
0000
0100
0000
0000
0010
0000
0000
0000
0000
0001
,
0000
1000
0000
0000
0100
0000
0010
0100
,
0010
0000
0001
1000
0001
0000
0100
1000
,
0100
0000
0010
0100
0010
0000
0001
0100
,
0010
0000
1000
0100
1000
0000
0100
0020
,
0000
0030
0200
0300
1000
0100
0020
0030
,
0001
0010
0200
0300
1000
0100
0020
0030
,
0100
0010
0200
0300
0001
0010
0200
0300
,
1000
0000
0100
0010
0000
0000
0000
0000
0200
0000
0000
0000
0000
0000
0000
0000
,
0300
0020
0000
0000
,
0000
0000
0000
0000
0000
0000
0000
0000
0000
0000
0000
0000
0000
0000
0000
0000
0000
0000
0000
0000
0000
0000
0000
0000
0000
0000
0000
0000
0000
0000
0000
0000
0000
0000
0000
0000
0000
0000
0000
0000
0000
0000
0000
0000
0000
0000
0000
0000
0000
0000
0000
0000
0000
0000
0000
0000
0000
0000
0000
0000
0000
0000
0000
0000
0000
0000
0000
0000
0000
0000
0000
0000
0000
0000
0000
0000
0000
0000
0000
0000
0000
0000
0000
0000
0000
0000
0000
0000
0000
0000
0000
0000
0000
0000
0000
0000
0030
0000
0000
0000
0000
0000
0000
0000
0000
0000
0000
0000
0000
0000
0000
0000
0000
0000
0000
0000
0000
0000
0000
0000
0000
0000
0000
0000
0000
0000
0000
0000
0000
0000
0000
0000
0000
0000
0000
0000
0000
0000
0000
0000
0000
0000
0000
0000
0000
0101
0000
0000
0000
0000
0000
0000
0000
0000
0000
0000
0000
0000
0000
0000
0000
0000
0000
0000
0000
0000
0000
0000
0000
2020
0000
0000
0000
0000
0000
0000
0000
0000
0000
0000
0000
0000
0000
0000
0000
0000
0000
0000
0000
0000
0000
0000
,
0000
3030
1001
0100
0010
0100
0020
0030
,
0001
0000
1000
0100
1000
0100
2000
0000
,
3000
0000
0000
0100
0000
0000
0020
0000
0030
0000
0000
0001
0000
0000
0200
0000
,
0300
0000
0000
0010
0000
0000
2000
0000
3000
0000
0000
0100
0000
0000
0020
0000
,
0030
0000
0100
0010
0001
1000
0002
0003
,
1000
0000
0100
0010
1000
0100
0020
0030
,
1000
0000
0000
0100
0000
0000
0020
0000
0030
0000
0000
0001
0000
0000
0200
0000
,
0300
0000
0000
1000
0000
0000
2000
0000
3000
0000
0000
0100
0000
0000
0020
0000
,
0030
0000
0000
0000
0100
0000
0000
0010
0000
0000
0100
0000
0010
0000
0001
0000
,
2000
0000
3000
0000
0100
0000
0000
0100
0000
0000
0010
0000
0000
0001
0000
0000
,
0100
0000
0010
0000
2000
0000
3000
0100
0000
0000
0010
0000
0001
0000
0100
0000
,
2000
0000
3000
0000
0100
0000
0000
0010
0000
0000
0001
0000
0000
0100
0000
0000
,
0010
0100
0000
0000
1000
0000
0001
0000
1000
0000
0001
0000
0000
0000
0000
0000
,
0001
0000
1000
0001
1000
0001
0000
0000
,
1000
0000
0100
0010
0100
0010
0000
0000
,
0100
0000
0010
0001
1000
0001
0000
0100
,
1010
0101
0000
0000
;

//---------------dance-single - ----------------
#NOTES:
     dance-single:
     :
     Hard:
     10:
     0.499627,0.602983,0.109557,0.623631,0.577280,415.000000,402.000000,13.000000,74.000000,7.000000,0.000000,0.499627,0.602983,0.109557,0.623631,0.577280,415.000000,402.000000,13.000000,74.000000,7.000000,0.000000:
// measure 0
0000
0000
0000
0000
,  // measure 1
0000
0000
0000
0000
,  // measure 2
0000
0000
0000
0000
,  // measure 3
0000
0000
0000
0000
0000
0000
0000
0000
0000
0000
0000
0000
0100
0000
0001
1000
,  // measure 4
0001
2000
3000
0000
0100
0000
0010
0100
0010
0200
0300
0000
0001
0000
1000
0000
,  // measure 5
0001
2000
3000
0000
0100
0000
0001
0010
0100
0020
0030
0000
0002
0000
0000
0000
,  // measure 6
0003
1000
0100
0010
0100
0010
0002
0003
,  // measure 7
0200
0300
0020
0030
0000
0000
0100
0010
,  // measure 8
0100
0020
0030
0000
0001
0000
1000
0000
0001
2000
3000
0000
0100
0000
0010
0000
,  // measure 9
0100
0020
0030
0000
0001
0000
1000
0000
0001
1000
0000
0000
2002
0000
0000
0000
,  // measure 10
3003
0100
0010
0001
1000
0100
2000
3000
,  // measure 11
2002
0000
3003
0000
0220
0000
0330
0000
0100
0010
0100
0010
1000
0000
0100
0000
,  // measure 12
0010
0002
0000
0000
0003
0000
0100
0010
0001
1000
0100
0010
0002
0003
0100
0010
,  // measure 13
0100
0020
0030
0000
0001
0000
0100
0010
1000
0100
0001
0000
1000
0000
0100
0000
,  // measure 14
0020
0000
0000
0000
0030
0000
0001
1000
0001
1000
0001
0000
0100
0010
0000
0000
,  // measure 15
0100
0010
0000
0000
0001
0100
0000
0000
1000
0100
0000
0000
0010
0000
0100
0010
,  // measure 16
1000
0200
0300
0000
0010
0000
0100
0010
0100
0010
0002
0003
1000
0000
0100
0000
,  // measure 17
0010
0200
0300
0000
0010
0000
0100
0000
0001
1000
0000
0000
0220
0000
0330
0000
,  // measure 18
0000
0000
0000
0000
0000
0000
0000
0000
0000
0000
0000
0000
0000
0000
0000
0000
0000
0000
0000
0000
0000
0000
0000
0000
0100
0000
0000
0000
0000
0000
0000
0000
0000
0000
0000
0000
0000
0000
0000
0000
0000
0000
0000
0000
0000
0000
0000
0000
0010
0000
0000
0000
0000
0000
0000
0000
0000
0000
0000
0000
0000
0000
0000
0000
0000
0000
0000
0000
0000
0000
0000
0000
0001
0000
0000
0000
0000
0000
0000
0000
0000
0000
0000
0000
0000
0000
0000
0000
0000
0000
0000
0000
0000
0000
0000
0000
1000
0000
0000
0000
0000
0000
0000
0000
0000
0000
0000
0000
0000
0000
0000
0000
0000
0000
0000
0000
0000
0000
0000
0000
0100
0000
0000
0000
0000
0000
0000
0000
0000
0000
0000
0000
0000
0000
0000
0000
0000
0000
0000
0000
0000
0000
0000
0000
0022
0000
0000
0000
0000
0000
0000
0000
0000
0000
0000
0000
0000
0000
0000
0000
0000
0000
0000
0000
0000
0000
0000
0000
0033
2200
0000
0000
0000
0000
0000
0000
0000
0000
0000
0000
0000
0000
0000
0000
0000
0000
0000
0000
0000
0000
0000
0000
,  // measure 19
3300
0220
0000
0000
0000
0000
0000
0000
0000
0000
0000
0000
0330
0000
0000
0000
0000
0000
0000
0000
0000
0000
0000
0000
1000
0000
0000
0000
0000
0000
0000
0000
0000
0000
0000
0000
0100
0000
0000
0000
0000
0000
0000
0000
0000
0000
0000
0000
1000
0000
0000
0000
0000
0000
0000
0000
0000
0000
0000
0000
0100
0000
0000
0000
0000
0000
0000
0000
0000
0000
0000
0000
1000
0000
0000
0000
0000
0000
0000
0000
0000
0000
0000
0000
0100
0000
0000
0000
0000
0000
0000
0000
0000
0000
0000
0000
0001
0000
0000
0000
0000
0000
0000
0000
0000
0000
0000
0000
0000
0000
0000
0000
0000
0000
0000
0000
0000
0000
0000
0000
0010
0000
0000
0000
0000
0000
0000
0000
0000
0000
0000
0000
0100
0000
0000
0000
0000
0000
0000
0000
0000
0000
0000
0000
0010
0000
0000
0000
0000
0000
0000
0000
0000
0000
0000
0000
0000
0000
0000
0000
0000
0000
0000
0000
0000
0000
0000
0000
1000
0000
0000
0000
0000
0000
0000
0000
0000
0000
0000
0000
0000
0000
0000
0000
0000
0000
0000
0000
0000
0000
0000
0000
,  // measure 20
0100
0000
0010
0000
0001
0000
0010
0100
0010
0000
1000
0000
0100
0000
0010
0000
,  // measure 21
0002
0000
0003
1000
0000
0100
0010
2000
0000
3000
0100
0000
0010
1000
0100
0020
,  // measure 22
0000
0030
0010
0100
1000
0001
1000
0002
0003
0000
0001
0010
0001
0010
0100
1000
,  // measure 23
0220
0330
1001
0000
1000
0100
1000
0100
1000
0000
0100
0000
0010
0000
0100
0000
,  // measure 24
0010
0000
0010
0100
0010
0100
0010
0100
0010
0000
0100
0000
0010
0000
0100
0000
,  // measure 25
2000
0000
3000
0000
0100
0000
0010
0200
0000
0300
0010
0000
0100
0010
0100
0020
,  // measure 26
0000
0030
1000
0000
0100
0000
0010
0100
0010
0000
0100
0000
0010
0000
0100
0020
,  // measure 27
0000
0030
0100
0000
1000
0000
0010
0000
100M
0000
0000
0010
0100
0000
1000
0000
,  // measure 28
0000
0000
0100
0000
0010
0000
0001
0000
M100
0000
0000
0010
0100
0000
0010
0000
,  // measure 29
0000
0000
0001
0000
0100
0000
0000
0000
10M0
0000
0000
0100
0010
0000
0100
0000
,  // measure 30
0000
0000
1000
0000
0100
0000
0000
0000
00M1
0000
0000
0100
0010
0000
0100
0000
,  // measure 31
0000
1000
0100
0000
2000
0000
3000
1000
0100
1000
0100
1000
0200
0000
0300
0100
,  // measure 32
0010
0100
0010
0100
0002
0000
0003
0100
0010
0100
1000
0100
0020
0000
0030
0100
,  // measure 33
0010
0100
1000
0100
0020
0000
0030
0100
0010
0100
1000
0100
0020
0000
0030
1000
,  // measure 34
0100
0010
0001
0100
0000
0000
0000
0000
0020
0000
0000
0000
0000
0000
0000
0000
,  // measure 35
0030
0200
0000
0000
,  // measure 36
0000
0000
0000
0000
0000
0000
0000
0000
0000
0000
0000
0000
0000
0000
0000
0000
0000
0000
0000
0000
0000
0000
0000
0000
0000
0000
0000
0000
0000
0000
0000
0000
0000
0000
0000
0000
0000
0000
0000
0000
0000
0000
0000
0000
0000
0000
0000
0000
0000
0000
0000
0000
0000
0000
0000
0000
0000
0000
0000
0000
0000
0000
0000
0000
0000
0000
0000
0000
0000
0000
0000
0000
0000
0000
0000
0000
0000
0000
0000
0000
0000
0000
0000
0000
0000
0000
0000
0000
0000
0000
0000
0000
0000
0000
0000
0000
0300
0000
0000
0000
0000
0000
0000
0000
0000
0000
0000
0000
0000
0000
0000
0000
0000
0000
0000
0000
0000
0000
0000
0000
0000
0000
0000
0000
0000
0000
0000
0000
0000
0000
0000
0000
0000
0000
0000
0000
0000
0000
0000
0000
0000
0000
0000
0000
0000
1001
0000
0000
0000
0000
0000
0000
0000
0000
0000
0000
0000
0000
0000
0000
0000
0000
0000
0000
0000
0000
0000
0000
0000
2002
0000
0000
0000
0000
0000
0000
0000
0000
0000
0000
0000
0000
0000
0000
0000
0000
0000
0000
0000
0000
0000
0000
,  // measure 37
3003
0000
0100
0010
0100
0010
0001
0100
,  // measure 38
0010
0000
0100
0010
0100
0000
1000
0000
0100
0000
0010
0000
0001
0000
0000
0100
,  // measure 39
0000
1000
0100
0002
0000
0003
0100
0000
1000
0100
0001
2000
0000
3000
0100
0000
,  // measure 40
0010
1000
0001
0200
0000
0300
0010
0000
1000
0000
0100
0020
0000
0030
1000
0100
,  // measure 41
0010
0001
0010
0100
1000
0000
0100
0000
1000
0000
0100
0000
0010
0000
0001
0010
,  // measure 42
0100
1000
0100
0010
0001
0000
1000
0000
0100
0000
1000
0000
0200
0000
0300
0000
,  // measure 43
0010
0000
0100
0020
0000
0030
0100
0000
1000
0100
1000
0200
0000
0300
0100
0000
,  // measure 44
0010
0001
0100
0020
0000
0030
0010
0000
0100
1000
0100
0020
0000
0030
0100
0000
,  // measure 45
MM2M
0000
0030
0000
0200
0000
0300
0020
0000
0030
0100
0000
0010
0000
0100
0000
,  // measure 46
0020
0000
0030
0000
0002
0000
0003
0200
0000
0300
0010
0000
1000
0000
0100
0000
,  // measure 47
0010
0001
0010
0000
0200
0000
0300
0020
0000
0030
0100
0000
0010
0000
0100
0000
,  // measure 48
2000
0000
3000
0000
0200
0000
0300
2000
0000
3000
0100
0000
0010
0000
0001
0000
,  // measure 49
0100
0010
0000
2000
0000
3000
0100
0000
0010
0000
0100
0000
0010
0000
0100
0000
,  // measure 50
0010
0100
1000
0100
1000
0100
0100
0010
,  // measure 51
0001
1000
0100
0010
1000
0100
1000
0100
,  // measure 52
0010
0001
0100
1000
0100
0010
0000
1001
,  // measure 53
1001
0000
0000
0000
;
