#VERSION:0.83;
#TITLE:Beautiful Liar;
#SUBTITLE:;
#ARTIST:Beyoncé, Shakira;
#TITLETRANSLIT:;
#SUBTITLETRANSLIT:;
#ARTISTTRANSLIT:;
#GENRE:Pop;
#CREDIT:Wrland;
#MUSIC:Beautiful Liar.ogg;
#BANNER:Beautiful Liar.png;
#BACKGROUND:BG.png;
#CDTITLE:Wrland Season 3 CITYGHT + last one night.png;
#PREVIEWVID:preview.mp4;
#SAMPLESTART:101.730;
#SAMPLELENGTH:12.000;
#SELECTABLE:YES;
#OFFSET:0.009;
#LYRICSPATH:Beautiful Liar.lrc;
#BPMS:0.000=92.000;
#STOPS:168.000=1.957;
#DISPLAYBPM:92.000;
#JACKET:Beautiful Liar-jacket.png;
#CDIMAGE:Beautiful Liar-cd.png;
#METERTYPE:DDR X;
#BGCHANGES:0.000=Beautiful Liar.avi=1.000=0=0=0=StretchNoLoop====,
99999.000=-nosongbg-=1.000=0=0=0=StretchNoLoop====
;
#FGCHANGES:;

//--------------- dance-single - Wrland ----------------
#NOTEDATA:;
#STEPSTYPE:dance-single;
#DESCRIPTION:Wrland;
#DIFFICULTY:Beginner;
#METER:1;
#RADARVALUES:0,0,0,0,0;
#NOTES:
0000
0000
0000
0000
,
0000
0000
0000
0000
,
0000
0000
0000
0000
,
0000
0000
0000
0000
,
0000
0000
0000
0000
,
0000
0000
0000
0000
,
0100
0000
0000
0000
,
0100
0000
0000
0000
,
1000
0000
0000
0000
,
1000
0000
0000
0000
,
0001
0000
0000
0000
,
0001
0000
0000
0000
,
0010
0000
0000
0000
,
0100
0000
0000
0000
,
1000
0000
0000
0000
,
0100
0000
0000
0000
,
1000
0000
0000
0000
,
1000
0000
0000
0000
,
0010
0000
0000
0000
,
0010
0000
0000
0000
,
1000
0000
0000
0000
,
1000
1000
1000
1001
,
0100
0000
0000
0000
,
0010
0000
0000
0000
,
0100
0000
0000
0000
,
0001
0100
0001
0100
,
1100
0000
0000
0000
,
0100
0000
0000
0000
,
0010
0000
0000
0000
,
0100
0000
0000
0000
,
1000
0000
0000
0000
,
0100
0000
0000
0000
,
0100
0100
0200
0300
,
0010
0010
0020
0030
,
0001
0000
1000
0000
,
1000
0000
0001
0000
,
1000
0000
0001
0000
,
0001
0000
1000
0000
,
0100
0000
0010
0000
,
0100
0000
0000
0000
,
0100
0000
0000
0000
,
0010
0000
0000
0000
,
0100
0010
0000
0000
,
0000
0100
0000
0000
,
0000
1000
0000
0000
,
0000
0100
0000
0000
,
0000
0010
0000
0000
,
0000
0100
0000
0000
,
0000
0010
0000
0000
,
0000
0100
0100
0100
,
1100
0100
0000
0000
,
0000
0010
0000
0000
,
0000
0001
0000
0000
,
0000
0001
0001
0001
,
0011
0000
0000
0000
;

//--------------- dance-single - Wrland ----------------
#NOTEDATA:;
#STEPSTYPE:dance-single;
#DESCRIPTION:Wrland;
#DIFFICULTY:Easy;
#METER:3;
#RADARVALUES:0,0,0,0,0;
#NOTES:
0000
0000
0000
0000
,
0000
0000
0000
0000
,
0000
0000
0000
0000
,
0000
0000
0000
0000
,
0000
0000
0000
0000
,
0000
0000
0000
1001
,
1000
0000
1000
0000
,
0100
0000
1000
0000
,
0100
0000
0010
0000
,
0100
0010
0100
0010
,
0001
0000
0010
0000
,
0100
0000
1000
0000
,
0100
1000
0100
0010
,
0001
0000
0001
0000
,
0100
0000
0100
0000
,
0010
0000
0100
0000
,
1000
0000
1000
0000
,
0100
0000
0010
0000
,
0001
0000
0100
0000
,
0001
0000
0100
0000
,
1000
0000
0100
0000
,
1000
0000
1000
0000
1000
0001
1000
0000
,
0100
0000
1000
0000
,
0100
0000
0100
0000
,
0010
0000
0100
0000
,
1000
0000
0100
0000
1000
0100
1000
0000
,
0100
0000
0010
0000
,
0001
0000
0100
0000
,
0010
0000
0100
0000
,
0100
0000
1000
0000
,
1000
0000
0100
0000
,
0100
0000
0010
0000
,
0100
0100
0100
0110
,
0010
0010
0010
0011
,
0020
0030
0100
1000
,
0200
0000
0300
0000
0100
0000
0010
0001
,
0200
0000
0300
0100
2000
0000
3000
0100
,
0020
0030
0100
1000
,
0100
0010
0200
0300
,
0200
0300
2000
3000
,
0200
0000
0300
0000
0010
0000
0000
0100
,
0010
0000
0000
0001
0100
0000
0000
1000
,
0100
0100
0010
0100
,
0000
0010
0001
0010
,
0000
1000
0100
1000
,
0000
0100
0010
0100
,
0110
0010
0000
0100
,
0000
0010
0000
0001
,
0000
0100
0000
0010
,
0000
0000
0100
0000
1000
0000
0100
1000
,
0100
0100
0000
0010
,
0000
0100
0000
1000
,
0000
0000
0100
0000
0000
0010
0000
0000
,
0000
0000
0100
0000
0100
0000
0010
0100
,
0010
0000
0000
0000
;

//--------------- dance-single - Wrland ----------------
#NOTEDATA:;
#STEPSTYPE:dance-single;
#DESCRIPTION:Wrland;
#DIFFICULTY:Medium;
#METER:6;
#RADARVALUES:0,0,0,0,0;
#NOTES:
0000
0000
0000
0000
,
0000
0000
0000
0000
,
0000
0000
0000
0000
,
0000
0000
0000
0000
,
0000
0000
0000
0000
,
0000
0000
0000
0000
0000
0000
2002
3003
,
1000
0000
0200
0000
0300
0000
0010
0000
0200
0000
0300
0010
0100
0000
0020
0000
,
0030
0000
0001
0000
0200
0000
0300
0000
0020
0000
0030
1000
0100
0000
0020
0000
,
0030
0100
0010
0002
0003
2000
0000
3000
,
0010
0100
0010
0100
0010
0100
0010
0000
0001
0100
0001
0100
0001
0100
0001
0000
,
0000
0000
0100
0000
2000
0000
3000
0000
0200
0000
0300
0001
0010
0000
0200
0000
,
0300
0000
0100
0000
0000
0010
0000
0200
0000
0300
0000
0010
0200
0000
0300
0000
,
0010
0000
0001
0000
0200
0300
0020
0000
0000
0030
0000
1000
0200
0000
0300
0000
,
1000
0100
1000
0100
1000
0100
1000
0000
0100
0010
0100
0010
0100
0010
0100
0000
,
0200
0000
0300
0010
0000
0100
0000
0020
0000
0000
0030
0000
0001
0000
0000
0000
,
0001
0010
0000
0100
0000
1000
0000
0200
0000
0300
0000
1000
0000
0200
0300
0000
,
0100
0000
0020
0000
0030
0100
0000
0020
0000
0000
0000
0000
0030
0000
0000
0000
,
0001
0100
0000
0001
0000
0010
0000
0200
0000
0300
0000
1000
0200
0000
0300
0000
,
0200
0000
0300
1000
0000
0100
0000
2000
0000
3000
0000
0100
0010
0000
0002
0003
,
0200
0300
0000
0010
0000
0100
0000
0020
0000
0030
0000
0001
0200
0000
0300
0000
,
0020
0030
0000
0100
0000
1000
0000
0200
0000
0300
0000
1000
0100
0000
0010
0000
,
0002
0003
0200
0300
1000
0100
2000
3000
,
0200
0300
0000
0010
0000
0100
0000
0020
0000
0030
0000
0001
0100
0000
0001
0000
,
0020
0000
0030
1000
0000
0100
0000
2000
3000
0000
0100
0000
2000
0000
3000
0000
,
0200
0000
0300
0010
0000
0100
0000
0020
0000
0030
0000
0001
0100
0000
1000
0000
,
2200
3300
0220
0330
0001
0100
0010
0100
,
0020
0030
0000
0100
0010
0000
0000
0000
0001
0000
0000
0100
0001
0000
0000
0000
,
0010
0000
0000
1000
0100
0000
0000
0000
1000
0000
0000
0100
0010
0000
0000
0000
,
0100
0000
0000
0010
0100
0000
0000
0000
0001
0000
0000
0001
0100
0000
0000
0000
,
0010
0000
0000
0100
0010
0000
0000
0000
1000
0000
0000
0100
1000
0000
0000
0000
,
0100
0000
0000
0100
0100
0000
0000
0000
0010
0000
0000
0010
0010
0000
0000
0000
,
0001
0000
0000
0001
0001
0000
0000
0000
0010
0000
0000
0010
0010
0000
0000
0000
,
0200
0300
0000
1000
0000
0100
0000
0020
0000
0030
0000
0100
0010
0000
0001
0000
,
0200
0000
0300
0010
0000
0100
0000
0020
0000
0030
0000
0001
0202
0000
0303
0000
,
0100
0000
0100
0100
0100
0000
1000
1000
1000
0000
0100
0100
0100
0000
0010
0010
,
0010
0000
0001
0001
0001
0000
0010
0010
0010
0000
0100
0100
0100
0000
1000
0000
,
0100
0000
0100
0100
0100
0000
1000
1000
1000
0000
0100
0100
0100
0000
0010
0010
,
0010
0000
0001
0001
0001
0000
0010
0010
0010
0000
0100
0100
0100
0000
1000
0000
,
0200
2300
3200
0300
,
0100
0000
0000
0010
0000
0100
0000
0020
0000
0000
0030
0000
0002
0000
0003
0000
,
0010
0000
0000
0100
0000
1000
0000
0200
0000
0000
0300
0000
0000
0000
1000
0000
,
2200
0000
0000
3300
0000
0000
0100
0000
0220
0000
0000
0000
0330
0000
0001
0000
,
0202
0303
1000
0000
2200
0000
3300
0010
0000
0100
0000
0020
0000
0030
0000
0010
,
0100
0000
0010
0000
0002
0000
0003
0100
0000
0010
0000
0200
0000
0300
0000
0001
,
0100
0000
0010
0000
0002
0000
0003
0100
0000
1000
0000
0200
0000
0300
0000
1000
,
0100
0000
0001
0000
0200
0000
0300
1000
0000
0100
0000
2000
0000
3000
0000
0100
,
0011
0000
0100
0000
0020
0000
0030
0100
0000
0010
0000
0200
0000
0000
0300
0000
,
2000
0000
3000
0000
0200
0000
0300
0010
0000
0100
0000
0020
0000
0000
0000
0030
,
0002
0000
0003
0000
0020
0000
0030
0001
0000
0010
0000
0002
0000
0003
0000
0010
,
0100
0010
0220
0330
2200
3300
0110
0001
,
0200
0000
0000
0300
0020
0030
0000
0100
0000
0010
0000
0200
0000
0300
0000
0100
,
0010
0000
1000
0000
0200
0000
0300
0010
0000
0100
0000
0020
0030
0000
0100
0000
,
0022
0000
0033
0000
0200
0000
0300
1000
0000
0100
0000
2000
0000
3000
0000
0100
,
1000
0100
0220
0330
2002
3003
1000
0001
,
1000
0001
0000
0000
0000
0000
0000
0000
;

//--------------- dance-single - Wrland ----------------
#NOTEDATA:;
#STEPSTYPE:dance-single;
#DESCRIPTION:Wrland;
#DIFFICULTY:Hard;
#METER:9;
#RADARVALUES:0,0,0,0,0;
#NOTES:
0000
0000
0000
0000
,
0000
0000
0000
0000
,
0000
0000
0000
0000
,
0000
0000
0000
0000
,
2000
3000
0000
1000
0000
0100
0000
2000
0000
3000
0000
0100
0020
0030
0002
0003
,
0200
0000
0300
0010
0000
0100
0000
0020
0000
0000
0030
1000
0101
0000
0010
0000
,
0100
0000
0000
0100
0010
1000
0000
0200
0000
0300
0000
0100
0010
0000
0001
0000
,
0010
0000
0000
0100
0010
1000
0000
0200
0000
0300
0000
0010
0100
0000
0010
0000
,
0001
0000
0000
0100
0010
1000
0000
0200
0000
0300
0000
1000
0100
0000
0010
0000
,
0100
0010
0100
0010
0100
0010
0100
0001
1000
0001
1000
0001
1000
0001
1000
0000
,
0010
0000
0000
0100
1000
0010
0000
0200
0000
0300
0000
1000
0100
0000
0010
0000
,
0001
0000
0000
0100
0010
1000
0000
0200
0000
0000
0300
1000
0100
0000
1000
0000
,
0100
0000
0010
0000
0100
0000
0020
0000
0000
0030
0000
1000
0100
0000
0010
0000
,
0001
0100
0001
0100
0001
0100
0001
0010
0100
0010
0100
0010
0100
0010
0100
0000
,
0010
0000
0200
0000
0300
0010
0000
0200
0000
0300
0000
0010
0100
0000
0010
0000
,
0001
0100
0000
0001
0000
0010
0000
0100
0000
1000
0000
0100
0000
1000
0000
0000
,
1000
0000
0200
0000
0300
0010
0000
0200
0000
0300
0000
0010
0200
0000
0000
0300
,
0001
0100
0000
0010
0000
0100
0000
0020
0000
0030
0000
0100
0010
0000
0110
0000
,
2002
0000
3003
2000
3000
0002
0003
2000
0000
3000
0000
0001
1000
0000
0002
0003
,
0200
0000
0300
1000
0000
0100
0000
2000
0000
0000
3000
0100
0020
0000
0030
0000
,
0002
0000
0003
0100
0000
0001
0000
0200
0000
0300
0000
0010
0100
0000
0010
0000
,
0220
0330
2200
3300
0110
1100
0011
1100
,
0022
0000
0033
0100
0000
1000
0000
0200
0000
0000
0300
1000
0100
0000
0010
0000
,
0200
0000
0300
0010
0000
0100
0000
0020
0000
0030
0001
0000
0200
0000
0300
0000
,
0020
0000
0030
0100
0000
1000
0000
0200
0000
0300
0000
1000
0100
0000
0010
0000
,
0220
0330
2002
3003
1100
0110
0011
0110
,
2000
0000
3000
0100
1000
0000
0100
0000
0020
0000
0030
0100
0010
0000
0001
0000
,
0200
0000
0300
0010
0100
0000
1000
0000
0200
0300
0000
0100
1000
0000
0100
0000
,
0020
0000
0030
0001
0100
0000
0001
0000
0200
0000
0300
0010
0100
0000
0010
0000
,
0002
0000
0003
0100
0010
0000
0100
0000
2000
0000
3000
0100
1000
0000
0100
0000
,
0020
0000
0030
0001
0100
0000
0001
0000
0200
0000
0300
0010
0100
0000
0010
0000
,
0002
0000
0003
0100
0010
0000
0100
0000
2000
0000
3000
0100
0010
0000
0001
0000
,
0202
0000
0303
0010
0000
0100
0000
0020
0000
0030
0000
1000
0100
0000
0110
0000
,
0002
0000
0003
0100
0000
0010
0000
0200
0000
0300
0000
1000
0220
0000
0330
0000
,
1000
0000
0100
0100
1000
0000
0100
1000
0100
0000
0010
0001
0100
0001
0100
0010
,
0100
0000
0100
0010
0100
0000
0010
0100
0010
0000
0001
0100
0001
0000
0010
0000
,
0100
0000
1000
0100
1000
0000
0100
0010
0100
0000
0001
0100
0001
0000
0010
0100
,
0010
0000
0100
1000
0100
0000
0100
0010
0100
0000
0010
0100
0010
0000
0001
0000
,
0100
0001
0100
0010
0100
0010
0001
0100
0020
0000
0030
0100
2000
0000
0000
3000
,
0110
0000
0000
0100
0010
1000
0000
0200
0000
0300
0000
0100
0010
0000
0001
0000
,
0202
0303
0000
0010
1000
0100
0000
0020
0000
0030
0000
0100
1000
0000
0100
0000
,
2000
0000
3000
0100
0020
0000
0030
0001
,
0200
0300
0010
0000
2000
0000
3000
0100
0000
0010
0000
0002
0000
0003
0000
0100
,
0010
0000
0100
0000
2000
0000
3000
0100
0000
1000
0000
0200
0000
0300
0000
1000
,
0100
0000
0010
0000
0200
0000
0300
0010
0000
0100
0000
0020
0000
0030
0000
0001
,
0100
0000
0001
0000
0020
0000
0030
0100
0000
1000
0000
0200
0000
0300
0000
0010
,
0110
0000
0010
0000
0200
0000
0300
1000
0000
0100
0000
2000
0000
3000
0000
0100
,
1000
0000
0100
0000
0020
0000
0030
0100
0000
0010
0000
0002
0000
0003
0000
0001
,
0200
0000
0300
0000
0200
0000
0300
0010
0000
1000
0000
0200
0000
0000
0300
1000
,
0100
0010
0220
0330
2002
3003
1100
1100
,
0011
0000
0011
0000
0200
0000
0300
1000
0000
0100
0000
2000
0000
3000
0000
0100
,
0010
0000
0001
0000
0200
0000
0300
0010
0000
0100
0000
0020
0000
0030
0001
0000
,
0202
0000
0303
0000
0020
0000
0030
0100
0000
1000
0000
0200
0000
0300
0000
0100
,
0010
0001
0220
0330
2200
3300
0110
0101
,
0110
1001
0000
0000
0000
0000
0000
0000
;
