#TITLE:Barber's Madness;
#SUBTITLE:;
#ARTIST:Klass E;
#TITLETRANSLIT:;
#SUBTITLETRANSLIT:;
#ARTISTTRANSLIT:;
#GENRE:Classic Speed;
#CREDIT:Wrland;
#MUSIC:Barber's Madness.ogg;
#BANNER:Barber's Madness.png;
#BACKGROUND:Barber's Madness-bg.png;
#CDTITLE:Wrland Season 3 CITYGHT.png;
#SAMPLESTART:81.241;
#SAMPLELENGTH:12.000;
#SELECTABLE:YES;
#OFFSET:-13.565;
#BPMS:0.000=195.000
,48.000=390.000
,112.083=195.000
,160.000=97.500
,186.000=390.000
,195.958=780.000
,208.000=195.000
,296.000=48.750
,300.000=24.375
;
#STOPS:;
#DISPLAYBPM:*;
#ORIGIN:;
#PREVIEWVID:;
#JACKET:Barber's Madness-jacket.png;
#CDIMAGE:;
#DISCIMAGE:;
#BGCHANGES:;
#FGCHANGES:;

//--------------- dance-single - ----------------
#NOTES:
     dance-single:
     :
     Beginner:
     2:
     0.086612,0.142098,0.056839,0.018946,0,64,58,6,2,0,0,0,0,0,0.086612,0.142098,0.056839,0.018946,0,64,58,6,2,0,0,0,0,0:
0000
0000
0000
0000
,
0000
0000
0000
0000
,
1000
0000
0000
0000
,
1000
0000
0000
0000
,
0100
0000
0000
0000
,
1000
0000
0000
0000
,
0100
0000
0000
0000
,
0010
0000
0000
0000
,
0001
0000
0000
0000
,
1000
0000
0000
0000
,
0100
0000
0000
0000
,
0010
0000
0000
0000
,
1001
0000
0000
0000
,
0000
0000
0000
0000
,
1000
0000
0000
0000
,
0000
0000
0000
0000
,
0100
0000
0000
0000
,
0000
0000
0000
0000
,
0010
0000
0000
0000
,
0000
0000
0000
0000
,
1000
0000
0000
0000
,
0000
0000
0000
0000
,
0100
0000
0000
0000
,
0000
0000
0000
0000
,
0010
0000
0000
0000
,
0000
0000
0000
0000
,
1000
0000
0000
0000
,
0000
0000
0000
0000
,
1001
0000
0000
0000
,
0100
0000
0000
0000
,
0010
0000
0000
0000
,
0001
0000
0000
0000
,
1000
0000
0000
0000
,
0100
0000
0000
0000
,
0010
0000
0000
0000
,
1000
0000
0000
0000
,
1001
0000
0000
0000
,
0000
0000
0000
0000
,
0001
0000
0000
0000
,
0000
0000
0000
0000
,
1001
0000
0000
0000
,
1000
0000
0000
0000
,
0100
0000
0000
0000
,
0010
0000
0000
0000
,
0100
0000
0000
0000
,
1000
0000
0000
0000
,
0100
0000
2002
0000
,
0000
0000
0000
0000
,
0000
0000
0000
0000
,
0000
0000
0000
0000
,
0000
0000
0000
0000
,
0000
0000
0000
0000
0000
0000
0000
3003
,
0000
0000
0000
0000
,
1000
0000
0000
0000
,
0100
0000
0000
0000
,
0010
0000
0000
0000
,
0001
0000
0000
0000
,
1000
0000
0000
0000
,
0100
0000
0000
0000
,
0010
0000
0000
0000
,
1000
0000
0000
0000
,
0100
0000
0000
0000
,
1000
0000
0000
0000
,
0100
0000
0000
0000
,
0001
0000
0000
0000
,
1000
0000
0000
0000
,
0100
0000
0000
0000
,
0010
0000
0000
0000
,
0001
0000
0000
0000
,
1000
0000
0000
0000
,
0100
0000
0000
0000
,
0010
0000
0000
0000
,
0001
0000
0000
0000
,
0000
0000
0000
0000
,
0100
0000
0000
0000
,
1001
0000
0000
0000
;

//--------------- dance-single - ----------------
#NOTES:
     dance-single:
     :
     Easy:
     4:
     0.182697,0.31972,0.018946,0.018946,0,135,133,2,2,0,0,0,0,0,0.182697,0.31972,0.018946,0.018946,0,135,133,2,2,0,0,0,0,0:
0000
0000
0000
0000
,
0000
0000
0000
0000
,
1000
0000
1000
0000
,
1000
0000
0100
0000
,
0100
0000
0010
0000
,
0001
0000
0100
0000
,
0010
0000
0100
0000
,
1000
0000
1000
0000
,
0100
0000
0100
0000
,
0010
0000
0001
0000
,
1000
0000
1000
0000
,
0100
0000
0010
0000
,
0001
0000
0000
0000
,
0001
0000
0000
0000
,
0001
0000
0000
0000
,
1000
0000
0000
0000
,
0100
0000
0000
0000
,
0010
0000
0000
0000
,
1000
0000
0000
0000
,
0001
0000
0000
0000
,
1000
0000
0000
0000
,
0100
0000
0000
0000
,
0010
0000
0000
0000
,
1000
0000
0000
0000
,
1000
0000
0000
0000
,
1000
0000
0000
0000
,
0100
0000
0000
0000
,
0010
0000
0000
0000
,
0001
0000
0001
0000
,
1000
0000
1000
0000
,
0010
0000
0010
0000
,
0100
0000
0001
0000
,
1000
0000
1000
0000
,
0100
0000
0010
0000
,
0001
0000
0001
0000
,
1000
0000
1000
0000
,
0001
0000
0010
0000
,
0001
0000
0001
0000
,
0001
0000
1000
0000
,
0001
0000
0100
0000
,
0010
1000
0100
0001
,
0001
0001
1000
1000
,
0001
0100
0001
1000
,
1000
1000
0100
0010
,
0001
0001
1000
0100
,
0010
0001
1000
1000
,
0100
0010
0002
0000
,
0000
0000
0000
0000
,
0000
0003
2000
0000
,
0000
0000
0000
0000
,
0000
0000
0000
0000
,
0000
0000
3000
0000
,
1001
0000
0000
0000
,
1000
0000
1000
0000
,
0100
0000
0010
0000
,
0001
0000
1000
0000
,
0100
0000
1000
0000
,
0100
0000
0010
0000
,
0001
0000
1000
0000
,
0100
0000
0010
0000
,
0001
0000
1000
0000
,
0010
0000
0100
0000
,
1000
0000
0100
0000
,
0010
0000
0001
0000
,
1000
0000
0010
0000
,
0100
0000
1000
0000
,
0100
0000
0010
0000
,
0001
0000
1000
0000
,
0100
0000
0010
0000
,
0001
0000
1000
0000
,
0100
0000
0010
0000
,
1000
0000
1000
0000
,
0100
0000
0100
0000
,
0010
0000
0001
0000
,
1001
0000
0000
0000
,
1000
0000
0000
0000
;

//--------------- dance-single - ----------------
#NOTES:
     dance-single:
     :
     Medium:
     7:
     0.332915,0.674965,0.094732,0.123152,0,246,236,10,13,0,0,0,0,0,0.332915,0.674965,0.094732,0.123152,0,246,236,10,13,0,0,0,0,0:
0000
0000
0000
0000
,
0000
0000
0000
0000
,
1000
1000
0000
0000
,
0100
0100
0000
0000
,
1000
0100
0010
1000
,
0100
0010
0001
1000
,
0100
1000
1000
1000
,
0100
0100
0010
0001
,
1000
1000
0100
0010
,
0001
1000
0100
1000
,
0100
1000
0100
0100
,
0010
1000
0100
0010
,
0002
0000
0000
0000
,
2003
0000
0000
0000
,
3200
0000
0000
0000
,
0320
0000
0000
0000
,
1030
0000
1000
0000
,
0100
0000
0010
0000
,
0001
0000
0010
1000
0100
0000
0000
0000
,
0100
0000
0010
0000
,
2000
0000
0000
0000
,
3020
0000
0000
0000
,
2030
0000
0000
0000
,
3001
0000
0100
0010
0100
1000
0100
0000
,
0100
0000
0010
0000
,
0100
0000
0000
0000
,
0010
0000
1000
0000
,
0100
0000
0001
0000
,
1000
1000
0100
0010
,
0001
1000
0100
0010
,
0001
1000
1000
0100
,
0010
0001
1000
0100
,
0010
1000
0100
0010
,
0001
1000
0100
0010
,
1000
0001
1000
0001
,
1000
0001
1000
0001
,
2002
0000
0000
0000
,
3003
0000
0000
0000
,
0220
0000
0000
0000
,
0330
0000
0000
0000
,
0001
1000
0100
0010
,
1000
1000
0100
0000
0010
0001
1000
0000
,
0100
0010
1000
0000
0100
0010
0001
0000
,
1000
1000
0100
0000
0010
1000
0100
0000
,
0001
1000
0100
0010
,
0100
0010
1000
0100
,
0010
0001
2000
0000
,
0000
0000
0000
0000
,
0000
0000
3002
0000
,
0000
0000
0000
0000
,
0000
0000
0000
0000
,
0000
0000
0000
0000
,
1003
0000
0100
0000
0010
0100
0010
0000
,
0001
0000
1000
0000
0100
0010
0100
0000
,
0001
0000
1000
0000
0100
0100
0100
1000
,
1000
0100
1010
0100
0110
0001
0110
0100
,
1001
0000
0000
0000
1000
0100
1000
0000
,
0100
0000
0010
0000
0001
0100
0010
0000
,
1000
0000
0100
0000
0010
0100
0010
0000
,
1000
0100
0010
0001
,
1000
1000
1000
1000
,
0100
0010
0001
1000
,
0100
0010
0001
1000
,
1000
0100
0010
0100
,
0010
1000
1000
0100
,
0010
0001
1000
0100
,
0010
1000
1000
0100
,
0010
0001
1000
0100
,
0010
0001
0001
0001
,
1000
1000
1000
1000
,
0100
0010
0001
1000
,
1001
1000
0100
0010
,
1001
1000
1000
1000
,
0100
0010
0001
1000
,
1001
0000
1000
0100
,
1001
0000
0000
0000
;

//--------------- dance-single - ----------------
#NOTES:
     dance-single:
     :
     Hard:
     14:
     0.709136,1.282079,0.776802,0.293669,0.170518,524,442,82,31,0,0,0,0,0,0.709136,1.282079,0.776802,0.293669,0.170518,524,442,82,31,0,0,0,0,0:
0000
0000
0000
0000
,
0000
0000
0000
0000
,
1000
1000
0100
0010
0010
0100
1000
0100
,
0100
0010
0001
0100
1000
0100
0010
0010
,
0002
0000
0000
0000
0003
0000
1000
1000
,
1000
0200
0000
0000
0310
0010
0010
0001
,
0100
0010
1000
1000
1000
0000
0100
0100
,
0100
0100
2000
0000
3000
1000
1000
0100
,
0100
0010
0020
0000
0030
0100
0100
0001
,
1000
0010
0200
0000
0300
0010
0010
1010
,
0100
0001
0100
0010
1000
0010
0100
0010
,
1010
0100
0010
0001
1010
0100
1000
0100
0010
0100
0110
0001
0110
1000
0100
0010
,
0001
1000
0100
0010
,
1001
0100
1000
0100
,
0110
0100
1000
0100
,
0010
0001
0100
0010
,
1000
1000
0100
0010
,
0101
1000
0100
0010
,
0011
1000
0100
0010
,
0101
0010
0100
0010
,
1001
1000
0100
0010
,
0101
1000
0100
0010
,
0110
1000
0100
0010
,
1001
0100
0010
0100
,
1100
0100
0010
0001
,
1010
0100
0100
0010
,
0101
1000
0100
0010
,
1001
0100
1000
0100
,
0010
0011
0001
1000
,
0010
0100
0001
1000
,
0010
0100
0010
0010
,
1000
0001
0100
0010
,
1001
0001
0100
0010
,
1001
0010
0100
0010
,
1000
0010
1000
0010
0100
0001
0100
0001
,
1000
0010
0110
1000
0001
0000
0100
0000
,
2002
3003
0002
0003
,
2000
3000
0020
0030
,
0200
0300
0002
0003
,
0002
0003
2000
3000
,
2002
0000
0000
3003
0000
0000
1001
0000
0100
0000
0010
0000
1001
0000
0000
0100
0000
0000
1000
0000
0000
0010
0000
0000
,
0110
0100
0010
0000
0001
1000
0001
0000
,
0100
0010
1000
0001
0100
0010
1000
0001
,
0100
0100
0010
1000
0001
0100
0010
1000
,
0001
0001
1000
0010
0100
0001
1000
0001
,
0100
0010
1000
0001
0100
0010
1000
0001
,
0100
0010
1000
0101
0001
1000
0001
0100
,
0001
0100
1000
0100
0101
1000
0010
0001
,
0100
0010
1000
0001
1000
0010
1001
0000
,
2002
0000
0000
0000
,
0000
0000
0000
0000
,
0000
0000
0000
0000
,
3013
0000
0100
0000
0011
0000
0100
0000
1100
0010
0100
0010
1001
0000
1000
0000
,
0110
0000
0010
0000
1010
0100
0010
0001
1100
0000
1000
0000
0101
0000
0100
0000
,
0110
0011
0100
1000
2102
0000
3013
0000
1001
0000
0000
0010
0001
0000
0001
0000
,
0100
1000
0010
0100
1010
0001
0101
1000
,
0100
0100
0010
1000
0110
0100
0010
0100
1100
0010
0100
1000
2002
0000
3003
0000
,
0010
0100
0010
0100
1010
1000
1010
0100
1002
1000
0103
1000
2002
0000
3003
0000
,
0100
0000
0011
0000
0001
0000
0001
0000
0001
0000
1000
0001
0010
0000
1000
0000
,
0001
0100
0010
0100
0010
0100
0010
1000
,
1000
0000
0101
0000
0010
0000
0100
0000
1010
0000
1000
0000
0100
0010
0100
0000
,
1001
0000
1000
0000
0010
0000
0100
0000
0010
0000
1010
0000
0100
0010
0100
0000
,
1000
0011
0100
0110
1000
0101
0100
0010
,
1000
0010
1000
0010
1000
0010
1010
0100
,
0101
1000
0010
0100
0001
1000
0010
0100
,
0001
1000
0010
0100
0010
1000
1001
0010
,
0100
0010
1000
0001
0100
0010
1000
0001
,
0100
0010
1000
0001
0100
0010
1000
0110
,
0010
1000
0010
0100
0010
1000
0001
0100
,
0010
1000
0001
0100
0010
1000
0010
0100
,
0101
0010
1100
1000
0110
0010
0110
0100
1010
0100
0101
0010
1100
1000
0101
0010
,
1001
1001
1000
0001
,
1001
1001
0110
1001
,
0011
1010
0100
1001
,
2002
0000
0000
0100
3013
0000
0000
0010
2000
0000
0000
0100
3002
0000
0013
0000
,
2002
0000
0000
3003
0000
0000
0000
0000
0000
0000
0000
0000
0000
0000
0000
0000
;
