#TITLE:Baila Casanova;
#SUBTITLE:;
#ARTIST:Paulina Rubio;
#TITLETRANSLIT:;
#SUBTITLETRANSLIT:;
#ARTISTTRANSLIT:;
#GENRE:Latin;
#CREDIT:Wrland;
#MUSIC:Baila Casanova.ogg;
#BANNER:Baila Casanova.png;
#BACKGROUND:Baila Casanova-bg.png;
#CDTITLE:Wrland Season 3 CITYGHT.png;
#SAMPLESTART:65.860;
#SAMPLELENGTH:12.000;
#SELECTABLE:YES;
#OFFSET:0.013;
#BPMS:0.000=118.866
,98.000=59.433
,99.000=118.866
,163.000=59.433
,165.000=118.866
,195.000=59.433
,196.000=118.866
;
#STOPS:;
#DISPLAYBPM:59.000:118.000;
#JACKET:Baila Casanova-jacket.png;
#CDIMAGE:Baila Casanova-cd.png;
#BGCHANGES:0.000=Baila Casanova.avi=1.000=0=0=0=StretchNoLoop====,
99999.000=-nosongbg-=1.000=0=0=0=StretchNoLoop====,
99999=-nosongbg-=1.000=0=0=0 // don't automatically add -songbackground-
;
#FGCHANGES:;

//--------------- dance-single - by Wrland ----------------
#NOTES:
     dance-single:
     by Wrland:
     Beginner:
     3:
     0,0,0,0,0:
0000
0000
0000
0000
,
0000
0000
0000
0000
,
0000
0000
0000
0000
,
0000
0000
0000
0000
,
1000
0001
1000
0001
,
2000
0000
3000
0000
,
0100
0010
0100
0010
,
0200
0000
0300
0000
,
0010
0000
0002
0000
0000
0003
0000
0000
,
0010
0000
0200
0000
0000
0300
0000
0000
,
0110
0000
0000
0110
0000
0000
0110
0000
0000
0000
0000
0000
0000
0000
0000
0000
,
1001
0000
0000
1001
0000
0000
1001
0000
0000
0000
0000
0000
0000
0000
0000
0000
,
0100
0010
0100
0000
,
1000
0100
1000
0000
,
0100
0010
0001
0010
,
0200
0000
0300
0010
0000
0000
0000
0000
,
0100
0010
0010
0000
,
0100
0100
0100
0000
,
1000
0100
1000
0100
,
2000
0000
3000
0100
0000
0000
0000
0000
,
0010
0100
0010
0000
,
0001
0010
0100
0000
,
0010
0100
0010
0000
,
0001
0000
0010
0001
0000
2000
0000
0000
,
0000
3000
0000
1000
,
1000
1000
0000
0100
,
0100
0100
0000
0010
,
0001
0010
0000
0100
,
0010
0100
0000
0010
,
0100
0010
0000
0001
,
0010
0000
0000
0000
0100
0000
0000
0000
0000
0000
0000
0000
0110
0000
0000
1001
,
0000
0000
0110
0000
0000
0000
0000
0000
0000
0000
0000
0000
0110
0000
0000
1001
,
0000
0110
0000
0000
0000
0000
0100
0000
,
0100
0100
0000
0010
,
0001
0100
0000
0010
,
0100
0010
0000
1000
,
0100
1000
0000
1000
,
0100
1000
0000
0100
,
0010
0000
0000
0000
0100
0000
0000
0000
0000
0000
0000
0000
0100
0000
0000
0010
,
0000
0000
0001
0000
0000
0000
0000
0000
0000
0000
0000
0000
0001
0000
0000
0010
,
0000
0100
0000
0000
0000
0000
0020
0000
,
0030
0100
0010
0100
0020
0000
0000
0000
0000
0000
0000
0000
0030
0000
0000
0000
,
0000
1000
0100
1000
,
0100
0010
0000
0100
,
0000
0000
0020
0000
0000
0000
0030
0010
,
0100
0010
0200
0000
0000
0000
0300
0000
,
0000
0001
0010
0000
0100
0010
0100
0000
,
1000
0100
0000
0020
0000
0000
0000
0000
,
0030
0000
0000
0000
0100
0000
0000
0000
0010
0000
0000
0000
0100
0010
0100
0010
,
0001
0000
0000
0000
0000
0100
0010
0100
,
0010
0000
0000
0000
0000
0000
0001
0001
,
0001
0000
0000
0000
0000
0000
1000
1000
,
1000
0000
0000
0000
0000
0000
0100
0100
,
0100
0000
0000
0000
0000
0000
0010
0010
,
0010
0000
0000
0000
,
0110
0000
0000
1100
0000
0000
0110
0000
0000
0000
0000
0000
0000
0000
0000
0000
,
0110
0011
0110
0110
,
1000
0000
0010
0100
,
0010
0000
0000
0100
,
0100
0010
0100
0000
,
0001
0001
0001
0000
,
0010
0100
0010
0000
,
0100
1000
0100
0000
,
1100
0000
0000
0110
0000
0000
0011
0000
0000
0000
0000
0000
0000
0000
0000
0000
,
0011
0000
0000
0110
0000
0000
1100
0000
0000
0000
0000
0000
0000
0000
0000
0000
,
0100
0010
0100
0000
,
0001
0010
0001
0000
,
0100
0010
0100
0000
,
1000
0100
1000
0000
,
0100
0010
0100
0000
,
0100
0100
0100
0000
,
0100
0000
0000
0010
0000
0000
0001
0000
0000
0000
0000
0000
0000
0000
0000
0000
,
0001
0000
0000
0010
0000
0000
0100
0000
0000
0000
0000
0000
0000
0000
0000
0000
,
0010
0010
0010
0000
,
0001
0001
0001
0000
,
1000
1000
1000
0000
,
0100
0100
0100
0000
,
0110
0000
0000
0000
;

//--------------- dance-single - by Wrland ----------------
#NOTES:
     dance-single:
     by Wrland:
     Easy:
     5:
     0,0,0,0,0:
0000
0000
0000
0000
,
0000
0000
0000
0000
,
0000
0000
0000
0000
,
0000
0000
0000
0000
,
1000
1000
1000
0100
,
0010
0100
0010
0000
,
0001
0010
0100
0010
,
0100
0010
0100
0000
,
1000
0000
0000
0200
0000
0000
0000
0000
0000
0000
0000
0000
0300
0000
0000
0000
,
0100
0000
0000
0020
0000
0000
0000
0000
0000
0000
0000
0000
0030
0000
0000
0000
,
0001
0000
0000
0010
0000
0000
0200
0000
0000
0000
0000
0000
0300
0000
0000
0000
,
0100
0000
0000
0010
0000
0000
0100
0000
0020
0000
0000
0000
0030
0000
0000
0000
,
0100
0010
0200
0300
,
1000
0100
2000
3000
,
0100
0010
0100
0010
,
0002
0000
0003
0010
0000
0000
0000
0000
,
0100
0000
0000
0010
0000
0000
0100
0000
0020
0000
0000
0000
0030
0000
0000
0000
,
0100
0010
0002
0003
,
0100
0010
0100
1000
,
0200
0000
0300
0100
0000
0000
0000
0000
,
0100
0010
0200
0300
,
0001
0010
0200
0300
,
1000
0100
2000
3000
,
0100
0000
0010
0000
0000
0200
0000
0000
,
0000
0000
0000
0000
0000
0000
0000
0000
0300
0001
1000
0001
1000
0000
0000
0000
,
0100
0000
0000
0000
0010
0000
0000
0100
0010
0000
0100
0000
0010
0000
0000
0000
,
0001
0000
0010
0000
0100
0010
0100
0000
,
0010
0100
1000
0100
,
1000
0000
0000
0000
0100
0000
0000
0000
0100
0000
0000
0000
0010
0000
0000
0002
,
0000
0000
0000
0000
0003
0000
0000
0000
0010
0000
0000
0000
0100
0000
0000
0020
,
0000
0000
0000
0000
0030
0000
0000
0000
0000
0000
0000
0000
0100
0000
0000
0010
,
0000
0000
0200
0000
0000
0000
0000
0000
0300
0000
0000
0000
0100
0000
0000
0010
,
0000
0001
0010
0100
0010
0100
0010
0000
,
0001
0000
0000
0010
0000
0000
0000
0100
0010
0000
0001
0000
0100
0000
0000
0010
,
0000
0100
0000
0010
0000
0100
0000
0000
0010
0000
0001
0000
0100
0000
0000
0000
,
0010
0100
0010
0000
0100
0010
0100
0000
,
1000
0000
0000
0000
0100
0000
0000
0000
1000
0000
0100
0000
1000
0000
0000
0200
,
0000
0000
0000
0000
0300
0000
0000
0000
0100
0000
0010
0000
0100
0000
0000
0020
,
0000
0000
0000
0000
0030
0000
0000
0000
0000
0000
0000
0000
0010
0000
0000
0100
,
0000
0000
0020
0000
0000
0000
0000
0000
0030
0000
0000
0000
0100
0000
0000
0010
,
0000
0000
0100
0000
0010
0000
0000
0001
0000
0000
0010
0000
0200
0000
0000
0000
,
0300
0100
0010
0100
0020
0000
0000
0000
0000
0000
0000
0000
0030
0000
0000
0000
,
0000
0010
0001
0000
0010
0001
0010
0000
,
0100
0010
0000
0200
0000
0000
0300
0000
,
0000
0000
2000
0000
0000
0000
3000
1000
,
0100
1000
0200
0000
0000
0000
0300
0000
,
0000
0100
0010
0000
0100
0010
0001
0000
,
0010
0100
0000
0020
0000
0000
0000
0000
,
0030
0000
0000
0000
0200
0000
0000
0000
0000
0000
0000
0000
0300
0100
0010
0100
,
0010
0000
0000
0000
0100
0000
0000
0010
0000
0000
0000
0010
0100
0000
0010
0000
,
0001
0000
0000
0100
0000
0010
0000
0100
0000
0010
0000
0000
0100
0000
1000
0000
,
0100
0000
0000
0100
0000
0010
0000
0010
0000
0000
0000
0000
0100
0000
0010
0000
,
0100
0000
0000
0100
0000
0010
0000
0100
0000
0010
0000
0000
0100
0000
0010
0000
,
0100
0000
0000
0020
0000
0000
0000
0000
0030
0000
0000
0000
0001
0000
0010
0000
,
0100
0000
0000
0200
0000
0000
0000
0000
0300
0000
0000
0000
0000
0000
0000
0000
,
1000
0000
0000
0100
0000
0000
2000
0000
0000
0000
3000
0000
0000
0000
1000
0000
,
0100
0000
0000
0010
0000
0000
0100
0000
0010
0000
0000
0000
0001
0000
0010
0000
,
0100
0000
0010
0000
0100
0010
0000
0100
0000
0000
0100
0010
0100
0000
0010
0000
,
0100
0000
0000
0010
0000
0001
0000
0010
0000
0100
0000
0000
0100
0000
1000
0000
,
0100
0000
0100
0000
0010
0000
0100
0010
,
0001
0000
0010
0100
0000
0010
0000
0100
0000
0010
0000
0000
0100
0000
0010
0000
,
0100
0000
0000
0200
0000
0000
0000
0000
0300
0000
0000
0000
1000
0000
0100
0000
,
1000
0000
0000
2000
0000
0000
0000
0000
3000
0000
0000
0000
0000
0000
0000
0000
,
0100
0000
0000
0010
0000
0000
0200
0000
0000
0000
0000
0000
0300
0000
0000
0000
,
1000
0000
0000
0100
0000
0000
1000
0000
0100
0000
0000
0001
0010
0000
0100
0000
,
0020
0000
0030
0000
0100
0000
0000
0010
0000
0000
0000
0100
0010
0000
0100
0000
,
0010
0000
0000
0100
0000
0010
0000
0100
0000
0010
0000
0000
0001
0000
0000
0000
,
0010
0000
0100
0000
1000
0000
1000
0100
,
1000
0000
0000
1000
0000
0100
0000
1000
0000
0100
0000
0000
0100
0000
0010
0000
,
0100
0000
0000
0200
0000
0000
0000
0000
0300
0000
0000
0000
0100
0000
0010
0000
,
0100
0000
0000
0020
0000
0000
0000
0000
0030
0000
0000
0000
0000
0000
0000
0000
,
0100
0000
0000
0010
0000
0000
0100
0000
0000
0000
0010
0100
0010
0000
0100
0000
,
0100
0000
0000
0100
0000
0000
0010
0000
0001
0000
0100
0000
0010
0000
0100
0000
,
0010
0000
1000
0000
0010
0001
0000
1000
0000
0000
0000
0100
0010
0000
0001
0000
,
0100
0000
0000
1000
0000
0100
0000
1000
0000
0100
0000
0000
0100
0000
0010
0000
,
0100
0000
0000
0010
0000
0100
0000
0010
0000
0000
0000
0000
0001
0000
0100
0000
,
0001
0000
0000
0100
0000
0010
0000
0100
0000
0010
0000
0000
0100
0000
0010
0000
,
0110
0000
0000
0000
;

//--------------- dance-single - by Wrland ----------------
#NOTES:
     dance-single:
     by Wrland:
     Medium:
     12:
     0,0,0,0,0:
0000
0000
0000
0000
,
0000
0000
0000
0000
,
0000
0000
0000
0000
,
0000
0000
0000
0000
0000
0000
0000
0000
0000
0000
0000
0000
0000
0000
0000
0010
,
2000
0000
3000
0100
0020
0000
0030
0100
0020
0000
0030
0001
0100
0000
1000
0001
,
0200
0000
0300
0010
0000
0100
0020
0000
0030
0001
0000
0010
0000
0000
1000
0001
,
0020
0000
0030
0010
0200
0000
0300
0100
2000
0000
3000
0100
0020
0000
0030
0000
,
0002
0000
0003
0100
0000
0010
0200
0000
0300
0000
0010
0000
0100
0000
0010
0000
,
0200
0000
0300
0020
0000
0000
0000
0000
0030
0000
0000
0000
0001
0000
0010
0000
,
0200
0000
0300
0200
0000
0000
0300
0000
1000
0100
1000
0100
1000
0100
0010
0100
,
0011
0000
0000
0110
0000
0000
2002
0000
0000
0000
3003
0000
0100
0000
0010
0000
,
0220
0000
0330
2200
3300
0000
0010
0000
0202
0000
0303
2002
3003
0000
1001
0000
,
2002
0000
3003
0200
0000
0300
0010
0000
0200
0000
0300
0000
0000
0100
0001
0000
,
0020
0000
0030
0001
0000
0000
0010
0000
0200
0000
0000
0000
0300
0000
0010
0100
,
0020
0000
0030
0200
0300
0000
0010
0000
0200
0000
0300
0010
0000
0000
1000
0000
,
0200
0000
0300
0200
0000
0000
0300
0100
,
0020
0000
0030
0001
0000
0000
0010
0000
0200
0000
0300
0000
1000
0000
0100
0000
,
2000
0000
3000
0100
0000
0000
0010
0000
0002
0000
0000
0000
0003
0000
0010
0000
,
0200
0000
0300
0020
0030
0000
0001
0000
0020
0000
0030
0000
0010
0000
0001
0000
,
0200
0000
0300
0020
0000
0000
0030
0100
,
0010
0000
0000
0100
0000
0000
0010
0000
0200
0000
0300
0000
0010
0000
0100
0000
,
0010
0000
0001
0010
0000
0200
0300
0000
0020
0000
0000
0000
0030
0000
0100
0000
,
0020
0000
0030
0002
0003
0000
0100
0000
0020
0000
0000
0000
0030
0000
0100
0000
,
0010
0100
0010
0200
0300
0220
0000
0330
,
1000
0000
0001
0000
1000
0000
0001
0000
1000
0001
1000
0001
1000
0001
1000
0001
1001
0000
0100
0010
0100
0000
0010
0000
0200
0000
0000
0000
0310
0000
0000
0000
,
0100
0010
0000
0200
0000
0300
0100
1000
0200
0000
0310
0000
0001
0000
0100
0010
,
0000
0100
0000
2000
0000
3100
0000
0001
0010
0000
0100
0000
0020
0000
0030
0100
,
0000
0010
0000
0200
0000
0000
0300
0000
0100
0000
0010
0000
0001
0000
0000
0010
,
0000
0100
0000
0010
0000
0200
0300
0000
0010
0000
0100
0000
0010
0001
0010
0100
,
1000
0200
0300
0020
0000
0000
0030
0000
0100
0000
0010
0000
0001
0010
0100
1000
,
0100
0000
0010
0000
0000
0000
0200
0000
0000
0000
0000
0000
0300
0000
0000
0000
0100
0010
0100
0010
0100
0010
0100
0010
0220
0000
0000
0000
0330
0000
2002
0000
,
3003
0000
0220
0000
0330
0000
0100
0010
0200
0000
0320
0000
0130
0000
0010
0200
,
0000
0300
1000
0000
0100
0000
0010
0100
0020
0000
0130
0000
0020
0000
0031
0000
,
0010
0200
0000
0320
0030
0000
0100
0010
0100
0000
0100
0000
2000
0000
3000
0100
,
0000
0010
0000
0100
0000
0020
0030
0001
0100
0000
2000
0000
3100
0000
0010
0100
,
0000
0010
0000
0200
0000
0000
0300
0000
0010
0000
0100
0000
0010
1000
0000
0010
,
0000
0100
0000
1000
0000
0200
0000
0000
0310
0000
0100
0000
0010
0001
0010
0100
,
1000
0200
0300
0020
0000
0000
0030
0000
0100
0000
2000
0000
3001
0010
0100
0010
,
0001
0200
0300
0020
0000
0000
0030
0100
0010
0000
0001
0000
0220
0000
0330
2002
,
0000
3003
0220
0000
0330
0000
0100
0010
0100
0000
0010
0000
0100
0000
0010
0200
,
0300
0000
0010
0000
0001
0000
0000
0001
0000
0000
1000
0000
0002
0000
0000
0000
,
0003
1000
0001
1000
0001
1000
0100
0010
0001
0010
0100
0010
1000
0100
0010
0001
,
0010
0100
0010
0000
0002
0000
0003
2000
3000
0000
0100
0000
0020
0000
0030
0000
,
0100
0000
0020
0000
0030
0000
0001
0010
0100
1000
0100
0010
0001
0010
0100
1000
,
0010
0100
0010
0001
0100
1000
0100
0010
0100
0010
0001
0100
0010
0100
0010
1000
,
0100
0010
0001
0010
0100
0010
0001
1000
0100
1000
0100
1000
0010
0100
0010
0001
,
0010
1000
0100
0000
0020
0000
0030
0200
0300
0000
0010
0000
0200
0000
0300
0000
,
0010
0000
0002
0000
0003
0000
1001
0000
0100
0010
0100
0010
0100
0010
0100
0010
,
0100
0000
0010
0000
0100
0000
0010
0000
0100
0010
0100
0010
0100
0010
0100
0010
0100
0010
0100
0010
0100
0010
0100
0010
0100
0000
0010
0100
0010
0000
0001
0000
,
0020
0000
0130
0000
0010
0100
0000
0020
0030
1000
0100
1000
0200
0000
0310
0000
,
0001
0010
0000
0100
0000
0010
0000
0100
0000
0010
0000
0100
0010
0000
0200
0000
,
1300
0000
0100
0010
0000
0002
0003
1000
0000
0002
0000
0003
1000
0000
0100
0000
,
0010
0001
0000
0010
0000
0100
0000
0010
0000
0200
0300
0000
0010
0000
0200
0000
,
0310
0010
0000
0100
0000
0010
0000
0200
0000
0000
0300
0000
1000
0000
0100
0000
,
0100
0000
0200
0000
0300
0000
0010
0000
0000
0000
0200
0000
0300
0000
0020
0000
0000
0000
0000
0000
0030
0000
0000
0000
0010
0001
0010
0001
0010
0001
0010
0001
,
2020
0000
3030
0220
0000
0330
2002
0000
0000
0000
3003
0000
2200
3300
0022
0033
,
2200
0000
3300
0022
0000
0033
2200
3300
0022
0033
0110
0110
0110
0000
1001
0000
,
2002
3003
0100
0000
0010
0200
0300
0020
0000
0030
0100
0010
0200
0000
0310
0000
,
0100
0000
0010
0100
0000
0020
0030
1000
0000
1000
0000
0100
0020
0000
0130
0000
,
0022
0033
2002
3003
0220
0330
0200
0310
,
0100
1000
0000
0100
0000
0010
0000
0100
0000
0020
0000
0000
0031
0000
0100
0000
,
0010
0001
0010
0100
1000
0100
0000
0020
0000
0000
0030
0000
0001
0000
1000
0000
,
0001
0010
0100
1000
0100
0010
0000
0200
0000
0000
1300
0100
0010
0000
0100
0000
,
0022
0000
0033
0220
0000
0330
2002
0000
0000
0000
3003
0000
1001
0000
1001
0000
,
2002
0000
3003
0220
0330
0000
0110
0000
0110
0000
1001
1001
2002
3003
0100
0000
,
0010
0000
0100
0000
0010
0100
0000
0020
0000
0030
0001
0100
0001
0000
0002
0000
,
1003
0001
1000
0100
0000
0010
0000
0100
0000
0020
0030
0001
0200
0000
1300
0000
,
0001
0000
1000
0001
0000
1000
0000
0200
0300
0001
0000
0000
1000
0000
0001
0000
,
1000
0100
0000
0010
0000
0100
0000
0010
0000
0200
0000
0300
0010
0000
0002
0000
,
1003
0100
0010
0001
0010
0100
0001
0020
0000
0000
0030
0000
0100
0000
0010
0000
,
0001
0100
1000
0100
0010
0100
0001
0020
0000
0000
0030
0000
0001
0010
0001
1000
,
0220
0000
0330
0022
0000
0033
2002
0000
3003
0000
0100
0010
0200
0300
0010
0000
,
0100
0000
0010
0200
0000
0300
1000
0000
0100
0000
0010
0100
0010
0000
0200
0000
,
0310
0000
0100
0000
0010
0100
0000
0020
0000
0030
0001
1000
0001
0000
1000
0000
,
0002
0000
1003
0001
0000
1000
0000
0001
0000
2000
3000
0010
0100
0000
0010
0000
,
0200
0000
0310
0100
0000
0010
0000
0002
0003
1000
0000
0000
0100
0000
0010
0000
,
0200
0000
0310
0100
0000
0010
0000
0002
0003
1000
0000
0000
0002
0000
1003
0000
,
1001
0000
0000
0000
;

//--------------- dance-single - by Wrland ----------------
#NOTES:
     dance-single:
     by Wrland:
     Hard:
     14:
     0,0,0,0,0:
0000
0000
0000
0000
,
0000
0000
0000
0000
,
1000
0000
0100
1000
0100
0000
1000
0200
0000
0000
0000
0000
0300
0000
0000
0000
,
0100
0000
0000
0000
0010
0000
0100
0000
0010
0000
0000
0000
0100
0000
0020
0000
0000
0000
0000
0000
0000
0000
0000
0000
0030
0000
0000
0000
0100
0010
0100
0010
,
0002
0000
0003
0100
2000
0000
3000
0100
0020
0000
0030
0001
0020
0000
0130
0000
,
0020
0000
0130
0010
0000
0100
0020
0000
0030
0001
0000
2000
3000
0000
0100
0001
,
0020
0000
0030
0010
0200
0000
0300
1000
0200
0000
0300
0100
0020
0000
0230
0000
,
0320
0000
0031
0010
0000
0100
2000
0000
3100
0010
0100
0010
0001
0010
0100
1000
,
0202
0000
0303
2020
0000
3030
0202
0000
0303
2020
0000
3030
0220
0330
0220
0330
,
0220
0000
0000
0000
0330
0000
2002
0000
0000
0000
3003
0000
0220
0000
0000
0000
0330
0000
2002
0000
0000
0000
3003
0000
0100
0010
0100
0001
0010
1000
0100
0010
,
2022
0000
3033
2202
0000
3303
2022
0000
0000
3033
0100
0000
0010
0000
0001
1000
,
0020
0000
0030
0001
0200
0000
0320
0000
0230
0000
0300
0010
0200
0000
0302
0003
,
2022
0000
3033
0200
0300
0000
0020
0030
0200
0000
0300
0000
0010
0001
0200
0300
,
0020
0000
0030
0200
0000
0300
0020
0030
2000
0000
3000
0000
0100
1000
0100
1000
,
0002
0000
0003
0200
0300
0000
0020
0030
0200
0000
0300
0020
0000
0030
0200
0300
,
2000
0000
0000
0000
3000
0000
0200
0000
0000
0000
0300
0000
0010
0100
0010
0001
,
0020
0000
0030
0200
0000
0300
0020
0030
0200
0000
0300
0000
1000
0100
1000
0100
,
2000
0000
3000
0200
0000
0300
0020
0030
0200
0000
0300
0000
0010
0100
0010
0100
,
0002
0000
0003
0020
0000
0030
0200
0300
2000
0000
3000
0000
0200
0300
0020
0030
,
0200
0000
0000
0000
0300
0000
0020
0030
0100
0010
0100
0010
0100
0010
0001
0100
,
2000
0000
3000
2000
0000
3000
0200
0300
2000
0000
3000
0000
0200
0300
0020
0030
,
0200
0300
0010
0200
0300
0020
0000
0030
0002
0000
0000
0000
0003
0000
0200
0300
,
0020
0000
0030
0200
0000
0300
0020
0030
0200
0000
0000
0000
0300
0000
1000
0000
,
0001
1000
0001
2000
3000
2002
0000
3003
,
0100
0010
0001
1000
0001
1000
0001
0100
0010
0100
1000
0100
0010
0001
0100
0010
0111
0000
0101
1010
0220
0330
0022
0033
0222
0000
0333
0000
0200
0000
0300
0000
,
0010
0200
0300
2000
0000
3000
0100
0010
0200
0300
0020
0030
0002
0003
0100
0020
,
0030
2000
3000
0200
0300
0020
0030
0001
0200
0300
2000
3000
0200
0300
1000
0200
,
0300
0020
0030
0200
0300
0020
0000
0030
0200
0300
0020
0030
0200
0300
0100
0020
,
0030
0200
0300
0020
0030
0002
0000
0003
0020
0030
0200
0300
1000
0100
0010
0001
,
0010
0100
1000
0100
0020
0000
0030
0000
0002
0003
2000
3000
0001
1000
0001
0100
,
0010
0000
0001
0000
0010
0000
0100
0000
0010
0000
0100
0000
0010
0000
0001
0000
0010
0100
0010
0001
1000
0010
0100
0010
2002
0000
0000
0000
3003
0000
2002
0000
,
0000
3003
2002
0000
0000
3003
0100
0010
0200
0300
0020
0030
0200
0300
0010
0200
,
0000
0300
0020
0030
0002
0003
0100
0010
0200
0300
0200
0300
2000
3000
0200
0300
,
0010
0002
0003
0020
0000
0030
0100
0010
0200
0300
0020
0030
0200
0300
1000
0200
,
0300
2000
3000
0200
0300
0020
0030
0100
0020
0030
0200
0300
0020
0030
0100
0020
,
0030
0200
0300
2000
3000
0200
0000
0300
0020
0030
0200
0300
0020
0030
0100
0020
,
0030
0200
0300
0020
0030
0200
0000
0300
0020
0030
0200
0300
0010
0001
1000
0001
,
1000
0001
0100
0010
0200
0000
0300
0000
0020
0030
0200
0300
0010
0100
1000
0100
,
0010
0100
0010
0001
0200
0000
0300
0010
0200
0300
0010
0000
0220
0000
0330
2002
,
3003
0000
0220
0000
0330
0000
1000
0100
2000
3000
0020
0030
0200
0300
0010
0200
,
0300
0000
0020
0030
0002
0000
0003
0010
0200
0300
2000
3000
0444
0000
0000
0000
,
0333
1000
0100
1000
0100
0010
0001
0010
0100
1000
0100
1000
0100
1000
0100
1000
,
0200
0300
0020
0030
0200
0000
0300
0020
0000
0030
0200
0300
2000
0000
0000
3000
,
0200
0300
1020
0001
0100
0031
1002
0100
1000
0100
1000
0100
0010
0100
0010
0100
,
0013
0001
0010
0001
4400
0000
0000
0000
0000
0000
0000
0000
3300
0000
0200
0300
,
0020
0030
0200
0300
0400
0010
0001
0010
0001
0010
0001
0010
0001
0010
0001
0010
,
0301
0000
0020
0030
0200
0000
0300
2000
0000
3000
0200
0300
0020
0000
0000
0030
,
0002
0003
0020
0000
0000
0030
0200
0010
0001
0010
0001
0010
0001
0010
0001
1000
,
0001
0000
1000
0000
0301
0000
1000
0000
0010
0100
0010
0100
0010
0100
0010
0100
0010
0001
0010
0001
0010
0001
0010
0001
0020
0030
0100
1000
0200
0300
2000
3000
,
0200
0300
0020
0030
0100
0020
0030
0200
0000
0300
1000
0100
2000
3000
0200
0300
,
0020
0030
0100
0020
0030
0200
0300
0020
0030
0002
0003
1000
0200
0300
0020
0030
,
0002
0003
0010
0200
0300
2000
3000
0200
0300
0002
0000
0003
2000
3000
0002
0003
,
2000
3000
0001
2000
3000
0002
0003
2000
3000
0002
0000
0003
0200
0300
0020
0030
,
0200
0300
0010
0200
0300
0020
0030
0200
0000
0000
0300
0000
0200
0300
2000
3000
,
0200
0000
0300
0000
1000
0000
0200
0000
0300
0000
2000
0000
3000
0000
0200
0000
0000
0000
0000
0000
0000
0000
0300
0000
1000
0001
1000
0001
1000
0001
1000
0001
,
2002
0000
3003
2002
0000
3003
2002
0000
0000
0000
0000
0000
3003
0000
0200
0300
,
0020
0000
0030
0200
0000
0300
0020
0030
0002
0003
0010
0100
0010
0100
0010
0001
,
0020
0030
0200
0300
0010
0200
0300
2000
0000
3000
0100
0010
0100
0000
0100
0000
,
0100
0000
0010
0200
0300
0020
0030
0002
0000
2003
3000
0100
0020
0030
0200
0300
,
2000
0000
0000
3000
0002
0000
0000
0003
2000
0000
0000
3000
0200
0300
0020
0030
,
0200
0300
0010
0200
0300
0020
0030
0200
0300
0200
0000
0300
0200
0300
0020
0030
,
1000
0100
0010
0100
0010
0001
0010
0100
2000
0000
0000
3000
0200
0300
0020
0030
,
0100
0010
0001
0010
0100
1000
0100
0010
0002
0000
0003
0100
0020
0030
0100
0000
,
0220
0000
0330
0220
0000
0330
2002
0000
0000
3003
0200
0300
0020
0030
0100
0010
,
0220
0000
0330
0220
0000
0330
2002
3003
2002
3003
1001
1001
2002
3003
2002
3003
,
0220
0330
0200
0300
0100
2000
3000
0200
0000
0300
0100
0010
0200
0300
0020
0030
,
0200
0300
0010
0200
0300
2000
3000
0200
0300
0020
0030
0100
0020
0030
0200
0300
,
0020
0030
0100
0020
0030
0200
0300
2000
3000
0200
0000
0300
0020
0030
0200
0300
,
1000
0200
0300
0020
0030
0200
0300
0200
0300
0200
0000
0300
0020
0030
0200
0300
,
0010
0100
0010
0001
0100
1000
0100
1000
0200
0000
0000
0300
0002
0003
2000
3000
,
0001
0000
1000
0000
0100
0000
1000
0000
0100
0000
1000
0000
0100
0000
0010
0000
0002
0000
0000
0000
0000
0000
0003
0000
1000
1000
1000
1000
1000
1000
1000
1000
,
1100
0010
0001
0010
0001
0010
1100
0010
0100
0010
0100
0010
2200
0000
0000
0000
0000
0000
3300
0000
0100
0000
0010
0000
0200
0000
0300
0000
0200
0000
0300
0000
,
0020
0030
0100
0020
0000
0030
0200
0300
0020
0030
0100
0010
0200
0300
2000
3000
,
0200
0300
0020
0030
0100
0020
0030
0200
0000
0300
0010
0100
0020
0030
0200
0300
,
0002
0003
0100
0020
0030
0200
0300
0002
0003
0200
0300
0100
0020
0030
0200
0300
,
0020
0030
1000
0020
0030
0002
0003
0020
0030
2000
0000
3000
0200
0300
2000
3000
,
0200
0300
1000
0200
0300
2000
3000
0200
0300
2000
0000
3000
0200
0300
0020
0030
,
0110
0000
0000
0000
;

//--------------- dance-double - by Wrland ----------------
#NOTES:
     dance-double:
     by Wrland:
     Hard:
     14:
     0,0,0,0,0:
00000000
00000000
00000000
00000000
,
00000000
00000000
00000000
00000000
,
10000000
00000000
01000000
10000000
01000000
00000000
10000000
02000000
00000000
00000000
00000000
00000000
00000000
00000000
00000000
03000000
,
01000000
00000000
00000000
00000000
00100000
00000000
01000000
00000000
00100000
00000000
00000000
00000000
01000000
00000000
00200000
00000000
00000000
00000000
00000000
00000000
00000000
00000000
00300000
00000000
00100000
00010000
00100000
00010000
00100000
00010000
00100000
00010000
,
00200000
00000000
00300000
10000000
02000000
00000000
03000000
10000000
02000000
00000000
03000000
00100000
02000000
03000000
02000000
03000000
,
00200000
00300000
01000000
00200000
00300000
01000000
00200000
00000000
00300000
00200000
00300000
00020000
00000000
00030000
00100000
00010000
,
00020000
00000000
00030000
00001000
00002000
00000000
00003000
00000100
00000200
00000000
00000300
00000010
00000020
00000030
00001000
00000100
,
00000002
00000003
00000100
00000002
00000003
00000100
00000002
00000003
00000001
00000010
00000100
00000010
00000001
00000010
00000100
00000010
,
00000200
00000000
00000300
00000002
00000000
00000003
00002000
00000000
00000000
00003000
00000200
00000300
00002000
00003000
00000200
00000300
,
00000200
00000000
00000000
00000000
00000300
00000000
00000020
00000000
00000000
00000000
00000030
00000000
00000002
00000000
00000003
00000000
00000010
00000100
00000010
00000100
00000001
00000010
00000100
00001000
00000100
00000010
00000100
00000010
00000001
00000010
00000001
00000010
,
00002200
00000000
00003300
00220000
00000000
00330000
22000000
00000000
00000000
33000000
02200000
03300000
02200000
03300000
00100000
01000000
,
02020000
00000000
03030000
20020000
00000000
30030000
02200000
03300000
02200000
03300000
00100000
01000000
00100000
01000000
00100000
01000000
,
00200000
00000000
00300000
02000000
00000000
03000000
00020000
00030000
20000000
00000000
00000000
00000000
30000000
00000000
02000000
03000000
,
02000000
00000000
03000000
02000000
00000000
03000000
00200000
00300000
20000000
00000000
00000000
00000000
30000000
00000000
01000000
00010000
,
00200000
00000000
00300000
00200000
00000000
00300000
20000000
30000000
02000000
00000000
03000000
00200000
00000000
00300000
02000000
03000000
,
00020000
00000000
00030000
20000000
00000000
00000000
30000000
01000000
,
00200000
00000000
00300000
02000000
00000000
03000000
00020000
00030000
00200000
00000000
00000000
00000000
00300000
00000000
00001000
00010000
,
00002000
00000000
00003000
00000200
00000000
00000300
00002000
00003000
00000002
00000000
00000000
00000000
00000003
00000000
00000100
00000001
,
00000200
00000000
00000300
00000020
00000000
00000030
00002000
00003000
00000002
00000000
00000003
00000000
00000200
00000300
00000020
00000000
,
00000000
00000000
00000000
00000000
00000030
00000000
00000010
00000100
00000001
00000100
00000001
00000100
00000002
00000003
00000200
00000300
,
00000020
00000000
00000030
00000200
00000300
00000000
00002000
00003000
00000200
00000000
00000300
00000000
00000020
00000030
00000200
00000300
,
00000020
00000030
00000001
00000200
00000300
00000010
00000200
00000300
00001000
00000010
00000100
00000010
00000001
00001000
00000100
00000010
,
00000200
00000000
00000300
00000020
00000000
00000030
00000200
00000300
00000020
00000000
00000000
00000000
00000030
00000000
00000020
00000030
,
00000200
00000300
00000200
00000300
00000020
00000030
00000002
00000000
00000003
00000000
00002002
00000000
00000000
00000000
00003003
00000000
,
00001000
00010000
00100000
01000000
10000000
01000000
00100000
00010000
00001000
00000100
00000010
00000001
00000010
00000100
00001000
00010000
02200000
03300000
00100000
01000000
00200000
00300000
02000000
03000000
00200000
00000000
00300000
00000000
02000000
00000000
03000000
00000000
,
00100000
02000000
03000000
20000000
00000000
30000000
01000000
00100000
02000000
03000000
00200000
00300000
00020000
00030000
01000000
00200000
,
00300000
02000000
03000000
00200000
00300000
00020000
00030000
10000000
00020000
00030000
20000000
30000000
00020000
00030000
10000000
00020000
,
00030000
20000000
30000000
00020000
00030000
02200000
00000000
03300000
20020000
30030000
02000000
03000000
00200000
00300000
01000000
00200000
,
00300000
02000000
03000000
00200000
00300000
02000000
00000000
03000000
00200000
00300000
02000000
03000000
00100000
01000000
00100000
00010000
,
01000000
10000000
00100000
01000000
00200000
00000000
00300000
00000000
00020000
00030000
00002000
00003000
00000100
00000010
00000001
00000010
,
00000100
00000000
00000010
00000000
00000001
00000000
00000010
00000000
00000200
00000000
00000000
00000000
00000300
00000000
00000000
00000000
00000010
00000010
00000100
00000100
00001000
00001000
00000100
00000100
00000022
00000000
00000000
00000000
00000033
00000000
00000220
00000000
,
00000000
00000330
00002020
00000000
00000000
00003030
00000100
00000010
00000200
00000300
00000200
00000300
00002000
00003000
00000100
00001000
,
00000200
00000300
00000200
00000300
00000020
00000030
00000010
00000001
00000020
00000030
00000020
00000030
00000002
00000003
00000200
00000300
,
00000010
00000200
00000300
00002000
00000000
00003000
00000100
00000010
00000200
00000300
00000002
00000003
00000010
00000001
00001000
00000020
,
00000030
00000200
00000300
00000020
00000030
00000200
00000300
00000100
00000020
00000030
00000200
00000300
00000020
00000030
00000100
00000020
,
00000030
00000200
00000300
00000020
00000030
00000220
00000000
00000330
00000202
00000303
00002000
00003000
00000100
00002000
00003000
00000200
,
00000300
00002000
00003000
00000200
00000300
00002000
00000000
00003000
00000020
00000030
00000200
00000300
00000010
00000001
00000010
00000100
,
00000010
00000100
00000010
00000001
00000020
00000000
00000000
00000030
00000200
00000300
00002000
00003000
00010000
00100000
01000000
00100000
,
01000000
10000000
01000000
10000000
02000000
00000000
03000000
00100000
02000000
03000000
00100000
00000000
02020000
00000000
03030000
20200000
,
00000000
30300000
02200000
00000000
00000000
03300000
00100000
01000000
00200000
00300000
20000000
30000000
02000000
03000000
00100000
02000000
,
00000000
03000000
02000000
03000000
00200000
00000000
00300000
01000000
00200000
00300000
02000000
03000000
00440000
00000000
00000000
00000000
,
00330000
00000000
02000000
03000000
00200000
00300000
02000000
03000000
00100000
00000000
01000000
00000000
00100000
00000000
00010000
00000000
00100000
00000000
01000000
00000000
10000000
00000000
01000000
00000000
10000000
00000000
01000000
00000000
00100000
00000000
01000000
00000000
,
00200000
00300000
00200000
00300000
02000000
00000000
03000000
20000000
00000000
30000000
02000000
03000000
00200000
00000000
00000000
00300000
,
20000000
30000000
02000000
00000000
00000000
03000000
00100000
01000000
00100000
01000000
00100000
01000000
10000000
01000000
00100000
01000000
,
00020000
00000000
00000000
00030000
40040000
00000000
00000000
00000000
00000000
00000000
00000000
00000000
30030000
00000000
02000000
03000000
,
00200000
00300000
02000000
03000000
00100000
00100000
00010000
00001000
00010000
00001000
00010000
00001000
00010000
00001000
00000100
00000010
,
00000002
00000003
00000200
00000300
00002000
00000000
00003000
00000200
00000000
00000300
00000020
00000030
00000200
00000000
00000000
00000300
,
00000002
00000003
00000200
00000000
00000000
00000300
00004004
00000000
00000000
00000000
00000000
00000000
00000000
00000000
00000000
00000000
,
00000000
00000000
00000000
00000000
00003003
00000000
00000000
00000000
00000100
00000010
00000100
00000010
00000100
00000010
00000100
00000010
00000100
00000010
00000100
00000010
00000100
00000010
00000100
00000010
00000222
00000333
00000100
00001000
00000200
00000300
00000200
00000300
,
00002000
00003000
00000200
00000300
00000010
00000200
00000300
00000020
00000030
00000100
00000010
00000100
00000020
00000030
00000020
00000030
,
00000200
00000300
00000010
00000200
00000300
00000020
00000030
00000200
00000300
00000020
00000030
00000100
00000020
00000030
00000200
00000300
,
00000020
00000030
00000001
00000200
00000300
00000002
00000003
00000200
00000000
00000000
00000000
00000300
00002000
00003000
00000200
00000300
,
00002000
00003000
00000100
00002000
00003000
00000200
00000300
00002000
00003000
00000200
00000000
00000300
00002000
00003000
00000200
00000300
,
00002000
00003000
00000100
00002000
00003000
00000200
00000300
00002000
00000000
00000000
00000000
00003000
00000200
00000300
00000020
00000030
,
00000200
00000000
00000300
00000000
00000010
00000000
00000200
00000000
00000300
00000000
00000020
00000000
00000030
00000000
00000002
00000000
00000000
00000000
00000000
00000000
00000000
00000000
00000003
00000000
00000001
00000010
00000001
00000010
00000001
00000010
00000001
00000010
,
00002002
00000000
00003003
00022000
00000000
00033000
02020000
00000000
00000000
00000000
00000000
03030000
20020000
30030000
20020000
30030000
,
02000000
00000000
03000000
00200000
00000000
00300000
02000000
03000000
00200000
00300000
00010000
01000000
00100000
10000000
01000000
00100000
,
00010000
00000000
00200000
00300000
01000000
00200000
00300000
02000000
00000000
03000000
00100000
01000000
00200000
00300000
02000000
03000000
,
20000000
30000000
01000000
00200000
00300000
02000000
03000000
00200000
00300000
02000000
03000000
00010000
00200000
00300000
02000000
03000000
,
22000000
00000000
00000000
33000000
02200000
00000000
00000000
03300000
02020000
00000000
00000000
03030000
00200000
00300000
02000000
03000000
,
00100000
02000000
03000000
00200000
00300000
02000000
03000000
00200000
00300000
02000000
00000000
03000000
20000000
30000000
02000000
03000000
,
10000000
01000000
00100000
01010000
10000000
00100000
01000000
10000000
00200000
00000000
00000000
00300000
02000000
03000000
00200000
00300000
,
01000000
00100000
00010000
01000000
00100000
10000000
01000000
10000000
02000000
00000000
03000000
00100000
02000000
03000000
00200000
00300000
,
00220000
00000000
00330000
22000000
00000000
33000000
02200000
00000000
00000000
03300000
02000000
03000000
00200000
00000000
00000000
00300000
,
00020000
00000000
00030000
00002000
00000000
00003000
00000200
00000300
00000020
00000000
00000030
00000100
00000020
00000030
00000200
00000300
,
00000020
00000030
00000020
00000030
00000100
00000020
00000030
00000200
00000000
00000300
00000001
00000100
00000002
00000003
00000002
00000003
,
00002000
00003000
00000001
00002000
00003000
00000002
00000003
00002000
00003000
00000020
00000030
00000100
00000020
00000030
00000200
00000300
,
00000020
00000030
00000100
00000020
00000030
00000200
00000300
00000020
00000030
00000200
00000000
00000300
00000020
00000030
00000200
00000300
,
00000010
00000200
00000300
00000020
00000030
00000200
00000300
00000020
00000030
00000002
00000000
00000003
00002000
00003000
00000002
00000003
,
00001000
00000002
00000003
00000200
00000300
00000020
00000030
00000200
00000000
00000000
00000000
00000300
00000020
00000030
00000200
00000300
,
00000010
00000000
00000200
00000000
00000300
00000000
00000200
00000000
00000300
00000000
00002000
00000000
00003000
00000000
00000200
00000000
00000000
00000000
00000000
00000000
00000000
00000000
00000300
00000000
00000010
00000001
00001000
00000001
00000100
00000010
00000100
00000010
,
00002002
00000000
00003003
00022000
00000000
00033000
02200000
00000000
00000000
03300000
00100000
01000000
00200000
00300000
02000000
03000000
,
00200000
00300000
01000000
00200000
00000000
00300000
02000000
03000000
20000000
30000000
01000000
00100000
02000000
03000000
20000000
30000000
,
02000000
03000000
00200000
00300000
01000000
00200000
00300000
02000000
00000000
03000000
10000000
01000000
00200000
00300000
02000000
03000000
,
00200000
00300000
01000000
00200000
00300000
02000000
03000000
00200000
00300000
02000000
03000000
00010000
20000000
30000000
02000000
03000000
,
00200000
00300000
01000000
00200000
00300000
02000000
03000000
20000000
00000000
00000000
00000000
30000000
02000000
03000000
00200000
00300000
,
02000000
03000000
01000000
00200000
00300000
02000000
03000000
00200000
00300000
02000000
00000000
03000000
20000000
30000000
00020000
00030000
,
10010000
00000000
00000000
00000000
;
