#TITLE:Baby ft. Ludacris;
#SUBTITLE:;
#ARTIST:Justin Bieber;
#TITLETRANSLIT:;
#SUBTITLETRANSLIT:;
#ARTISTTRANSLIT:;
#GENRE:Pop;
#CREDIT:Wrland;
#MUSIC:Baby ft. Ludacris.ogg;
#BANNER:Baby ft. Ludacris.png;
#BACKGROUND:Baby ft. Ludacris-bg.png;
#CDTITLE:Wrland Season 3 CITYGHT.png;
#SAMPLESTART:103.374;
#SAMPLELENGTH:12.000;
#SELECTABLE:YES;
#OFFSET:0.000;
#BPMS:0.000=131.000
,3.000=130.000
,92.000=65.000
,94.000=130.000
,214.000=65.000
,218.000=130.000
,306.000=65.000
;
#STOPS:;
#DISPLAYBPM:65.000:130.000;
#JACKET:Baby ft. Ludacris-jacket.png;
#CDIMAGE:Baby ft. Ludacris-cd.png;
#METERTYPE:DDR X;
#BGCHANGES:0.000=Baby ft. Ludacris.avi=1.000=0=0=0=StretchNoLoop====,
99999.000=-nosongbg-=1.000=0=0=0=StretchNoLoop====
;
#FGCHANGES:;

//--------------- dance-single - Wrland ----------------
#NOTES:
     dance-single:
     Wrland:
     Beginner:
     1:
     0,0,0,0,0:
0000
0000
0000
0000
,
0000
0000
0000
0000
,
0000
0000
0000
0000
,
0000
0000
0000
0000
,
0000
0000
0000
0000
,
0000
0000
0000
0000
,
0000
0000
0000
0000
,
0000
0000
0000
0000
,
0100
0000
0000
0000
,
0000
0000
0000
0000
,
0100
0000
0000
0000
,
0000
0000
0000
0000
,
0010
0000
0000
0000
,
0000
0000
0000
0000
,
0001
0000
0000
0000
,
0000
0000
0000
0000
,
0010
0000
0000
0000
,
0000
0000
0000
0000
,
1000
0000
0000
0000
,
0000
0000
0000
0000
,
0100
0000
0000
0000
,
0000
0000
0000
0000
,
0010
0000
0000
0000
,
0000
0000
0100
0000
,
0100
0000
0000
0100
0000
0000
0000
0000
,
0000
0000
0010
0000
,
0010
0000
0000
0010
0000
0000
0000
0000
,
0000
0000
0001
0000
,
0001
0000
0000
0001
0000
0000
0000
0000
,
0000
0000
0100
0000
,
0000
0000
0010
0000
,
0000
0000
0100
0000
,
1000
0000
0000
0100
0000
0000
0000
0000
,
0000
0000
0001
0000
,
0010
0000
0000
0001
0000
0000
0000
0000
,
0000
0000
0010
0000
,
0100
0000
0000
0010
0000
0000
0000
0000
,
0000
0000
1000
0000
,
0000
0000
0000
0000
,
0000
0000
0100
0000
,
0000
0000
0000
0000
,
0000
0000
0100
0000
,
0000
0000
0000
0000
,
0000
0000
0010
0000
,
0000
0000
0000
0000
,
0000
0000
0001
0000
,
0000
0000
0000
0000
,
0000
0000
0010
0000
,
0000
0000
0000
0000
,
0000
0000
0100
0000
,
0000
0000
0000
0000
,
0000
0000
0010
0000
,
0000
0000
0000
0000
,
0000
0000
0002
0000
,
0003
0000
1000
0000
,
1000
0000
0000
1000
0000
0000
0000
0000
,
0000
0000
0100
0000
,
0100
0000
0000
0100
0000
0000
0000
0000
,
0000
0000
0010
0000
,
0010
0000
0000
0010
0000
0000
0000
0000
,
0000
0000
0001
0000
,
0000
0000
1000
0000
,
0000
0000
0010
0000
,
0100
0000
0000
0010
0000
0000
0000
0000
,
0000
0000
0001
0000
,
1000
0000
0000
0001
0000
0000
0000
0000
,
0000
0000
0100
0000
,
1000
0000
0000
0100
0000
0000
0000
0000
,
0000
0000
1000
0000
,
0000
0000
0010
0000
,
0000
0000
0100
0000
,
0000
0000
0000
0000
,
0000
0000
0010
0000
,
0000
0000
0000
0000
,
0000
0000
0001
0000
,
0000
0000
0000
0000
,
0000
0000
1001
0000
,
0000
0000
2002
0000
,
0000
0000
0000
3003
;

//--------------- dance-single - Wrland ----------------
#NOTES:
     dance-single:
     Wrland:
     Easy:
     3:
     0,0,0,0,0:
0000
0000
0000
0000
,
0000
0000
0000
0000
,
0000
0000
0000
0000
,
0000
0000
0000
0000
,
0000
0000
0000
0000
,
0000
0000
0000
0000
,
0000
0000
0000
0000
,
0000
0000
0000
0000
,
0100
0000
0000
0000
,
0100
0000
0000
0000
,
1000
0000
0000
0000
,
0100
0000
0000
0000
,
0010
0000
0000
0000
,
0001
0000
0000
0000
,
0010
0000
0000
0000
,
0010
0000
0000
0000
,
0100
0000
0000
0000
,
0100
0000
0000
0000
,
1000
0000
0000
0000
,
1000
0000
0000
0000
,
0010
0000
0000
0000
,
0100
0000
0000
0000
,
0001
0000
0000
0000
0000
0000
0000
2000
,
0000
3000
0100
0000
,
0100
0000
0000
0100
0000
0000
0110
0000
,
0000
0000
0010
0000
,
0010
0000
0000
0010
0000
0000
0110
0000
,
0000
0000
0001
0000
,
0001
0000
0000
0001
0000
0000
1001
0000
,
0000
0000
1000
0000
,
0000
0000
0100
0000
,
0000
0000
0010
0000
,
0010
0000
0000
0100
0000
0000
0110
0000
,
0000
0000
0001
0000
,
0001
0000
0000
0001
0000
0000
0011
0000
,
0000
0000
0100
0000
,
0100
0000
0000
0100
0000
0000
1100
0000
,
0000
0000
1000
0000
,
0000
0000
0100
0000
,
0000
0000
0010
0000
,
0000
0000
0100
0000
,
0000
0000
0010
0000
,
0000
0000
0001
0000
,
0000
0000
0001
0000
,
0000
0000
1000
0000
,
0000
0000
0100
0000
,
0000
0000
0010
0000
,
0000
0000
0001
0000
,
0000
0000
0001
0000
,
0000
0000
1000
0000
,
0000
0000
0100
0000
,
0000
0000
1000
0000
,
0000
0000
1000
0000
,
0000
0000
0000
0000
0000
0000
0000
0000
0200
0000
0000
0000
0300
0000
0001
2000
,
0000
3000
0010
0000
,
0010
0000
0000
0100
0000
0000
0110
0000
,
0000
0000
1000
0000
,
1000
0000
0000
1000
0000
0000
1001
0000
,
0000
0000
0001
0000
,
0001
0000
0000
0001
0000
0000
0110
0000
,
0000
0000
0010
0000
,
0000
0000
0100
0000
,
0000
0000
1000
0000
,
1000
0000
0000
1000
0000
0000
1100
0000
,
0000
0000
0010
0000
,
0010
0000
0000
0010
0000
0000
0011
0000
,
0000
0000
0001
0000
,
0001
0000
0000
0001
0000
0000
0101
0000
,
0000
0000
0010
0000
,
0000
0000
0100
0000
,
0000
0000
1000
0000
,
0000
0000
1000
0000
,
0000
0000
0100
0000
,
0000
0000
0100
0000
,
0000
0000
0010
0000
,
0000
0000
0001
0000
,
0000
0000
1000
0100
,
0001
0100
2002
0000
,
0000
0000
0000
3003
;

//--------------- dance-single - Wrland ----------------
#NOTES:
     dance-single:
     Wrland:
     Medium:
     5:
     0,0,0,0,0:
0000
0000
0000
0000
,
0000
0000
0000
0000
,
0000
0000
0000
0000
,
0000
0000
0000
0000
,
0000
0000
0000
0000
,
0000
0000
0000
0000
,
0000
0000
0000
0000
,
0000
0000
0000
0000
0000
0010
0100
0010
,
1000
0000
0000
0002
0000
0000
0003
0000
0000
0000
0010
0000
0100
0000
0010
0000
,
0200
0000
0000
0000
0300
0000
0001
1000
,
0001
0000
0000
2000
0000
0000
3000
0000
0000
0000
0000
0000
0100
0000
1000
0000
,
0200
0000
0000
0300
0000
0010
0100
0010
,
0200
0000
0000
0300
0000
0001
0010
0001
,
0020
0000
0000
0030
0000
0000
0010
0100
,
0010
0100
0010
0100
0010
0001
0010
0001
,
0020
0000
0000
0030
0000
0000
1000
0100
,
1000
0000
0000
0200
0000
0000
0300
0000
0000
0000
0000
0000
0001
0000
1000
0000
,
0002
0000
0000
0003
0000
0000
0010
0100
,
0020
0030
0002
0003
0000
0010
0100
0010
,
0200
0300
2000
3000
0000
1000
0100
1000
,
0100
0000
0000
0020
0000
0000
0030
0000
0100
0000
0010
0000
0001
0000
0100
0000
,
0020
0000
0000
0000
0030
0100
0020
0030
,
0200
0300
1000
0100
1000
0100
0010
0002
,
0003
2000
3000
0001
1000
0001
2000
3000
0200
0000
0300
0000
0011
0000
0000
0000
,
0200
0300
1001
0200
0300
0001
0220
0000
,
0000
0000
0330
0000
0020
0030
0110
0000
,
0002
0003
0011
2000
3000
0100
0220
0000
,
0000
0000
0330
0000
0200
0300
1100
0000
,
0200
0300
0101
0002
0003
0100
0022
0000
,
0000
0000
0033
0000
0100
0010
0200
0300
,
0001
0100
0010
0100
0020
0000
0030
0001
,
2000
0000
3000
0000
0200
0300
1100
0000
,
0200
0300
0110
0002
0003
0100
0220
0000
,
0000
0000
0330
0000
0002
0003
0110
0000
,
0200
0300
1100
0200
0300
0010
0220
0000
,
0000
0000
0330
0000
0002
0003
0011
0000
,
0200
0300
0101
0020
0030
0100
2020
0000
,
0000
0000
3030
0000
0100
0010
0200
0300
,
0001
0100
0010
1000
0200
0300
0000
1000
,
0200
0300
0000
0000
0010
0000
0100
0000
,
0010
0000
0100
0010
0000
0001
0100
0000
,
1000
0100
1000
0100
,
0010
0000
0100
0010
0000
0001
0100
0000
,
0010
0100
0010
0001
,
0100
0000
0001
0100
0000
0010
1000
0000
,
0100
1000
0100
0010
,
0100
0000
0010
0100
0000
0001
0100
0000
,
0010
0100
1000
0100
,
1000
0000
0100
0010
0000
0001
0100
0000
,
0010
0100
0010
0100
,
1000
0000
0001
1000
0000
0100
0010
0000
,
0100
0001
0010
0100
,
0010
0000
0100
0010
0000
0001
0010
0000
,
0100
0000
0000
0000
0010
0000
0000
0000
0200
0000
0000
0000
0300
0000
0010
0200
,
0000
0000
0300
0000
0020
0030
0101
0000
,
0020
0030
1001
0020
0030
0100
0220
0000
,
0000
0000
0330
0000
2000
3000
1100
0000
,
0200
0300
0110
0002
0003
0100
0220
0000
,
0000
0000
0330
0000
0020
0030
0011
0000
,
0002
0003
0101
0020
0030
0100
0220
0000
,
0000
0000
0330
0000
0100
0010
0200
0300
,
0001
0010
0100
1000
0200
0000
0300
0100
,
0020
0000
0030
0000
0200
0300
0101
0000
,
0020
0030
1010
0002
0003
0100
0022
0000
,
0000
0000
0033
0000
0200
0300
1100
0000
,
0200
0300
0110
0002
0003
0100
0220
0000
,
0000
0000
0330
0000
0002
0003
0110
0000
,
0200
0300
1100
2000
3000
0100
0220
0000
,
0000
0000
0330
0000
0100
0010
0200
0300
,
0001
0100
0001
0010
0200
0000
0300
1000
,
0200
0000
0300
0000
0200
0000
0300
0020
,
0030
0000
0110
0000
0200
0000
0300
0002
,
0003
0000
0110
0000
2000
0000
3000
0200
,
0300
0000
0110
0000
0002
0000
0003
0020
,
0030
0000
0110
0000
2000
0000
3000
0020
,
0030
0000
0101
0000
0020
0000
0030
0200
,
0300
0000
0000
0000
1010
0000
0000
0000
0200
0000
0300
0010
0200
0000
0300
0001
,
0200
0000
0300
0020
0000
0030
0000
2002
0000
0000
0000
0000
0000
0000
0000
0000
,
0000
0000
0000
3003
;

//--------------- dance-single - Wrland ----------------
#NOTES:
     dance-single:
     Wrland:
     Hard:
     9:
     0,0,0,0,0:
0000
0000
0000
0000
,
0000
0000
0000
0000
,
0000
0000
0000
0000
,
0000
0000
0000
0000
,
0000
0000
0000
0000
,
0000
0000
0000
0000
,
0000
0000
0000
0000
,
0000
0000
0000
0000
0000
0100
0010
0100
,
0220
0000
0330
0002
0000
0003
1000
0000
0100
0000
0010
0000
0100
0000
0010
0000
,
0002
0000
0003
1000
0100
0000
0010
0000
0100
0000
0010
0000
0001
0000
0100
0000
,
2000
3000
0000
1000
0001
0000
0010
0000
1000
0000
0001
0000
0010
0000
0100
0000
,
0020
0000
0030
0001
0100
0000
0100
0000
0010
0000
0100
0000
1000
0000
0100
0000
,
2000
0000
3000
0100
1000
0000
0100
0000
0010
0000
0001
0000
0100
0000
0010
0000
,
0200
0300
0000
0100
0010
0000
0010
0000
0001
0000
0010
0000
0100
0000
0010
0000
,
0001
0100
0010
0100
1000
0100
1000
0100
,
0020
0030
0000
0010
0001
0000
0010
0000
0100
0000
0001
0000
0100
0000
0010
0000
,
0200
0000
0300
0020
0000
0030
0001
0100
0010
0000
0000
0000
0100
0000
1000
0000
,
0200
0000
0300
0020
0000
0030
0001
0000
0010
0000
0100
0000
0010
0000
0100
0000
,
0020
0000
0030
0000
0001
0000
0100
0010
0200
0000
0300
0000
0100
0000
1000
0000
,
0100
0000
0000
0001
0100
0000
0010
0100
0010
0000
0001
0000
1000
0000
0100
0000
,
0020
0000
0030
0200
0000
0000
0300
0000
1000
0000
0100
0000
0010
0000
0100
0000
,
0020
0030
0001
0100
0000
0010
0200
0300
,
0202
0303
0010
0100
1000
0100
0010
0002
,
0003
2000
3000
0100
0010
0100
0020
0030
0200
0000
0300
0000
0110
0000
0000
0000
,
0002
0003
0101
0020
0030
1010
0200
0000
,
0000
0000
0301
0000
2000
3000
1010
0000
,
0200
0300
0110
0002
0003
0101
0002
0000
,
0000
0000
1003
0000
0200
0300
0110
0000
,
0020
0030
0110
0200
0300
0101
0200
0000
,
0000
0000
0000
0000
0310
0100
0020
0030
,
0001
0000
0010
0001
0010
0000
0100
0000
0020
0000
0030
0000
0000
0000
0100
0000
,
0020
0030
0000
0000
0002
0003
1001
0000
,
0200
0300
1100
0200
0300
1001
0020
0000
,
0000
0000
0031
0000
0020
0030
0110
0000
,
0002
0003
0101
0020
0030
1100
0020
0000
,
0000
0000
0031
0000
0020
0030
0101
0000
,
0020
0030
1010
0200
0300
0011
0200
0000
,
0000
0000
0300
0000
0100
0010
0200
0300
,
0010
0001
0100
0010
0200
0000
0300
0010
,
0200
0000
0300
0000
1001
0000
0000
0000
1001
0000
0000
0010
0100
0000
1000
0000
,
0010
0000
0100
0010
0000
0001
0100
0010
,
0100
0000
0000
0000
0110
0000
0000
0000
0001
1000
0001
1000
0001
1000
0001
0010
,
0100
0000
0010
0100
0001
0100
0010
0001
0100
0010
1000
0100
0001
0100
0010
0100
,
0010
0001
0010
0100
0020
0000
0030
0000
0100
0000
0010
0100
0010
0000
0010
0000
,
0001
0000
0100
0000
0020
0000
0030
0000
0100
0000
0001
1000
0001
0000
0100
0000
,
0020
0000
0030
0000
0110
0000
0000
0000
0001
0000
0000
0001
1000
0000
0001
0000
,
1000
0000
0000
0000
0100
0010
0000
0000
0100
0000
0000
0010
0100
0000
0010
0000
,
0100
0000
0000
0000
1001
0000
0000
0000
1000
0000
0001
1000
0001
0000
0010
0000
,
0100
0000
0000
0000
0100
0000
0000
0000
0010
0000
0100
0010
0100
0000
1000
0001
,
0100
0010
0100
0010
0001
0000
1000
0000
0100
0000
0010
0000
0001
0000
1000
0001
,
1000
0000
0000
0000
0002
0000
0003
0000
1000
0000
0001
1000
0001
1000
0001
0100
,
0010
0001
0010
0100
1000
0000
0001
0000
0010
0000
0000
0100
0010
0000
0000
0001
,
1000
0010
0100
0000
0010
0001
1000
0100
,
1000
0000
0100
0000
0010
0000
0000
0000
0002
0000
0000
0000
0003
0000
1000
0002
,
0000
0000
0003
0000
0200
0300
0011
0000
,
0200
0300
1100
0200
0300
0011
0200
0000
,
0000
0000
0310
0000
0002
0003
0101
0000
,
0020
0030
1010
0200
0300
0110
0200
0000
,
0000
0000
0301
0000
0020
0030
0011
0000
,
0002
0003
0101
0020
0030
0110
0200
0000
,
0000
0000
0300
0000
1000
0100
0200
0300
,
0010
0001
0100
0001
0200
0000
0300
0010
,
0200
0000
0300
0000
2000
3000
0101
0000
,
2000
3000
0110
0020
0030
0011
0200
0000
,
0000
0000
1300
0000
2000
3000
1100
0000
,
0200
0300
0011
0200
0300
0011
0200
0000
,
0000
0000
0301
0000
0020
0030
0110
0000
,
0200
0300
1001
0020
0030
0110
0020
0000
,
0000
0000
0030
0000
0100
0010
0200
0300
,
0001
1000
0001
0100
0020
0030
0100
0020
,
0000
0030
0100
0010
0002
0000
0003
0200
,
0000
0300
0020
0030
0200
0000
0300
2000
,
0000
3000
0200
0300
0002
0000
0003
0020
,
0000
0030
0200
0300
0020
0000
0030
0002
,
0000
0003
0020
0030
0200
0000
0300
2000
,
0000
3000
0200
0300
0020
0000
0030
0002
,
0000
0000
0003
0000
0020
0000
0030
0000
0220
0330
0000
0100
0020
0000
0030
0001
,
0200
0000
0300
2002
0000
0000
3003
0220
0000
0000
0000
0000
0000
0000
0000
0000
,
0000
0000
0000
0330
;

//--------------- dance-double - Wrland ----------------
#NOTES:
     dance-double:
     Wrland:
     Easy:
     1:
     0,0,0,0,0:
00000000
00000000
00000000
00000000
,
00000000
00000000
00000000
00000000
,
00000000
00000000
00000000
00000000
,
00000000
00000000
00000000
00000000
,
00000000
00000000
00000000
00000000
,
00000000
00000000
00000000
00000000
,
00000000
00000000
00000000
00000000
,
00000000
00000000
00000000
00000000
,
01000000
00000000
00000000
00000000
,
01000000
00000000
00000000
00000000
,
00100000
00000000
00000000
00000000
,
00010000
00000000
00000000
00000000
,
00100000
00000000
00000000
00000000
,
01000000
00000000
00000000
00000000
,
00100000
00000000
00000000
00000000
,
00010000
00000000
00000000
00000000
,
00001000
00000000
00000000
00000000
,
00000100
00000000
00000000
00000000
,
00000010
00000000
00000000
00000000
,
00000001
00000000
00000000
00000000
,
00001000
00000000
00000000
00000000
,
00000100
00000000
00000000
00000000
,
00000010
00000000
00000000
00000000
00000000
00000000
00000000
00002002
,
00000000
00003003
00000100
00000000
,
00000100
00000000
00000000
00001000
00000000
00000000
00000000
00000000
,
00000000
00000000
00010000
00000000
,
00100000
00000000
00000000
01000000
00000000
00000000
00000000
00000000
,
00000000
00000000
00100000
00000000
,
01000000
00000000
00000000
00100000
00000000
00000000
00000000
00000000
,
00000000
00000000
10000000
00000000
,
00000000
00000000
00010000
00000000
,
00000000
00000000
01000000
00000000
,
01000000
00000000
00000000
01000000
00000000
00000000
00000000
00000000
,
00000000
00000000
00100000
00000000
,
00100000
00000000
00000000
00100000
00000000
00000000
00000000
00000000
,
00000000
00000000
00010000
00000000
,
10000000
00000000
00000000
00010000
00000000
00000000
00000000
00000000
,
00000000
00000000
01000000
00000000
,
00000000
00000000
00100000
00000000
,
00010000
00000000
00001000
00000000
,
00000000
00000000
00000100
00000000
,
00000000
00000000
00000010
00000000
,
00000000
00000000
00000001
00000000
,
00000000
00000000
00000010
00000000
,
00000000
00000000
00000100
00000000
,
00000000
00000000
00000010
00000000
,
00000000
00000000
00000100
00000000
,
00000000
00000000
00001000
00000000
,
00000000
00000000
00000100
00000000
,
00000000
00000000
00000001
00000000
,
00000000
00000000
00000100
00000000
,
00000000
00000000
00000010
00000000
,
00000000
00000000
00000100
00000000
,
00000000
00000000
00001000
00000000
,
00010000
00000000
00100000
00000000
,
00100000
00000000
00000000
01000000
00000000
00000000
00000000
00000000
,
00000000
00000000
10000000
00000000
,
00010000
00000000
00000000
10000000
00000000
00000000
00000000
00000000
,
00000000
00000000
01000000
00000000
,
00100000
00000000
00000000
01000000
00000000
00000000
00000000
00000000
,
00000000
00000000
00100000
00000000
,
00010000
00000000
00001000
00000000
,
00000000
00000000
00000010
00000000
,
00000100
00000000
00000000
00000001
00000000
00000000
00000000
00000000
,
00000000
00000000
00001000
00000000
,
00000100
00000000
00000000
00000010
00000000
00000000
00000000
00000000
,
00000000
00000000
00000100
00000000
,
00001000
00000000
00000000
00010000
00000000
00000000
00000000
00000000
,
00000000
00000000
00100000
00000000
,
00000000
00000000
10000000
00000000
,
00000000
00000000
01000000
00000000
,
00000000
00000000
00100000
00000000
,
00000000
00000000
00010000
00000000
,
00000000
00000000
00001000
00000000
,
00000000
00000000
00000100
00000000
,
00000000
00000000
00000010
00000000
,
00000000
00000000
00002002
00000000
,
00003003
00000000
00000220
00000000
,
00000000
00000000
00000000
00000330
;

//--------------- dance-double - Wrland ----------------
#NOTES:
     dance-double:
     Wrland:
     Medium:
     2:
     0,0,0,0,0:
00000000
00000000
00000000
00000000
,
00000000
00000000
00000000
00000000
,
00000000
00000000
00000000
00000000
,
00000000
00000000
00000000
00000000
,
00000000
00000000
00000000
00000000
,
00000000
00000000
00000000
00000000
,
00000000
00000000
00000000
00000000
,
00000000
00000000
00000000
00000000
,
00100000
00000000
01000000
00000000
,
10000000
00000000
01000000
00000000
,
00100000
00000000
01000000
00000000
,
00100000
00000000
01000000
00000000
,
00100000
00000000
00010000
00000000
,
01000000
00000000
00010000
00000000
,
01000000
00010000
01000000
00010000
01000000
00010000
01000000
00010000
,
01000000
00000000
00000000
00000000
,
00010000
00000000
00001000
00000000
,
00000100
00000000
00000100
00000000
,
00000010
00000000
00000010
00000000
,
00000001
00000000
00000001
00000000
,
00000010
00000000
00000100
00000000
,
00001000
00000000
00000100
00000000
,
00000010
00000000
00000000
00000000
00000000
00000000
00000000
00000200
,
00000000
00000300
00000001
00000000
,
00000001
00000000
00000000
00001000
00000000
00000000
00000000
00000000
,
00000000
00000000
00000100
00000000
,
00000100
00000000
00000000
00000100
00000000
00000000
00000000
00000000
,
00000000
00000000
00001000
00000000
,
00001000
00000000
00000000
00001000
00000000
00000000
00000000
00000000
,
00000000
00000000
00010000
00100000
,
01000000
00000000
10000000
01000000
00100000
00000000
00000000
01000000
,
00100000
00000000
00010000
00000000
,
10000000
00000000
00000000
01000000
00000000
00000000
00000000
00000000
,
00000000
00000000
00100000
00000000
,
01000000
00000000
00000000
00100000
00000000
00000000
00000000
00000000
,
00000000
00000000
00010000
00000000
,
10000000
00000000
00000000
01000000
00000000
00000000
00100000
00000000
,
00000000
00000000
01000000
00100000
,
01000000
00000000
00100000
01000000
00100000
00000000
00000000
00010000
,
01000000
00000000
00010000
00000000
,
00000000
00000000
00010000
00001000
00000000
00000000
00000100
00000000
,
00000010
00000001
00000100
00000000
,
00000000
00000000
00000010
00000100
00000000
00000000
00000010
00000000
,
00000001
00000100
00001000
00000000
,
00000000
00000000
00000100
00001000
00000000
00000100
00000010
00000000
,
00000001
00000010
00000100
00000000
,
00000000
00000000
00000010
00000001
00000000
00000100
00000010
00000000
,
00000100
00000010
00000001
00000000
,
00000000
00000000
00000100
00001000
00000000
00000000
00010000
00000000
,
00100000
01000000
01000000
00000000
,
00000000
00000000
00100000
01000000
00000000
10000000
01000000
00000000
,
00100000
00010000
01000000
00000000
,
00100000
00000000
01000000
00100000
00000000
00010000
01000000
00000000
,
10000000
00000000
00000000
00000000
01000000
00000000
00000000
00000000
00200000
00000000
00000000
00000000
00300000
00000000
01000000
00200000
,
00000000
00300000
00100000
00000000
,
00100000
00000000
00000000
00100000
00000000
00000000
00000000
00000000
,
00000000
00000000
00010000
00000000
,
00010000
00000000
00000000
00010000
00000000
00000000
00000000
00000000
,
00000000
00000000
00001000
00000000
,
00001000
00000000
00000000
00001000
00000000
00000000
00000000
00000000
,
00000000
00000000
00000100
00000010
,
00000100
00000000
00000010
00000001
00000010
00000000
00000000
00000100
,
00000010
00000000
00000001
00000000
,
00000001
00000000
00000000
00000010
00000000
00000000
00000000
00000000
,
00000000
00000000
00000100
00000000
,
00000100
00000000
00000000
00000100
00000000
00000000
00000000
00000000
,
00000000
00000000
00001000
00000000
,
00000100
00000000
00000000
00001000
00000000
00000000
00000000
00000000
,
00000000
00000000
00010000
00100000
,
01000000
00000000
00000000
00100000
01000000
00000000
00000000
10000000
,
01000000
00000000
00000000
00000000
00010000
00000000
00000000
10000000
,
00000000
00000000
00010000
00000000
01000000
00000000
00000000
00100000
,
00000000
00000000
01000000
00000000
01000000
00000000
00000000
10000000
,
00000000
00000000
01000000
00000000
00100000
00000000
00000000
00010000
,
00000000
00000000
00001000
00000000
00000100
00000000
00000000
00000010
,
00000000
00000000
00000001
00000000
00000010
00000000
00000000
00000100
,
00000000
00000000
00001000
00000000
00000002
00000003
00002000
00003000
,
00000002
00000003
00002000
00003000
00002002
00000000
00000000
00000000
,
00000000
00000000
00000000
00003003
;

//--------------- dance-double - Wrland ----------------
#NOTES:
     dance-double:
     Wrland:
     Hard:
     4:
     0,0,0,0,0:
00000000
00000000
00000000
00000000
,
00000000
00000000
00000000
00000000
,
00000000
00000000
00000000
00000000
,
00000000
00000000
00000000
00000000
,
00000000
00000000
00000000
00000000
,
00000000
00000000
00000000
00000000
,
00000000
00000000
00000000
00000000
,
00000000
00000000
00000000
00000000
00000000
01000000
00100000
01000000
,
00100000
00000000
00000000
02000000
00000000
00000000
03000000
00000000
00000000
00000000
00100000
00000000
01000000
00000000
00100000
00000000
,
02000000
00000000
00000000
00000000
03000000
00000000
00100000
01000000
,
00010000
00000000
00000000
20000000
00000000
00000000
30000000
00000000
00000000
00000000
10000000
00000000
01000000
00000000
10000000
00000000
,
02000000
00000000
00000000
00000000
03000000
10000000
00100000
01000000
,
00020000
00000000
00000000
00030000
00000000
00100000
01000000
00100000
,
00020000
00000000
00000000
00030000
00000000
00000000
10000000
01000000
,
10000000
01000000
00100000
00010000
01000000
00100000
01000000
00100000
,
00020000
00000000
00000000
00030000
00000000
00010000
00001000
00010000
,
00001000
00000000
00000000
00000200
00000000
00000000
00000300
00000000
00000000
00000000
00000100
00000000
00000010
00000000
00001000
00000000
,
00000002
00000000
00000000
00000003
00000000
00000000
00000000
00000010
,
00000002
00000003
00000200
00000000
00000300
00001000
00000100
00000010
,
00002000
00003000
00000200
00000000
00000300
00000001
00001000
00000100
,
00000010
00000000
00000000
00000200
00000000
00000000
00000300
00000000
00000010
00000000
00000001
00000000
00000100
00000000
00000010
00000000
,
00000100
00000200
00000000
00000300
00000000
00001000
00000200
00000300
,
00000020
00000030
00000001
00000100
00001000
00000100
00000010
00002000
,
00003000
00000200
00000300
00000010
00001000
00000100
00000020
00000030
00000001
00000000
00000000
00000000
00000010
00000000
00000000
00000000
,
00000100
00000000
00001000
00010000
00000000
00100000
02200000
00000000
,
03300000
10010000
01000000
01000000
,
00100000
00000000
01000000
00100000
00000000
01000000
00220000
00000000
,
00330000
11000000
01000000
00100000
,
00010000
00000000
01000000
00100000
00000000
10000000
02200000
00000000
,
03300000
00000000
00000000
00000000
01000000
00100000
01000000
00000000
,
00100000
01000000
00100000
00010000
00002000
00000000
00003000
00000100
,
00000020
00000030
00000001
00000100
,
00000001
00000000
00000100
00000010
00000000
00000100
00000022
00000000
,
00000033
00001001
00000100
00000010
,
00000100
00000000
00000010
00000100
00000000
00000001
00002200
00000000
,
00003300
00001010
00000100
00000100
,
00001000
00000000
00010000
00100000
00000000
01000000
02200000
00000000
,
03300000
00000000
00000000
00000000
01000000
00100000
02000000
03000000
,
00010000
10000000
00100000
01000000
00200000
00000000
00300000
01000000
,
00200000
00300000
01000000
00100000
,
01000000
00000000
00100000
01000000
00000000
00100000
01000000
00000000
,
10000000
01000000
00100000
01000000
,
00100000
00000000
00010000
01000000
00000000
00100000
01000000
00000000
,
00100000
00010000
00001000
00000100
,
00000010
00000000
00000100
00000001
00000000
00000100
00000001
00000000
,
00001000
00000010
00000100
00000010
,
00000100
00000000
00000001
00000100
00000000
00000010
00001000
00000000
,
00000001
00000100
00000010
00000100
,
00000010
00000000
00001000
00000100
00000000
00010000
00001000
00000000
,
00100000
00100000
10000000
01000000
,
00010000
00000000
01000000
00010000
00000000
10000000
00100000
00000000
,
01000000
00100000
10000000
01000000
,
00100000
00000000
10000000
00100000
00000000
01000000
00100000
00000000
,
01000000
00000000
00000000
00000000
00100000
00000000
00000000
00000000
00020000
00000000
00000000
00000000
00030000
00000000
00010000
00002000
,
00000000
00003000
00001000
00000100
,
00000010
00000000
00000001
00000100
00000000
00000010
00000022
00000000
,
00000033
00001100
00000100
00000010
,
00000100
00000000
00000010
00000001
00000000
00000100
00000220
00000000
,
00000330
00001001
00000100
00000010
,
00000100
00000000
00001000
00000100
00000000
00000010
00000022
00000000
,
00000033
00000000
00000000
00000000
00000001
00000010
00000100
00000000
,
00000100
00000010
00000001
00000100
00000020
00000000
00000030
00001000
,
00000200
00000300
00001000
00000100
,
00000010
00000000
00000001
00000010
00000000
00000100
00002200
00000000
,
00003300
00011000
00100000
01000000
,
10000000
00000000
01000000
00100000
00000000
00010000
02200000
00000000
,
03300000
10010000
01000000
00100000
,
01000000
00000000
10000000
01000000
00000000
00100000
02200000
00000000
,
03300000
00000000
00000000
00000000
01000000
00100000
01000000
00000000
,
00100000
00010000
01000000
10000000
02000000
00000000
03000000
00100000
,
02000000
00000000
03000000
00000000
02200000
03300000
00000000
00200000
,
00300000
00000000
02000000
03000000
20020000
30030000
00000000
02000000
,
03000000
00000000
00200000
00300000
00220000
00330000
00000000
00020000
,
00030000
00000000
00002000
00003000
00002200
00003300
00000000
00000200
,
00000300
00000000
00000020
00000030
00000022
00000033
00000000
00000020
,
00000030
00000000
00000002
00000003
00000202
00000303
00000000
00000020
,
00000030
00000000
00000000
00000000
00000200
00000000
00000300
00000000
00002200
00003300
00000000
00001000
00020000
00030000
00000000
00100000
,
02000000
03000000
00000000
20200000
00000000
30300000
00000000
02200000
00000000
00000000
00000000
00000000
00000000
00000000
00000000
00000000
,
00000000
00000000
00000000
03300000
;

//--------------- dance-solo - Wrland ----------------
#NOTES:
     dance-solo:
     Wrland:
     Easy:
     1:
     0,0,0,0,0:
000000
000000
000000
000000
,
000000
000000
000000
000000
,
000000
000000
000000
000000
,
000000
000000
000000
000000
,
000000
000000
000000
000000
,
000000
000000
000000
000000
,
000000
000000
000000
000000
,
000000
000000
000000
000000
,
001000
000000
000000
000000
,
001000
000000
000000
000000
,
000100
000000
000000
000000
,
000100
000000
000000
000000
,
000001
000000
000000
000000
,
001000
000000
000000
000000
,
000001
001000
000001
001000
,
000100
000000
000000
000000
,
010000
000000
000000
000000
,
000010
000000
000000
000000
,
010000
000000
000000
000000
,
000010
000000
000000
000000
,
100000
000000
000000
000000
,
001000
000000
000000
000000
,
000100
000000
000000
000000
000000
000000
000000
002000
,
000000
003000
000100
000000
,
000000
000000
000100
000000
,
000000
000000
001000
000000
,
000000
000000
001000
000000
,
000000
000000
000001
000000
,
000000
000000
100000
000000
,
000000
000000
001000
000000
,
000000
000000
000100
000000
,
000000
000000
000001
000000
,
000000
000000
100000
000000
,
000000
000000
000001
000000
,
000000
000000
001000
000000
,
000000
000000
000100
000000
,
000000
000000
001000
000000
,
000000
000000
000010
000000
,
000000
000000
010000
000000
,
000000
010010
001000
000000
,
000000
000100
001000
000000
,
000000
000000
000001
000000
,
000000
100000
000001
000000
,
000000
000000
010000
000000
,
000000
000010
010000
000000
,
000000
000000
001000
000000
,
000000
001000
000100
000000
,
000000
000000
000100
000000
,
000000
000100
001000
000000
,
000000
000000
000010
000000
,
000000
000010
010000
000000
,
000000
000000
000001
000000
,
000000
000001
100000
000000
,
000000
000000
000000
000000
000000
000000
000000
000000
002000
000000
000000
000000
003000
000000
000100
002000
,
000000
003000
001000
000000
,
000000
000000
001000
000000
,
000000
000000
000100
000000
,
000000
000000
000100
000000
,
000000
000000
000001
000000
,
000000
000000
000001
000000
,
000000
000000
100000
000000
,
000000
000000
100000
000000
,
000000
000000
010000
000000
,
000000
000000
000010
000000
,
000000
000000
010000
000000
,
000000
000000
000010
000000
,
000000
000000
001000
000000
,
000000
000000
000100
000000
,
000000
000000
000001
000000
,
000000
000000
100000
000000
,
000000
000000
001000
000000
,
000000
000000
000100
000000
,
000000
000000
001000
000000
,
000000
000000
000100
000000
,
000000
000000
000001
000000
,
000000
000000
100000
000000
,
000000
000000
002000
000000
,
003000
000000
000200
000000
,
000000
000000
000000
000300
;

//--------------- dance-solo - Wrland ----------------
#NOTES:
     dance-solo:
     Wrland:
     Medium:
     3:
     0,0,0,0,0:
000000
000000
000000
000000
,
000000
000000
000000
000000
,
000000
000000
000000
000000
,
000000
000000
000000
000000
,
000000
000000
000000
000000
,
000000
000000
000000
000000
,
000000
000000
000000
000000
,
000000
000000
000000
000000
,
001000
000000
001000
000000
,
000100
000000
000100
000000
,
000001
000000
000001
000000
,
100000
000000
100000
000000
,
001000
000000
001000
000000
,
000100
000000
000100
000000
,
000010
000000
000010
000000
,
010000
000000
010000
000000
,
001000
000000
001000
000000
,
000100
000000
000100
000000
,
100000
000000
100000
000000
,
001000
000000
001000
000000
,
000100
000000
000001
000000
,
001000
000000
000100
000000
,
001000
000000
000000
000000
001000
000000
000000
000200
,
000000
000300
001000
000100
,
001000
000000
000001
100000
,
000001
000000
010000
000010
,
010000
000000
100000
010000
,
100000
000000
001000
000100
,
001000
000000
000001
000100
,
000001
000000
000010
001000
,
000100
000000
000010
010000
,
000010
000000
001000
000100
,
001000
000000
100000
010000
,
100000
000000
000010
001000
,
000010
000000
000100
000001
,
000100
000000
000010
010000
,
000010
000000
001000
000100
,
001000
000000
000001
000100
,
000001
000000
001000
000100
,
001000
000000
000100
000000
,
000000
000000
001000
000100
000000
000000
000000
000000
,
001000
000100
000010
000000
,
000000
000000
010000
000010
000000
001000
000100
000000
,
001000
000001
001000
000000
,
001000
000000
000001
001000
000000
000100
001000
000000
,
000100
100000
001000
000000
,
000000
000000
000100
001000
000000
000100
001000
000000
,
000100
001000
000100
000000
,
000000
000000
100000
010000
000000
001000
010000
000000
,
000010
010000
001000
000000
,
000000
000000
000001
000100
000000
000100
001000
000000
,
000100
100000
000001
000000
,
000000
000000
000001
100000
000000
000100
001000
000000
,
000100
000000
000000
000000
001000
000000
000000
000000
000020
000000
000000
000000
000030
000000
000010
020000
,
000000
030000
000100
001000
,
000100
000000
000001
100000
,
000001
000000
010000
001000
,
010000
000000
000010
000100
,
000010
000000
001000
000001
,
001000
000000
000100
100000
,
000100
000000
001000
000100
,
001000
000100
001000
000100
001000
000000
000000
000001
,
001000
000000
000100
000010
,
000100
000000
010000
000010
,
010000
000000
100000
010000
,
100000
000000
001000
000100
,
001000
000000
000001
000010
,
000001
000000
001000
000100
,
001000
000000
000000
000000
001000
000100
001000
000000
,
000100
001000
000100
001000
000100
000000
000000
001000
,
000100
000000
000000
000000
000001
000000
000000
100000
,
000000
000000
000001
000000
010000
000000
000000
000010
,
000000
000000
010000
000000
001000
000000
000000
000100
,
000000
000000
001000
000000
000100
000000
000000
001000
,
000000
000000
000100
000000
000001
000000
000000
001000
,
000000
000000
000001
000000
100000
000000
000000
000100
,
000000
000000
000000
000000
001000
000000
000000
000000
000002
000000
000000
000003
002000
000000
000000
003000
,
000200
000000
000300
002000
000000
000000
003000
000000
002200
000000
000000
000000
000000
000000
000000
000000
,
000000
000000
000000
003300
;

//--------------- dance-solo - Wrland ----------------
#NOTES:
     dance-solo:
     Wrland:
     Hard:
     5:
     0,0,0,0,0:
000000
000000
000000
000000
,
000000
000000
000000
000000
,
000000
000000
000000
000000
,
000000
000000
000000
000000
,
000000
000000
000000
000000
,
000000
000000
000000
000000
,
000000
000000
000000
000000
,
000000
000000
000000
000000
000000
000100
001000
000100
,
001000
000000
000000
000200
000000
000000
000300
000000
010010
000000
000000
000000
000001
000000
001000
000000
,
000002
000003
001000
000000
000100
000000
001000
000100
,
001000
000000
000000
000200
000000
000000
000300
000000
010010
000000
000000
000000
001000
000000
000100
000000
,
002000
003000
100000
000000
000001
001000
000100
001000
,
000020
000000
000000
000030
000000
000100
001000
000100
,
020000
000000
030000
000100
001000
000000
001000
000100
,
001000
000100
001000
000100
001000
000100
001000
000100
,
002000
003000
000010
000010
000010
000100
000001
000100
,
002000
000000
003000
000100
000000
000000
001000
000000
000100
000000
000000
000000
100000
000000
000001
000000
,
100000
000000
000000
000001
000000
000000
001000
000000
000100
000000
000000
000000
000010
000000
010000
000000
,
000020
000030
020000
030000
000001
100000
000001
100000
,
000001
000000
100000
001000
000100
001000
000100
001000
,
000200
000000
000300
000001
000000
000000
000000
000000
000010
000000
001000
000000
010000
000000
000010
000000
,
002000
000000
000000
000000
003000
100000
010000
000000
,
200000
300000
000100
000010
001000
000100
001000
000200
,
000300
002000
003000
000100
001000
000100
002000
003000
000010
000000
000000
000000
000100
000000
000000
000000
,
001000
000000
010000
001000
000000
000100
002000
000000
,
003000
000100
000001
001000
,
000001
000000
001000
000100
000000
001000
000200
000000
,
000300
001000
000001
100000
,
000001
000000
100000
000001
000000
100000
000002
000000
,
000000
000000
000003
000000
001000
000100
002000
003000
,
000100
001000
000100
001000
000200
000000
000300
000010
,
020000
030000
001000
000001
,
001000
000000
000100
100000
000000
000100
002000
000000
,
003000
000001
000001
001000
,
000100
000000
100000
000100
000000
001000
000200
000000
,
000300
001000
000001
100000
,
000100
000000
001000
000100
000000
001000
000200
000000
,
000000
000000
000300
000000
000010
010000
000010
000000
,
010000
000010
010000
000010
002000
000000
003000
000100
,
001000
001100
000010
000000
,
001000
000000
000100
001000
000000
000100
001000
000000
,
000100
001000
000001
000000
,
100000
000000
000001
100000
000000
000001
100000
000000
,
001000
000100
000010
000000
,
010000
000000
000010
010000
000000
000010
010000
000000
,
000010
001000
000100
000100
,
001000
000000
000100
001000
000000
001000
000100
000000
,
001000
000001
001000
000000
,
000100
000000
001000
000100
000000
000001
100000
000000
,
000100
001000
010000
000010
,
010000
000000
000010
010000
000000
000010
010000
000000
,
001000
000100
001000
000100
,
001000
000000
010000
010000
000000
001000
000100
000000
,
001000
000000
000000
000000
000100
000000
000000
000000
000020
000000
000000
000000
000030
000000
010000
000020
,
000000
000030
001000
000100
,
001000
000000
000100
001000
000000
000100
000020
000000
,
000030
000010
000001
000010
,
000001
000000
000010
000001
000000
000010
000200
000000
,
000300
001000
010000
100000
,
010000
000000
001000
100000
000000
010000
002000
000000
,
000000
000000
003000
000000
000100
001000
000100
000000
,
001000
000100
001000
000001
001000
000000
000100
001000
,
000200
000300
000001
001000
,
000100
000000
001000
000100
000000
001000
000200
000000
,
000300
100000
001000
000010
,
010000
000000
000010
010000
000000
000010
020000
000000
,
030000
001100
000001
001000
,
000100
000000
001000
000100
000000
001000
000200
000000
,
000300
000000
000000
000000
100000
000001
001000
000000
,
000100
001000
000100
001000
000020
000000
000030
010000
,
000020
000000
000030
000000
020020
000000
030030
002000
,
000000
003000
000000
000000
010010
000000
000000
000000
020002
000000
000000
030003
000000
000000
000020
000000
,
000000
000030
000000
000000
100010
000000
000000
000000
002020
000000
000000
003030
000000
000000
002000
000000
,
000000
003000
000000
000000
010010
000000
000000
000000
002200
000000
000000
003300
000000
000000
000020
000000
,
000000
000030
000000
000000
100001
000000
000000
000000
002020
000000
000000
003030
000000
000000
020000
000000
,
000000
030000
000000
000000
001100
000000
000000
000000
200002
000000
000000
000003
300000
000000
020000
000000
,
000000
030000
000000
000000
001100
000000
000000
000000
002000
000000
003000
000100
002000
000000
003000
000100
,
002000
000000
003000
000020
000000
000030
000000
020020
000000
000000
000000
000000
000000
000000
000000
000000
,
000000
000000
000000
030030
;
