#TITLE:BREAK MY SOUL;
#SUBTITLE:;
#ARTIST:Beyoncé;
#TITLETRANSLIT:;
#SUBTITLETRANSLIT:;
#ARTISTTRANSLIT:;
#GENRE:Pop;
#CREDIT:Wrland;
#MUSIC:BREAK MY SOUL.ogg;
#BANNER:BREAK MY SOUL.png;
#BACKGROUND:BG.png;
#LYRICSPATH:BREAK MY SOUL.lrc;
#CDTITLE:Wrland Season 3 CITYGHT + last one night.png;
#PREVIEWVID:preview.mp4;
#SAMPLESTART:66.783;
#SAMPLELENGTH:12.000;
#SELECTABLE:YES;
#OFFSET:-0.000;
#BPMS:0.000=115.000
,124.000=57.500
,126.000=115.000
;
#STOPS:;
#DISPLAYBPM:57.000:115.000;
#JACKET:BREAK MY SOUL-jacket.png;
#CDIMAGE:BREAK MY SOUL-cd.png;
#METERTYPE:DDR X;
#BGCHANGES:0.000=BREAK MY SOUL.avi=1.000=0=0=0=StretchNoLoop====,
99999.000=-nosongbg-=1.000=0=0=0=StretchNoLoop====
;
#FGCHANGES:;

//--------------- dance-single - Wrland ----------------
#NOTES:
     dance-single:
     Wrland:
     Beginner:
     2:
     0,0,0,0,0:
0000
0000
0000
0000
,
0000
0000
0000
0000
,
0000
0000
0000
0000
,
0000
0000
0000
0000
,
0000
0000
0000
0000
,
0000
0000
0000
0000
,
0000
0000
0000
0000
,
0000
0000
0000
0000
,
0100
0000
0000
0000
,
0100
0000
0000
0000
,
1000
0000
0000
0000
,
0001
0000
0000
0000
,
0100
0000
0000
0000
,
1000
0000
0000
0000
,
1000
0000
0000
0000
,
0100
0000
0000
0000
,
0010
0000
0000
0000
,
0001
0000
0000
0000
,
1000
0000
0000
0000
,
1000
0000
0000
0000
,
0100
0000
0000
0000
,
0100
0000
0000
0000
,
1000
0000
0000
0000
,
1000
0000
0000
0000
,
0100
0000
0000
0000
,
0010
0000
0000
0000
,
0100
0000
0000
0000
,
0010
0000
0000
0000
,
0001
0000
0000
0000
,
0100
0000
0000
0000
,
0001
0000
0000
0000
,
0200
0300
1000
0000
,
0000
0000
1000
0000
,
0000
0000
0100
0000
,
0000
0000
1000
0000
,
0000
0000
1000
0000
,
0000
0000
0010
0000
,
0000
0000
0001
0000
,
0000
0000
0100
0000
,
0000
0000
0001
0000
,
0000
0000
0010
0000
,
0000
0000
0100
0000
,
0000
0000
1000
0000
,
0000
0000
0100
0000
,
0000
0000
0100
0000
,
0000
0000
1000
0000
,
0000
0000
0010
0000
,
0000
0000
0100
0000
,
0000
0000
0100
0000
,
0000
0000
1000
0000
,
0000
0000
1000
0000
,
0000
0001
0000
0000
;

//--------------- dance-single - Wrland ----------------
#NOTES:
     dance-single:
     Wrland:
     Easy:
     5:
     0,0,0,0,0:
0000
0000
0000
0000
,
0000
0000
0000
0000
,
0000
0000
0000
0000
,
0000
0000
0000
0000
,
0000
0000
0000
0000
,
0000
0000
0000
0000
,
0000
0000
0000
0000
,
0000
0000
0000
0000
,
0100
0000
1000
0000
,
0100
0000
0010
0000
,
0001
0000
0010
0000
,
0100
0000
1000
0000
,
0010
0000
0100
0000
,
1000
0000
0001
0000
,
1000
0000
0100
0000
,
0010
0000
0100
0000
,
0010
0000
0001
0000
,
0001
0000
0010
0000
,
0100
0000
1000
0000
,
1000
0000
0100
0000
,
1000
0000
0010
0000
,
0100
0000
0100
0000
,
1000
0000
0100
0000
,
0010
0000
0001
0000
,
0010
0000
0100
0000
,
1000
0000
0100
0000
,
1000
0000
0010
0000
,
0100
0000
0010
0000
,
0001
0000
0010
0000
,
0100
0000
1000
0000
,
0010
0000
0100
0000
,
0020
0030
0100
0000
,
1000
0000
0100
0000
,
1000
0000
0100
0000
,
0010
0000
0001
0000
,
1000
0000
0100
0000
,
0010
0000
0100
0000
,
0010
0000
0100
0000
,
1000
0000
0001
0000
,
1000
0000
0001
0001
,
0001
0000
1000
1000
,
1000
0000
0100
0100
,
0100
0000
1000
1000
,
1000
0000
0010
0010
,
0010
0000
0100
0100
,
0100
0000
0010
0010
,
0010
0000
0001
0001
,
0001
0000
0100
0100
,
0100
0000
1000
1000
,
1000
0000
0100
0100
,
0100
0000
0010
0010
,
0010
0000
0000
0000
;

//--------------- dance-single - Wrland ----------------
#NOTES:
     dance-single:
     Wrland:
     Medium:
     7:
     0,0,0,0,0:
0000
0000
0000
0000
,
0000
0000
0000
0000
,
0000
0000
0000
0000
,
0000
0000
0000
0000
,
0000
0000
0000
0000
,
0000
0000
0000
0000
,
0000
0000
0000
0000
,
0000
0000
0000
0000
,
0100
0000
1000
0100
0000
0000
0010
0000
,
0001
0000
0001
0100
0000
0000
0010
0000
,
0100
0000
1000
0100
0000
0000
0100
0000
,
1000
0000
0100
0010
0000
0000
0001
0000
,
0010
0000
0100
0010
0000
0000
0100
0000
,
1000
0000
0100
0010
0000
0000
0001
0000
,
0010
0000
0001
0010
0000
0000
0100
0000
,
1000
0000
0100
1000
0000
0000
0100
0000
,
0010
0100
0010
0001
,
0100
0001
0100
0001
,
0010
0100
1000
0100
,
1000
0100
1000
0100
,
0010
0100
0010
0001
,
0100
0010
1000
0100
,
1000
0100
1000
0100
,
0010
0001
0100
0010
,
0100
0010
0001
0010
,
0100
1000
0100
1000
,
0100
0010
0001
0100
,
0001
0100
0010
1000
,
0100
1000
0100
0010
,
0001
0100
0001
0010
,
0100
0100
0010
0010
,
0200
0000
0000
0000
0300
0000
0010
0100
0000
0000
0020
0000
0000
0000
0030
0000
0100
0000
0000
0000
0000
0000
0000
0000
1000
0000
0000
0000
0010
0000
0000
0000
,
0000
0000
0010
0000
0001
0000
0100
0010
,
0000
0000
0100
0000
1000
0000
0100
1000
,
0000
0000
0100
0000
0010
0000
0100
0010
,
0000
0000
0001
0000
0010
0000
0100
0010
,
0000
0000
0001
0000
0100
0000
1000
0100
,
0000
0000
1000
0000
0100
0000
0010
0100
,
0000
0000
0100
0000
0010
0000
0001
0010
,
0000
0000
0100
0000
0010
0100
0010
0100
,
0001
0100
0001
0100
1000
0100
1000
0100
,
0010
0100
0010
0000
0100
1000
0100
1000
,
0100
0010
0001
0100
0010
0100
0010
0001
,
0100
0010
0100
0000
1000
0100
1000
0000
,
0100
0010
0100
0000
0001
0100
0001
0000
,
0010
0100
0010
0000
1000
0100
1000
0000
,
0100
0010
0001
0000
0001
0100
0001
0000
,
0010
0100
0010
0000
0100
1000
0100
0000
,
0010
0100
0010
0000
0001
0100
0001
0000
,
0010
0100
0010
0000
1000
0100
1000
0000
,
0100
0010
0001
0000
0100
0010
0100
0000
,
0100
0010
0001
0000
0000
0000
0000
0000
;

//--------------- dance-single - Wrland ----------------
#NOTES:
     dance-single:
     Wrland:
     Hard:
     11:
     0,0,0,0,0:
0000
0000
0000
0000
,
0000
0000
0000
0000
,
0000
0000
0000
0000
,
0000
0000
0000
0000
,
1000
0000
0001
0000
1000
0001
1000
0000
,
0100
1000
0100
0010
,
0100
0010
0001
0000
0100
0010
0100
0000
,
0010
0001
0100
0000
0010
0100
0010
0000
,
0100
0010
0000
0001
0000
0100
0000
0020
0000
0000
0030
0000
0100
0000
0000
0000
,
1000
0100
0000
0010
0000
0100
0000
0020
0000
0000
0030
0000
0100
0000
0000
0000
,
0001
0010
0000
0001
0000
0010
0000
0002
0000
0000
0003
0000
0010
0000
0000
0000
,
0100
0010
0000
1000
0000
0100
0000
2000
0000
0000
3000
0100
0000
0010
0000
0100
,
0000
0010
0000
0020
0000
0030
0002
0000
0000
0003
0010
0000
0100
0010
0000
0100
,
0000
1000
0000
0200
0000
0300
2000
0000
0000
3000
0000
0000
1000
0000
0000
0100
,
0000
0100
0000
0020
0000
0030
0100
0000
0010
0000
0100
0000
0100
0010
0000
0001
,
0000
0100
0000
0002
0000
0003
0200
0000
0300
0000
0100
0000
0010
0100
0000
0000
,
0010
0000
0000
0000
0100
0010
0000
0001
0000
0010
0000
0200
0000
0000
0300
0000
,
1000
0000
0000
0000
0100
0010
0000
0100
0000
0010
0000
0002
0000
0000
0003
0000
,
0010
0000
0000
0000
0100
1000
0000
0100
0000
0010
0000
0200
0000
0000
0300
0001
,
0000
0010
0000
0100
0000
1000
0000
0100
0000
1000
0000
0200
0000
0000
0000
0300
,
0010
0000
0000
0000
0100
0000
0000
0010
0000
0100
0000
0020
0000
0000
0030
0000
,
0001
0000
0000
0000
0100
0000
1000
0100
0000
0100
0000
0020
0000
0000
0030
0000
,
0100
0000
0000
0000
1000
0000
0100
1000
0000
0100
0000
0010
0000
0001
0000
0010
,
0000
0100
0000
0010
0000
0100
0000
0010
0000
0001
0000
0100
0000
0010
0000
0001
,
2000
0000
3000
0000
0100
0000
0000
0100
2000
0000
3000
0010
0200
0000
0000
0300
,
0002
0000
0000
0003
0100
0000
0001
0100
0000
0000
0010
0000
0100
0010
0100
0000
,
0020
0000
0030
0000
0200
0000
0000
0300
2000
0000
0000
3000
0200
0000
0300
0000
,
0110
0000
0000
0000
0001
0000
0010
0100
0000
0000
0010
0000
0010
0100
0010
0001
,
2000
0000
0000
3000
0200
0000
0300
0010
1000
0000
0000
0010
0200
0000
0300
0000
,
0020
0000
0000
0030
0100
0000
0010
0100
0000
0000
0001
0000
0100
0010
0100
0001
,
0020
0000
0000
0030
0200
0000
0300
0100
2000
0000
3000
0100
0020
0000
0030
0000
,
0202
0000
0303
0000
0000
0000
0010
0100
0000
0000
0010
0000
0001
0100
0001
0100
0010
0000
1000
0000
0000
0000
0100
0000
0000
0000
1000
0000
0000
0000
0200
0000
,
0000
0300
0010
0000
0100
0010
0100
0000
0010
0100
0000
0001
0000
0100
0000
0020
,
0000
0030
0100
0000
0001
1000
0100
0010
0200
0000
0300
0010
0000
0100
0000
0020
,
0000
0030
0001
0000
0100
0001
0100
0001
0010
0100
0000
1000
0000
0200
0300
0020
,
0000
0030
0100
0000
0010
0100
0010
0001
0000
1000
0000
0200
0000
0300
0020
0000
,
0000
0030
1000
0000
0100
0010
0000
0100
0000
0010
0000
0002
0000
0003
0200
0000
,
0300
0000
0010
0000
0100
0010
0000
1000
0000
0001
0000
0200
0000
0300
0010
0000
,
0100
0000
0010
0000
0001
0100
0001
0010
0000
0200
0300
0020
0000
0030
0001
0000
,
0010
0000
0001
0000
0010
0001
0010
0000
0010
0001
0010
0001
0010
0001
0010
0001
,
0010
0000
0010
0000
0110
0000
0000
0000
1000
0100
1000
0100
1000
0100
1000
0100
,
1000
0000
1000
0000
1100
0000
0000
0000
0100
0010
0100
0010
0100
0010
0001
0010
,
0100
0000
0100
0000
0101
0000
0000
0000
0001
0100
0001
0100
0001
0100
0001
0100
,
0001
0000
0001
0000
0101
0000
0000
0000
0010
0100
0010
0000
0100
0000
0000
0000
,
1000
0100
1000
0000
1000
0000
0000
0000
0100
0010
0100
0000
0010
0000
0000
0000
,
0001
0010
0001
0000
0001
0000
0000
0000
0010
0100
0010
0000
0100
0000
0000
0000
,
0100
1000
0100
0000
0010
0000
0000
0000
0001
0010
0001
0000
0001
0000
0000
0000
,
0010
0001
0010
0000
0100
0000
0000
0000
1000
0100
1000
0000
0100
0000
0000
0000
,
0100
0010
0100
0000
0010
0000
0000
0000
0001
0010
0001
0000
0010
0000
0000
0000
,
0100
0010
0001
0000
0100
0000
0000
0000
0100
0010
0100
0000
0100
0000
0000
0000
,
1000
0001
0100
0000
0010
0000
0000
0000
0001
0100
0001
0000
0001
0000
0000
0000
,
0010
1000
0100
0000
0010
0000
0000
0000
0000
0000
0000
0000
0000
0000
0000
0000
;
