#VERSION:0.83;
#TITLE:BOOTY ft. Iggy Azalea;
#SUBTITLE:;
#ARTIST:Jennifer Lopez;
#TITLETRANSLIT:;
#SUBTITLETRANSLIT:;
#ARTISTTRANSLIT:;
#GENRE:Pop;
#CREDIT:Wrland;
#MUSIC:BOOTY ft. Iggy Azalea.ogg;
#BANNER:BOOTY ft. Iggy Azalea.png;
#BACKGROUND:BG.png;
#LYRICSPATH:BOOTY ft. Iggy Azalea.lrc;
#PREVIEWVID:preview.mp4;
#CDTITLE:Wrland Season 3 CITYGHT + last one night.png;
#SAMPLESTART:66.976;
#SAMPLELENGTH:12.000;
#SELECTABLE:YES;
#OFFSET:0.001;
#BPMS:0.000=129.000;
#STOPS:188.000=1.860;
#DISPLAYBPM:129.000;
#JACKET:BOOTY ft. Iggy Azalea-jacket.png;
#CDIMAGE:BOOTY ft. Iggy Azalea-cd.png;
#METERTYPE:DDR X;
#BGCHANGES:0.000=BOOTY ft. Iggy Azalea.avi=0.000=0=0=0=StretchNoLoop====,
99999=-nosongbg-=1.000=0=0=0 // don't automatically add -songbackground-
;
#FGCHANGES:;

//--------------- dance-single - Wrland ----------------
#NOTEDATA:;
#STEPSTYPE:dance-single;
#DESCRIPTION:Wrland;
#DIFFICULTY:Beginner;
#METER:2;
#RADARVALUES:0,0,0,0,0;
#NOTES:
0000
0000
0000
0000
,
0000
0000
0000
0000
,
0000
0000
0000
0000
,
0000
0000
0000
0000
,
0000
0000
0000
0000
,
0000
0000
0000
0000
,
0000
0000
0000
0000
,
0000
0000
0000
0000
,
0010
0000
0000
0000
,
0001
0000
0000
0000
,
1000
0000
0000
0000
,
0100
0000
0000
0000
,
1000
0000
0000
0000
,
0100
0000
0000
0000
,
1000
0000
0000
0000
,
0010
0000
0000
0000
,
0001
0000
0000
0000
,
0001
0000
0000
0000
,
1000
0000
0000
0000
,
1000
0000
0000
0000
,
0100
0000
0000
0000
,
0010
0000
0000
0000
,
0001
0000
0000
0000
,
0100
0000
0000
0000
,
1000
0000
0000
0000
,
0100
0000
0000
0000
,
0010
0000
0000
0000
,
0100
0000
0000
0000
,
1000
0000
0000
0000
,
0100
0000
0000
0000
,
0100
0000
0000
0000
,
1000
0000
0000
0000
,
0010
0000
0000
0000
,
0001
0000
0000
0000
,
0100
0000
0000
0000
,
0001
0000
0000
0000
,
0010
0000
0000
0000
,
0100
0000
0000
0000
,
1000
0000
0000
0000
,
0010
0000
0000
0000
,
0100
0000
0000
0000
,
0100
0000
0000
0000
,
0010
0000
0000
0000
,
0010
0000
0000
0000
,
0001
0000
0000
0000
,
1000
0000
0000
0000
,
0001
0000
0000
0000
,
0000
0100
0000
0000
0000
0000
0000
0000
0000
0000
0000
0000
0000
0000
0000
0000
0000
0000
0000
0000
0000
0000
0000
0000
0000
0000
0000
0000
0000
0000
0000
0000
0000
0000
0000
0000
0000
0000
0000
0000
0000
0000
0000
0000
0000
0000
0000
0000
0000
0000
0000
0000
0000
0000
0000
0000
0000
0000
0000
0000
0000
0000
0000
0000
0000
0000
0000
0000
0000
0000
0000
0000
0000
0000
0000
0000
0000
0000
0000
0000
0000
0000
0000
0000
0000
0000
0000
0000
0000
0000
0000
0000
0000
0000
0000
0000
0000
0000
0000
0000
0000
0000
0000
0000
0000
0000
0000
0000
0000
0000
0000
0000
0000
0000
0000
0000
0000
0000
0000
0000
0000
0000
0000
0000
0000
0000
0000
0000
0000
0000
0000
0000
0000
0000
0000
0000
0000
0000
0000
0000
0000
0000
0000
0000
0000
0000
0000
0000
0000
0000
0000
0000
0000
0000
0000
0000
0000
0000
0000
0000
0000
0000
0000
0000
0000
0000
0000
0000
0000
0000
0000
0000
0000
0000
0000
0000
0000
0000
0000
0000
0000
0000
0000
0000
0000
0000
0000
0000
0000
0000
0000
0000
,
0010
0000
0000
0000
,
0100
0000
0000
0000
,
1000
0000
0000
0000
,
0100
0000
0000
0000
,
0010
0000
0000
0000
,
0100
0000
0000
0000
,
0010
0000
0000
0000
,
1000
0000
0000
0000
,
1000
0000
0000
0000
,
0001
0000
0000
0000
,
0001
0000
0000
0000
,
0010
0000
0000
0000
,
0100
0000
0000
0000
,
0100
0000
0000
0000
,
1000
0000
0000
0000
;

//--------------- dance-single - Wrland ----------------
#NOTEDATA:;
#STEPSTYPE:dance-single;
#DESCRIPTION:Wrland;
#DIFFICULTY:Easy;
#METER:4;
#RADARVALUES:0,0,0,0,0;
#NOTES:
0000
0000
0000
0000
,
0000
0000
0000
0000
,
0000
0000
0000
0000
,
0000
0000
0000
0000
,
0000
0000
0000
0000
,
0000
0000
0000
0000
,
0000
0000
0000
0000
,
0000
0000
0000
0000
,
0010
0000
1000
0000
,
0010
0000
0010
0000
,
0100
0000
0010
0000
,
1000
0000
0001
0000
,
0001
0000
1000
0000
,
0001
0000
0100
0000
,
0010
0000
0001
0000
,
0100
0000
0010
0000
,
1000
0000
1000
0000
,
0100
0000
0010
0000
,
0100
0000
0010
0000
,
0001
1000
0001
1000
,
0001
0000
0100
0000
,
0100
0000
1000
0000
,
0100
0000
0010
0000
,
0001
0000
0100
0000
,
0010
0010
0010
0100
,
0110
0000
0000
0001
,
1000
0001
1000
0001
,
1000
1001
0000
1000
,
1000
1000
0100
0100
,
0110
0000
0000
0010
,
0001
0010
0001
0010
,
0001
0011
0000
0000
,
0100
0000
1000
0100
,
1000
0000
0100
0110
,
0010
0000
0001
0010
,
0001
0000
0110
0000
,
0100
0000
0010
0000
0100
0010
0001
0000
,
0100
1000
1100
0000
,
0100
0000
0010
0000
0001
0010
0100
0010
,
0000
0000
0000
0100
0010
0000
0101
0000
,
0010
0000
0010
0000
,
1000
0000
0100
0000
0010
0001
0000
0000
,
0100
0000
0100
0000
,
0001
0000
0000
0000
0100
1000
0000
0000
,
0100
1000
0100
1000
,
0100
0010
0001
0100
,
0010
0000
0100
0000
0010
0100
0010
0100
,
0000
0100
0000
0000
0000
0000
0000
0000
0000
0000
0000
0000
0000
0000
0000
0000
0000
0000
0000
0000
0000
0000
0000
0000
0000
0000
0000
0000
0000
0000
0000
0000
0000
0000
0000
0000
0000
0000
0000
0000
0000
0000
0000
0000
0000
0000
0000
0000
0000
0000
0000
0000
0000
0000
0000
0000
0000
0000
0000
0000
0000
0000
0000
0000
0000
0000
0000
0000
0000
0000
0000
0000
0000
0000
0000
0000
0000
0000
0000
0000
0000
0000
0000
0000
0000
0000
0000
0000
0000
0000
0000
0000
0000
0000
0000
0000
1000
0000
0000
0000
0000
0000
0000
0000
0000
0000
0000
0000
0000
0000
0000
0000
0000
0000
0000
0000
0000
0000
0000
0000
0000
0000
0000
0000
0000
0000
0000
0000
0000
0000
0000
0000
0000
0000
0000
0000
0000
0000
0000
0000
0000
0000
0000
0000
0100
0000
0000
0000
0000
0000
0000
0000
0000
0000
0000
0000
0000
0000
0000
0000
0000
0000
0000
0000
0000
0000
0000
0000
0000
0000
0000
0000
0000
0000
0000
0000
0000
0000
0000
0000
0000
0000
0000
0000
0000
0000
0000
0000
0000
0000
0000
0000
,
1000
0000
0100
0110
,
0010
0000
0001
0010
,
0001
0000
0110
0000
,
0100
0000
0010
0000
0100
0010
0001
0000
,
0100
1000
1100
0000
,
0100
0000
0010
0000
0001
0010
0100
0010
,
0000
0000
0000
0100
0010
0000
0101
0000
,
0100
1000
0100
1000
,
0100
0000
0010
0000
0100
0010
0000
0000
,
0001
0100
0001
0100
,
0001
0000
0100
0000
0001
0100
0000
0000
,
0010
0100
0010
0100
,
1000
0000
0100
0000
1000
0100
0000
0000
,
0100
0010
0001
0100
,
0010
0100
0010
0000
0001
0100
0000
0000
,
0101
0000
0000
0000
;

//--------------- dance-single - Wrland ----------------
#NOTEDATA:;
#STEPSTYPE:dance-single;
#DESCRIPTION:Wrland;
#DIFFICULTY:Medium;
#METER:8;
#RADARVALUES:0,0,0,0,0;
#NOTES:
0000
0000
0000
0000
,
0000
0000
0000
0000
,
0000
0000
0000
0000
,
0000
0000
0000
0000
,
0100
0000
0010
0100
0000
0010
0100
0000
,
0001
0000
0100
0001
0000
0100
0001
0000
,
0010
0000
1000
0010
0000
1000
0010
0000
,
0000
0000
2002
3003
1001
0000
1001
0000
,
0100
0000
0010
0100
0000
0010
0001
0000
,
0100
0000
0010
0100
0000
1000
0100
0000
,
1000
0000
0100
0001
0000
0100
0010
0000
,
0100
0000
0010
0001
0000
0100
0010
0000
,
0100
0000
1000
0100
0000
1000
0100
0000
,
0010
0000
0100
0010
0000
0100
0010
0000
,
0001
0000
0010
0100
0000
0010
0100
0000
,
1000
0000
0100
0001
0100
0001
0100
0000
,
0010
0100
0020
0030
,
1000
0100
2000
3000
,
0100
0010
0001
0100
,
0010
0000
0100
0010
0001
0100
0010
0100
,
1000
0100
0020
0030
,
0100
0010
0002
0003
,
0100
0010
0100
1000
,
0100
0001
0100
0010
,
0100
0000
1000
0100
1000
0000
0100
0001
,
0200
0300
0202
0000
0303
0000
0010
0000
,
0100
0000
0100
0010
0100
0000
0010
0001
,
0200
0300
2200
0000
3300
0000
0010
0000
,
0100
1000
0100
0000
1000
0100
1000
0000
,
0100
0010
0001
0100
0010
0000
0100
0010
,
0001
0000
0100
0000
0010
0100
1000
0100
,
0020
0030
0220
0000
0330
0000
1001
0000
,
0100
0000
1000
0100
0000
0001
0100
0000
,
0010
0000
0100
0010
0000
0001
0100
0000
,
0010
0000
0100
1000
0000
0100
1000
0000
,
0100
0000
0001
0100
0000
0010
0100
0000
,
2000
0000
0100
0000
3002
0100
0010
0000
,
2003
0000
0100
0010
3002
0100
0010
0000
,
2003
0000
0010
0100
3002
0000
0100
0000
,
2003
0000
0000
0100
3020
0000
0031
0000
,
0100
0000
0010
0000
0100
0010
0100
0000
,
0010
0001
0100
0001
0100
0001
0100
0000
,
0010
0000
0100
1000
0000
0100
0010
0000
,
0100
1000
0100
0010
0001
0100
0010
0000
,
0100
0010
0001
0100
0010
1000
0100
0010
,
0001
0100
0010
0100
0010
0100
0010
0000
,
0100
0010
0001
0100
0010
1000
0100
0010
,
0000
0010
0000
0000
0000
0000
0000
0000
0000
0000
0000
0000
0000
0000
0000
0000
0000
0000
0000
0000
0000
0000
0000
0000
0000
0000
0000
0000
0000
0000
0000
0000
0000
0000
0000
0000
0000
0000
0000
0000
0000
0000
0000
0000
0000
0000
0000
0000
0100
0000
0000
0000
0000
0000
0000
0000
0000
0000
0000
0000
0000
0000
0000
0000
0000
0000
0000
0000
0000
0000
0000
0000
0010
0000
0000
0000
0000
0000
0000
0000
0000
0000
0000
0000
0000
0000
0000
0000
0000
0000
0000
0000
0000
0000
0000
0000
0000
0000
0000
0000
0000
0000
0000
0000
0000
0000
0000
0000
0000
0000
0000
0000
0000
0000
0000
0000
0000
0000
0000
0000
0100
0000
0000
0000
0000
0000
0000
0000
0000
0000
0000
0000
0000
0000
0000
0000
0000
0000
0000
0000
0000
0000
0000
0000
0010
0000
0000
0000
0000
0000
0000
0000
0000
0000
0000
0000
0000
0000
0000
0000
0000
0000
0000
0000
0000
0000
0000
0000
0000
0000
0000
0000
0000
0000
0000
0000
0000
0000
0000
0000
0000
0000
0000
0000
0000
0000
0000
0000
0000
0000
0000
0000
,
0001
0000
0100
0001
0000
0010
0110
0000
,
1000
0000
0100
1000
0000
0100
0010
0000
,
0100
0000
0010
0001
0000
0100
1001
0110
,
0200
0000
0010
0001
2300
0100
0010
0000
,
3020
0000
1000
0100
0032
1000
0100
0000
,
2003
0000
0100
0010
3002
0100
0010
0000
,
2003
0000
0000
0100
3020
0000
0031
0000
,
1000
0000
0100
1000
0100
0000
0001
0100
,
0010
0000
0100
0010
0001
0100
0000
0000
,
0010
0000
0100
0010
0001
0000
0100
0010
,
0100
1000
0100
0000
1000
0100
0000
0000
,
1000
0100
0010
0001
0010
0100
1000
0100
,
0010
0001
0010
0100
1000
0100
0010
0000
,
0100
0010
0100
0010
0001
0100
1000
0100
,
0010
0001
0100
0000
0010
0100
0010
0001
;

//--------------- dance-single - Wrland ----------------
#NOTEDATA:;
#STEPSTYPE:dance-single;
#DESCRIPTION:Wrland;
#DIFFICULTY:Hard;
#METER:12;
#RADARVALUES:0,0,0,0,0;
#NOTES:
0000
0000
0000
0000
,
0000
0000
0000
0000
,
M000
0000
0M00
0000
00M0
0M00
00M0
000M
,
00M0
000M
00M0
0000
0M00
M000
0000
0000
,
1000
0000
0000
0010
0100
0000
0010
0000
0100
0010
0100
0000
0010
0000
0001
0000
,
0100
0000
0010
0001
0100
0000
1000
0000
0100
0000
1000
0001
0100
0000
0000
0000
,
0010
0000
0000
0100
0010
0000
0010
0000
0001
0010
0100
0000
0010
0000
0100
0000
,
0010
0100
0010
0100
11MM
0001
0010
0001
MM11
0010
0100
1000
22MM
0000
3300
0000
,
0100
0000
0000
0010
0100
0000
0010
0000
0001
1000
0100
0000
0001
0000
0100
0000
,
0010
0000
0001
0000
0100
0000
0000
0000
0100
0010
0100
0000
0001
0000
0100
0000
,
0001
0000
1000
0000
0001
1000
0001
0000
0100
1000
0100
0000
0010
0000
0100
0000
,
0010
0000
0001
0000
0100
0000
0000
0000
0100
1000
0010
0000
0001
0100
0001
0000
,
0100
0000
0010
1000
0100
0000
0010
0000
0001
0010
0100
0000
0010
0000
0100
0000
,
0010
0000
0001
0000
0100
0001
0100
0000
0010
0000
0100
0000
1000
0100
1000
0000
,
0100
0000
0010
0100
0001
0000
0010
0000
0100
0001
0010
0000
0100
0000
1000
0000
,
0100
0000
0010
0000
0001
0000
0100
0000
0010
0000
0100
0000
2002
0000
0000
3003
,
0100
0000
0000
0010
0000
1000
0000
0001
0000
0010
0000
0001
1000
0000
0100
0000
,
0001
0000
0000
1000
0000
0100
0000
0020
0000
0030
0100
0000
1000
0000
0100
0000
,
0010
0000
0000
0010
0100
0000
0100
0020
0000
0000
0030
0000
0100
0000
1000
0200
,
0000
0000
0300
0000
0010
0000
0100
0010
0000
0100
0000
0010
0000
0100
0000
0010
,
0000
0001
0000
1000
0001
0000
0100
0010
0000
0100
0000
0010
0001
0000
0100
0000
,
0010
0000
0000
0010
1000
0000
0100
0010
0000
0020
0000
0030
0100
0000
0010
0000
,
0001
0000
0100
0000
0001
0000
0100
0002
0000
0000
0003
0000
0010
0100
0000
0020
,
0000
0000
0030
0000
0100
0000
1000
0001
0000
1000
0000
0001
0000
1000
0000
0100
,
0010
0000
0100
0000
0100
0000
0010
0000
0002
0000
0000
0003
0100
0000
0010
0000
,
2000
3000
2200
3300
0100
0010
0001
0100
,
0001
0100
0001
0000
0010
1000
0010
0000
0100
0010
0100
0000
0010
0000
0001
0000
,
1000
0100
0010
0000
0001
0100
0001
0000
0010
0100
0010
0000
0220
0000
0330
0000
,
1000
0000
0100
0000
0020
0000
0030
0000
0001
0000
0100
0000
0020
0030
1000
0000
,
0200
0000
0300
0000
0110
0000
0001
0000
0100
0000
0001
0000
0001
0100
0001
0000
,
0010
1000
0010
0000
0100
0010
0100
0000
1000
0100
1000
0000
0010
0001
0010
0000
,
2002
3003
0100
0000
0010
0000
0100
0010
0100
0000
0010
0000
0100
0000
0010
0000
,
0002
0000
0003
0100
0010
0000
1000
0000
0010
0100
0010
0000
0100
0000
0010
0000
,
0100
0000
0000
0001
0100
0000
0001
0000
0010
0000
0100
0000
1000
0000
0000
0000
,
0100
0000
0000
1000
0100
0000
1000
0000
0100
1000
0100
0000
0010
0000
0100
0000
,
0010
0000
0000
0001
0100
0000
0001
0000
0100
0010
0100
0000
0100
0000
0110
0000
,
0001
0000
0000
0100
1000
0000
0100
0000
0010
0100
0010
0000
0001
0000
0010
0000
,
0010
0000
0000
0100
0010
0000
0100
0000
1000
0100
1000
0000
0110
0000
0000
0000
,
0100
0000
0000
0010
0100
0000
0010
0000
0001
0100
0001
0000
0010
0000
0100
0000
,
0010
0100
0010
1000
0001
0100
0001
0100
0010
1000
0001
0010
0220
0000
0330
0000
,
0101
0000
0000
0010
1100
0000
0010
0000
0100
0000
0010
0000
0110
0000
0000
0000
,
0011
0000
0100
0000
1010
0000
0100
0000
0010
0001
1000
0000
0010
0000
0100
0000
,
0100
0000
0000
0010
0100
0000
0010
0000
0100
0010
0100
0000
0001
0000
0010
0000
,
0101
0000
0000
0010
1100
0000
0010
0000
0100
0010
0100
0000
0010
0000
0001
0000
,
0100
0001
0100
0001
0100
0001
0100
0001
1100
0000
0101
0000
0110
0000
0000
0000
,
1000
0100
1000
0100
1000
0100
1000
0100
1001
0000
0110
0000
0011
0000
0000
0000
,
0100
0010
0001
0010
0100
0010
0001
0010
0100
1000
0100
0010
0001
0010
0100
0010
,
0000
0100
0000
0000
0000
0000
0000
0000
0000
0000
0000
0000
0000
0000
0000
0000
0000
0000
0000
0000
0000
0000
0000
0000
0000
0000
0000
0000
0000
0000
0000
0000
0000
0000
0000
0000
0010
0000
0000
0000
0000
0000
0000
0000
0000
0000
0000
0000
0100
0000
0000
0000
0000
0000
0000
0000
0000
0000
0000
0000
0000
0000
0000
0000
0000
0000
0000
0000
0000
0000
0000
0000
0010
0000
0000
0000
0000
0000
0000
0000
0000
0000
0000
0000
0000
0000
0000
0000
0000
0000
0000
0000
0000
0000
0000
0000
0100
0000
0000
0000
0000
0000
0000
0000
0000
0000
0000
0000
0010
0000
0000
0000
0000
0000
0000
0000
0000
0000
0000
0000
0100
0000
0000
0000
0000
0000
0000
0000
0000
0000
0000
0000
0000
0000
0000
0000
0000
0000
0000
0000
0000
0000
0000
0000
0010
0000
0000
0000
0000
0000
0000
0000
0000
0000
0000
0000
0000
0000
0000
0000
0000
0000
0000
0000
0000
0000
0000
0000
0000
0000
0000
0000
0000
0000
0000
0000
0000
0000
0000
0000
0000
0000
0000
0000
0000
0000
0000
0000
0000
0000
0000
0000
,
0001
0000
0000
0100
0001
0000
0100
0000
0001
0100
0001
0000
0101
0000
0000
0000
,
1000
0000
0000
0100
1000
0000
0100
0000
1000
0100
1000
0000
0100
0000
0000
0000
,
0010
0000
0000
0100
0010
0000
0100
0000
0010
0100
0010
0000
0100
0000
0010
0000
,
0001
0000
0100
0001
0100
0000
0001
0000
0100
0001
0100
0000
0001
0000
0000
0000
,
0001
0010
0100
0010
0001
0000
0010
0000
0100
0010
0100
0000
1000
0000
0000
0000
,
1000
0100
0010
0100
0010
0000
0100
0000
0010
0100
0010
0100
0010
0000
0000
0000
,
0100
0000
0000
0010
0100
0000
0010
0000
0100
0000
0000
0000
0220
0000
0330
0000
,
0001
0000
0000
0010
0100
0000
0010
0000
0010
0100
0010
0000
0100
0000
0010
0000
,
0100
0000
0010
0000
0001
0000
0000
0000
0010
0100
0010
0000
1000
0100
1000
0000
,
0100
0000
0000
0001
0110
0000
1000
0000
0100
1000
0100
0000
0010
0000
0100
0000
,
0010
0000
0001
0000
0100
1000
0001
0000
0001
0100
0010
0100
0010
0000
0000
0000
,
0100
0010
0100
0010
0001
0010
0100
0010
0001
0010
1000
0100
1001
0000
0000
0000
,
0100
1000
0010
0100
0010
0100
0010
0100
0010
0001
0010
0100
1001
0000
0000
0000
,
0100
1000
0001
0100
0010
0100
0010
0001
0010
0100
1000
0010
0110
0000
0000
0000
,
0100
0010
0100
0000
0010
0100
0010
0101
;
