#TITLE:BARBIE GIRL;
#SUBTITLE:;
#ARTIST:AQUA;
#TITLETRANSLIT:;
#SUBTITLETRANSLIT:;
#ARTISTTRANSLIT:;
#GENRE:Eurodance;
#CREDIT:Wrland;
#MUSIC:BARBIE GIRL.ogg;
#BANNER:BARBIE GIRL.png;
#BACKGROUND:BG.png;
#PREVIEWVID:preview.mp4;
#CDTITLE:Wrland Season 3 CITYGHT + last one night.png;
#LYRICSPATH:BARBIE GIRL.lrc;
#SAMPLESTART:26.172;
#SAMPLELENGTH:12.000;
#SELECTABLE:YES;
#OFFSET:-0.000;
#BPMS:0.000=112.000
,4.000=63.000
,5.000=65.000
,20.000=130.000
,36.000=65.000
,38.000=130.000
,266.000=65.000
;
#STOPS:;
#DISPLAYBPM:130.000;
#METERTYPE:DDR X;
#JACKET:BARBIE GIRL-jacket.png;
#CDIMAGE:BARBIE GIRL-cd.png;
#BGCHANGES:0.000=BARBIE GIRL.avi=0.000=0=0=0=StretchNoLoop====,
99999=-nosongbg-=1.000=0=0=0 // don't automatically add -songbackground-
;
#FGCHANGES:;

//--------------- dance-single - Wrland ----------------
#NOTES:
     dance-single:
     Wrland:
     Beginner:
     2:
     0,0,0,0,0:
0000
0000
0000
0000
,
0000
0000
0000
0000
,
0000
0000
0000
0000
,
0000
0000
0000
0000
,
0000
0000
0000
0000
,
1000
0000
0000
0000
,
1000
0000
0000
0000
,
0100
0000
0000
0000
,
1000
0000
0000
0000
,
2002
3003
0001
0000
,
0000
0000
0001
0000
,
0000
0000
0100
0000
,
0000
0000
0010
0000
,
0000
0000
0100
0000
,
0000
0000
1000
0000
,
0000
0000
1000
0000
,
0000
0000
0100
0000
,
0000
0000
0020
0000
,
0030
0000
0100
0000
,
0000
0000
1000
0000
,
0000
0000
0100
0000
,
0000
0000
0010
0000
,
0000
0000
0001
0000
,
0000
0000
1000
0000
,
0000
0000
0100
0000
,
0000
0000
1000
0000
,
0000
0000
0100
0000
,
0000
0000
0010
0000
,
0000
0000
0100
0000
,
0000
0000
0010
0000
,
0000
0000
0100
0000
,
0000
0000
0010
0000
,
0000
0000
0100
0000
,
0000
0000
0010
0000
,
0000
0000
0100
0000
,
0000
0000
1000
0000
,
0000
0000
0100
0000
,
0000
0000
1000
0000
,
0000
0000
0100
0000
,
0000
0000
0010
0000
,
0000
0000
0001
0000
,
0000
0000
1000
0000
,
0000
0000
0100
0000
,
0000
0000
1000
0000
,
0000
0000
0100
0000
,
0000
0000
0010
0000
,
0000
0000
0001
0000
,
0000
0000
0100
0000
,
0000
0000
1000
0000
,
0000
0000
0100
0000
,
0000
0000
0010
0000
,
0000
0000
0100
0000
,
0000
0000
0010
0000
,
0000
0000
0100
0000
,
0000
0000
0010
0000
,
0000
0000
0100
0000
,
0000
0000
0010
0000
,
0000
0000
0100
0000
,
0000
0000
1000
0000
,
0000
0000
0100
0000
,
0000
0000
1000
0000
,
0000
0000
0100
0000
,
0000
0000
0010
0000
,
0000
0000
0100
0000
,
0000
0000
0010
0000
,
0000
0000
0001
0000
,
0000
0000
2000
0000
,
3000
0000
0002
0000
,
0003
0000
0000
0000
;

//--------------- dance-single - Wrland ----------------
#NOTES:
     dance-single:
     Wrland:
     Easy:
     5:
     0,0,0,0,0:
0000
0000
0000
0000
,
0000
0000
0000
0000
,
0000
0000
0000
0000
,
0000
0000
0000
0000
,
0000
0000
0000
0000
,
1000
0000
1000
0000
,
0100
0000
1000
0000
,
0100
0000
0010
0000
,
0100
0000
0010
0000
,
0002
0003
1000
0000
,
1000
0000
0100
0000
,
0010
0000
0100
0000
,
0010
0000
0001
0000
,
0100
0000
1000
0000
,
1000
0000
0100
0000
,
0010
0000
0100
0000
,
0100
0000
1000
0000
,
0100
0000
0020
0000
,
0030
0000
0100
0000
,
0100
0000
1000
0000
,
0100
0000
0010
0000
,
0001
0000
0100
0000
,
0010
0000
0100
0000
,
1000
0000
0100
0000
,
0010
0000
0100
0000
,
0010
0000
0100
0000
,
0010
0000
0001
0000
,
0100
0000
1000
0000
,
0100
0000
0100
0000
,
0010
0000
0010
0000
,
0001
0000
0100
0000
,
0100
0000
1000
0000
,
1000
0000
0100
0000
,
0100
0000
0010
0000
,
0100
0000
0010
0000
,
0100
0000
0010
0000
,
0100
0000
0001
0000
,
0001
0000
0010
0000
,
0100
0000
1000
0000
,
0100
0000
1000
0000
,
0100
0000
1000
0000
,
0100
0000
0010
0000
,
0100
0000
0010
0000
,
0001
0000
0010
0000
,
0100
0000
1000
0000
,
0100
0000
1000
0000
,
0100
0000
0010
0000
,
0001
0000
0010
0000
,
0100
0000
1000
0000
,
0100
0000
1000
0000
,
0100
0000
0001
0000
,
0010
0000
0100
0000
,
1000
0000
0100
0000
,
1000
0000
0100
0000
,
0010
0000
0001
0000
,
0010
0000
0100
0000
,
1000
0000
0100
0000
,
0010
0000
0001
0000
,
0100
0000
1000
0000
,
1000
0000
0010
0000
,
0100
0000
0010
0000
,
0100
0000
0010
0000
,
0001
0000
0100
0000
,
0100
0000
1000
0000
,
0100
0000
0010
0000
,
0100
0000
0010
0000
,
0001
0000
2000
3000
,
0002
0003
2000
3000
,
0002
0003
0000
0000
;

//--------------- dance-single - Wrland ----------------
#NOTES:
     dance-single:
     Wrland:
     Medium:
     8:
     0,0,0,0,0:
0000
0000
0000
0000
,
0000
0000
0000
0000
,
0000
0000
0000
0000
,
0000
0000
0000
0000
,
0000
0000
0000
0000
,
1000
0001
1000
0000
,
0100
1000
0100
0000
,
0100
0010
0001
0000
,
0001
0100
0001
0000
,
1001
0000
1000
0001
1000
0100
1000
0100
,
2000
3000
0100
0000
0010
0100
0010
0100
,
0020
0030
0001
0200
0300
0000
0001
0000
,
0010
0100
0010
0001
,
0010
0000
0100
0000
0100
0010
0001
0100
,
0020
0000
0030
0000
1000
0100
1000
0100
,
2000
3000
0100
0020
0030
0001
0100
0010
,
0200
0300
0020
0030
0001
0100
0001
0100
,
0002
0003
0200
0000
0300
0000
0000
0000
,
0000
0010
0100
0020
0030
0001
0100
0020
,
0030
1000
0100
2000
3000
0100
0000
2000
,
3000
0100
1000
0100
0000
0100
0010
0002
,
0003
0100
0010
0200
0000
1300
0010
0001
,
0000
0010
0100
0020
0030
0001
0100
0020
,
0030
0100
0010
0200
0300
1000
0100
2000
,
3000
0100
0010
0002
0003
0100
0010
0002
,
0003
1000
0100
0020
0030
0100
0000
0010
,
0000
0100
0010
0001
0200
0300
0010
0000
,
0010
0100
1000
1000
,
0100
1000
0100
2000
3000
0000
0100
0010
,
0200
0300
0020
0030
0002
0003
0200
0300
,
0010
0100
0010
0001
0200
0300
0001
0000
,
0001
0000
0100
0000
0010
0000
0100
0010
,
0000
0001
0100
0020
0030
0100
0000
1000
,
0200
0300
2000
3000
0200
0300
0020
0030
,
0101
0101
0101
0000
0010
0100
0010
0000
,
0100
0010
0100
0000
1100
0000
0110
0000
,
0022
0000
0033
0000
0001
0100
0001
0000
,
0010
0100
0010
0000
0000
0100
0100
0100
,
0000
0010
0010
0010
0001
0100
0001
0000
,
0010
0100
0010
0000
0011
0000
0110
0000
,
2200
0000
3300
0000
0100
1000
0100
0000
,
1000
0100
0010
0001
0000
0100
0010
0100
,
0001
0010
0001
0010
0100
0000
1000
0100
,
2000
3000
0100
0000
0001
0100
0001
0000
,
0200
0300
0010
0200
0300
0000
0100
0010
,
0002
0003
0200
0300
0010
0000
0010
0100
,
0020
0030
0200
0300
0010
0000
0100
1000
,
0000
0100
1000
0000
0100
0000
0010
0001
,
0200
0300
0010
0100
0000
0100
0010
0001
,
0200
0300
0020
0030
0100
0010
0001
0100
,
0020
0030
0200
0300
1000
0100
1000
0100
,
2000
3000
0200
0300
0010
0001
0100
0010
,
0200
0300
0010
0200
0300
0000
1000
0100
,
2000
3000
0200
0300
0010
0000
0001
0100
,
0020
0030
0200
0300
0100
0010
0001
0100
,
0020
0030
0100
0010
0002
0003
0100
0000
,
0010
0000
0100
0010
0000
0100
0010
0001
,
0200
0300
0020
0030
0100
0010
0100
1000
,
0200
0300
2000
3000
1000
0100
1000
0000
,
0100
0010
0001
0000
0101
0000
0110
0000
,
2200
0000
3300
0000
0100
0000
0010
0001
,
0000
0100
0010
0000
0000
1000
0100
1000
,
0000
0100
0010
0100
1100
0000
0010
0100
,
0010
0001
0101
0110
,
2200
0000
3300
0000
0010
0001
0100
0000
,
0010
0100
0010
0001
0000
0100
0010
1000
,
0000
0100
0001
1000
2000
3000
0002
0003
,
2000
3000
0002
0003
2000
3000
0002
0003
,
2000
3000
0002
0000
0003
0000
0000
0000
;

//--------------- dance-single - Wrland ----------------
#NOTES:
     dance-single:
     Wrland:
     Hard:
     11:
     0,0,0,0,0:
0000
0000
0000
0000
,
0000
0000
0000
0000
,
0000
0000
0000
0000
,
1000
0100
1000
0100
2000
0000
3000
0000
0100
0010
0001
0100
0002
0003
0100
0002
,
0003
0000
0001
0100
0002
0003
0202
0000
0303
0000
0010
0100
0020
0030
2020
3030
,
1000
0100
0010
0001
0200
0000
0300
0010
,
0100
0010
0001
0100
0020
0030
0100
0020
,
0030
1000
0100
1000
0200
0300
2000
3000
,
0100
0010
0001
0100
0020
0030
0200
0300
,
1001
1000
0100
0001
0100
0010
0100
0010
0100
0000
0010
0000
0001
0000
0100
0000
,
0020
0030
0220
0330
1000
0100
0010
0001
,
0200
0300
1000
0200
0000
0300
1000
0100
,
0020
0030
0220
0330
0001
0000
0100
0010
,
0002
0003
0202
0303
0001
0100
0001
0100
,
0002
0000
0003
0010
0100
1000
0100
0010
,
2000
3000
0100
2000
3000
0100
0010
0001
,
0200
0300
0020
0030
1000
0100
0010
0001
,
0200
0000
0300
0000
0002
0000
0003
0000
0100
0000
0000
0010
0000
0000
0001
0000
,
0000
0100
0010
0100
0010
0001
0100
0001
,
0100
1000
0100
2000
3000
0100
1000
0200
,
0300
0010
0100
0020
0030
0001
0100
0002
,
0003
0000
0010
0000
0100
0000
0010
0000
0001
0000
0100
0000
0001
0100
0001
0000
,
0010
0100
0010
2000
3000
0100
1000
0200
,
0300
0100
0010
0200
0300
0010
0001
0200
,
0300
0010
0100
0020
0030
0100
1000
0200
,
0300
0010
0001
0100
0010
0100
1000
0100
,
1000
0100
1000
0100
0010
0000
0001
0000
0200
0000
0300
0000
0010
0000
0100
0000
,
0000
0010
0001
0200
0300
0010
0100
1000
,
0100
1000
0100
0000
0010
0000
0001
0000
0100
0000
0010
0000
0100
0000
0010
0000
,
0002
0003
0100
1000
0100
1000
0100
0010
,
0001
0100
0001
0200
0300
0010
0100
0010
,
0000
0100
1000
0200
0300
1000
0100
1000
,
0000
0100
0010
0020
0030
0100
0010
0001
,
0200
0300
0010
0100
0010
0001
0100
0010
,
1000
0010
0100
0000
1000
0000
0100
0000
0100
0000
0010
0000
0100
0000
0010
0000
,
0001
0100
0001
0100
0101
0000
0101
0000
,
1010
0000
1010
0000
0100
0010
0001
0100
,
0010
1000
0100
1000
0000
1000
0100
1000
,
0000
0100
1000
0100
0010
0100
0010
0001
,
1000
0100
0010
0001
1100
0000
0110
0000
,
0101
0000
0110
0000
0010
0001
0100
0010
,
0100
1000
0100
0010
0000
0001
0010
0001
,
0000
0010
0001
0010
0001
0100
0010
0100
,
2000
0000
3000
0000
1100
0010
0100
0000
0010
0000
0100
0000
0010
0000
0010
0000
,
0200
0300
0010
0002
0000
0003
0001
0100
,
0020
0030
0220
0330
1000
0100
1000
0100
,
2000
3000
0220
0330
0001
0010
0100
0010
,
2000
3000
0000
1000
0100
1000
0100
0010
,
0002
0003
0100
0020
0030
0100
0010
0001
,
0200
0300
0202
0303
0010
1000
0100
1000
,
0200
0300
0020
0030
1000
0100
0010
0001
,
0200
0300
0020
0030
0100
0010
0001
0100
,
0002
0003
0100
2200
0000
3300
0100
0010
,
0002
0003
0202
0303
0010
0000
0100
0010
,
0002
0003
2200
3300
0100
0010
0001
0100
,
0002
0000
0003
0100
0010
0100
1000
0100
,
0020
0030
0001
0200
0300
0001
0100
0001
,
0200
0300
0002
0003
0010
1000
0010
1000
,
0020
0030
2000
3000
1000
0100
0010
0001
,
0100
0001
1000
0010
1010
0000
0101
0000
,
1010
0000
0101
0000
0010
0100
0001
1000
,
0010
0100
0001
0100
0000
0010
0100
0010
,
0000
0100
0010
0100
0010
0100
0001
1000
,
0010
0100
0001
1000
0101
0000
1100
0000
,
0011
0000
0110
0000
0100
0010
0001
0100
,
0010
1000
0100
0010
0000
0100
1000
0100
,
0000
0010
0100
0010
0002
0000
2003
0000
,
3002
2003
3200
0320
,
0230
0320
0000
0000
,
0030
0000
0000
0000
;
