#TITLE:BÉSAME;
#SUBTITLE:;
#ARTIST:Gian Marco;
#TITLETRANSLIT:;
#SUBTITLETRANSLIT:;
#ARTISTTRANSLIT:;
#GENRE:Latin;
#CREDIT:Wrland;
#MUSIC:BESAME.ogg;
#BANNER:BESAME.png;
#BACKGROUND:BG.png;
#CDTITLE:Wrland Season 3 CITYGHT + last one night.png;
#LYRICSPATH:BESAME.lrc;
#SAMPLESTART:89.539;
#SAMPLELENGTH:12.000;
#SELECTABLE:YES;
#OFFSET:-0.170;
#BPMS:0.000=96.006
,78.000=48.003
,79.000=96.006
,135.000=48.003
,137.000=96.006
,197.000=48.003
,199.000=192.012
,200.000=127.006
,201.000=204.012
,202.000=361.012
,203.000=90.253
;
#STOPS:;
#DISPLAYBPM:96.000;
#JACKET:BESAME-jacket.png;
#CDIMAGE:BESAME-cd.png;
#PREVIEWVID:preview.mp4;
#METERTYPE:DDR X;
#BGCHANGES:0.000=BESAME.avi=1.000=0=0=0=StretchNoLoop====,
99999.000=-nosongbg-=1.000=0=0=0=StretchNoLoop====
;
#FGCHANGES:;

//--------------- dance-single - Wrland ----------------
#NOTES:
     dance-single:
     Wrland:
     Beginner:
     1:
     0,0,0,0,0:
0000
0000
0000
0000
,
0000
0000
0000
0000
,
0000
0000
0000
0000
,
0000
0000
0000
0000
,
0100
0000
0000
0000
,
0000
0000
0000
0000
,
0100
0000
0000
0000
,
0000
0000
0000
0000
,
1000
0000
0000
0000
,
0000
0000
0000
0000
,
1000
0000
0000
0000
,
0000
0000
0000
0000
,
0001
0000
0000
0000
,
0000
0000
0000
0000
,
0010
0000
0000
0000
,
0000
0000
0000
0000
,
0100
0000
0000
0000
,
0000
0000
0000
0000
,
1000
0000
0000
0000
,
0000
0000
0000
0000
2002
3003
0100
0000
,
0000
0000
0000
0000
,
0000
0000
0000
0010
,
0000
0000
0000
0000
,
0000
0000
0000
0100
,
0000
0000
0000
0000
,
0000
0000
0000
1000
,
0000
0000
0000
0000
,
0000
0000
0000
0100
,
0000
0000
0000
0000
,
0000
0000
0000
0010
,
0000
0000
0000
0000
,
0000
0000
0000
0001
,
0000
0000
0000
0000
,
0000
0000
0000
0000
0000
0000
2002
3003
,
0000
0000
0000
0000
,
0000
0100
0000
0000
,
0000
0000
0000
0000
,
0000
0010
0000
0000
,
0000
0000
0000
0000
,
0000
0100
0000
0000
,
0000
0000
0000
0000
,
0000
1000
0000
0000
,
0000
0000
0000
0000
,
0000
1100
0000
0000
,
0000
0000
0000
0000
,
0000
0011
0000
0000
,
0000
0000
0000
0000
,
0000
1001
0000
0000
,
0000
0000
0000
0000
,
0000
0110
0000
0000
,
0000
0000
0000
1001
;

//--------------- dance-single - Wrland ----------------
#NOTES:
     dance-single:
     Wrland:
     Easy:
     3:
     0,0,0,0,0:
0000
0000
0000
0000
,
0000
0000
0000
0000
,
0000
0000
0000
0000
,
0000
0000
0000
0000
,
0100
0000
0000
0000
,
1000
0000
0000
0000
,
1000
0000
0000
0000
,
0100
0000
0000
0000
,
0010
0000
0000
0000
,
0001
0000
0000
0000
,
0001
0000
0000
0000
,
0010
0000
0000
0000
,
0100
0000
0000
0000
,
0010
0000
0000
0000
,
0100
0000
0000
0000
,
0010
0000
0000
0000
,
0001
0000
0000
0000
,
1000
0000
0000
0000
,
0001
0000
0000
0000
,
1000
0000
0000
0000
1001
1001
1001
0000
,
0000
0000
0000
0100
,
0000
0000
0000
0010
,
0000
0000
0000
0100
,
0100
0010
0010
0001
,
0000
0000
0000
0001
,
0000
0000
0000
0010
,
0000
0000
0000
0100
,
0010
1000
1000
1000
,
0000
0000
0000
0100
,
0000
0000
0000
0010
,
0000
0000
0000
0001
,
0010
0001
0010
0100
,
0000
0000
0000
1000
,
0000
0000
0000
0200
,
0300
0000
0010
0000
0100
0000
0010
0001
,
0100
1000
0000
0000
,
0000
1000
0000
0000
,
0000
0100
0000
0000
,
0000
0100
0000
0000
,
0000
0010
0000
0000
,
0000
0001
0000
0000
,
0000
0010
0000
0000
,
0000
0100
0000
0000
,
0000
1000
0000
0000
,
0000
1000
0000
0000
,
0000
0100
0000
0000
,
0000
0010
0100
0010
,
0100
0010
0000
0000
,
0000
0001
0000
0000
,
0000
0010
0000
1001
,
0000
0000
0000
0110
;

//--------------- dance-single - Wrland ----------------
#NOTES:
     dance-single:
     Wrland:
     Medium:
     5:
     0,0,0,0,0:
0000
0000
0000
0000
,
0000
0000
0000
0000
,
0000
0000
0000
0000
,
0000
0000
0000
0000
,
0100
0010
0001
0010
,
0100
1000
0100
1000
,
0100
0010
0100
0010
,
0001
0100
0001
0100
0010
1000
0010
1000
,
1000
1000
0100
1000
,
0100
0010
0001
0100
,
0010
0001
0010
0100
,
0010
0100
0010
0100
0001
1000
0001
1000
,
1000
1000
0100
0100
,
1000
1000
0100
0100
,
0010
0010
0001
0001
,
0010
0010
0001
0001
0010
0010
0001
0001
,
0010
0100
1000
0100
,
1000
0100
0010
0001
,
0100
0010
0100
1000
,
2002
0000
0000
0000
3003
0000
0000
0000
1000
0100
0010
0000
0100
0000
0000
0010
,
0100
0000
0000
0001
0100
0000
0000
0010
0100
0000
0000
1000
0100
0000
0000
1000
,
0100
0000
0000
0010
0002
0000
0000
0000
0003
0000
0000
0000
0100
0000
0010
0000
,
0100
1000
0100
0010
0001
0100
0010
0100
,
0010
0100
0010
0000
0001
0000
0100
0000
0001
0100
0001
0000
0010
0000
0000
1000
,
0100
0000
0000
1000
0100
0000
0000
0010
0100
0000
0000
0010
0100
0000
0000
0001
,
0100
0000
0000
0001
0200
0000
0000
0000
0300
0000
0000
0000
0010
0000
0100
0000
,
0010
0100
1000
0100
1000
0100
0010
0001
,
0100
0001
0100
0000
0010
0000
1000
0000
0010
1000
0010
0000
0100
0000
0000
0010
,
0100
0000
0000
0010
0001
0000
0000
0100
0010
0000
0000
0100
1000
0000
0000
0100
,
1000
0000
0000
0010
0200
0000
0000
0000
0300
0000
0000
0000
0100
0000
0001
0000
,
1000
0001
0100
0010
1000
0010
0100
0010
,
0010
0010
0010
0000
0100
0000
0100
0000
0100
0100
0100
0000
0010
0000
0000
0100
,
0010
0000
0000
0100
0001
0000
0000
1000
0010
0000
0000
0100
0001
0000
0000
0010
,
0001
0000
0000
0100
0002
0000
0000
0000
0003
0000
0000
0000
2002
0000
0000
0000
,
3003
0000
0000
0000
1000
0000
0002
0000
0000
0000
0003
0000
1000
0001
1000
0001
,
1000
0100
0010
0100
,
0010
0001
0010
0100
,
1000
0100
1000
0100
,
0010
0000
0000
0000
0001
0000
0100
0000
0001
0100
0001
0000
0010
0000
1000
0000
,
0010
1000
0010
0000
0100
0000
0000
0000
1000
0000
0000
0000
0100
0000
0000
0000
,
0010
0100
0010
0001
,
0100
0010
0100
1000
,
0100
0000
0000
0000
1000
0000
0100
0000
1000
0100
1000
0000
0010
0000
0100
0000
,
0010
0100
0010
0000
0001
0000
0000
0100
0001
0000
0000
0010
0100
0000
0000
1000
,
0100
0000
0000
0100
0010
0000
0000
0001
0100
0000
0000
0010
0200
0000
0000
0000
,
0300
0000
0010
0100
0010
0001
0100
0010
,
1000
0000
0100
0000
1000
0000
0100
0000
1000
0100
1000
0000
0100
0000
0010
0000
,
0100
0010
0100
0000
0010
0000
0000
0001
0010
0000
0000
0001
0010
0000
0000
0010
,
0100
0000
0000
0001
0100
0000
0000
0010
1000
0000
0000
0100
2000
0000
0000
0000
,
3000
0000
0000
0000
2002
0000
0000
0000
3003
0000
0000
0000
1100
0000
0000
0110
,
0000
0110
1001
1001
;

//--------------- dance-single - Wrland ----------------
#NOTES:
     dance-single:
     Wrland:
     Hard:
     10:
     0,0,0,0,0:
0000
0000
0000
0000
,
0000
0000
0000
0000
,
0000
0000
0000
0000
,
0000
0000
0000
0000
,
0100
0000
0000
0010
0100
0000
0010
0000
0001
0000
0000
0001
0100
0000
0010
0000
,
1000
0000
0000
0100
1000
0000
0100
0000
0010
0000
0000
0001
0100
0000
0010
0000
,
0100
0000
0000
0010
0100
0000
1000
0000
0100
0000
0000
1000
0100
0000
1000
0000
,
1000
0000
0100
0000
1000
0100
1000
0000
0100
0000
0010
0000
0100
0010
0100
0000
,
0010
0000
0000
0001
0100
0000
0001
0000
0010
0000
0000
0010
1000
0000
0010
0000
,
0100
0000
0000
0001
0100
0000
0010
0000
0100
0000
0000
0010
0100
0000
0010
0000
,
0100
0000
0000
0100
1000
0000
0100
0000
0100
0000
0000
0010
0100
0000
0001
0000
,
0100
0000
0001
0000
0100
0001
0100
0000
0001
0000
0010
0000
0001
0010
0001
0000
,
0001
0000
0000
0100
0001
0000
0100
0000
0010
0000
0000
0010
0100
0000
0010
0000
,
0100
0000
0000
0010
1000
0000
0010
0000
0100
0000
0000
0100
1000
0000
0100
0000
,
1000
0000
0000
1000
0100
0000
0010
0000
0001
0000
0000
0001
0010
0000
0100
0000
,
1000
0000
0100
0000
0010
0001
0010
0000
0100
0000
1000
0000
0100
0010
0001
0000
,
0010
0000
0000
0100
0010
0000
0001
0000
0100
0000
0000
0010
0100
0000
1000
0000
,
0100
0000
0000
0010
0100
0000
0010
0000
0100
0000
0000
0001
1000
0000
0001
0000
,
1000
0000
0000
0100
1000
0000
0100
0000
0010
0000
0000
0100
0010
0000
0001
0000
,
1001
0000
0000
0000
1001
0000
0000
0000
0110
0000
0110
0000
0110
0000
0000
0000
0100
0010
0100
1000
0100
0000
0010
0100
0002
0000
0000
0000
0003
0000
1000
0000
,
0200
0000
0300
0010
0200
0000
0300
0001
0200
0000
0300
0010
2000
0000
3000
0100
,
2000
0000
3000
0100
0020
0000
0030
0000
0010
0100
0010
0000
0000
0010
0100
0010
,
0100
0020
0030
0200
0300
2000
3000
0200
0300
0020
0030
0002
0003
0010
0001
1000
,
0010
0100
0010
0001
0100
0010
1000
0100
0010
1000
0100
0000
0002
0000
0003
0010
,
0200
0000
0300
1000
0200
0000
0300
0001
0200
0000
0300
0010
0200
0000
0300
0001
,
0200
0000
0300
0010
2000
0000
3000
0000
0100
0010
0001
0000
1000
0000
0100
0010
,
0001
2000
3000
0020
0030
0200
0300
2000
3000
0100
0020
0030
2000
3000
0100
0000
,
0010
0001
0100
0000
0010
0000
0100
0000
1000
0100
1000
0000
2000
0000
3000
0100
,
2000
0000
3000
0100
0020
0000
0030
0001
0200
0000
0300
0010
0200
0000
0300
0100
,
0020
0000
0030
0001
0200
0000
0300
0000
0010
1000
0010
0000
0000
0010
0100
0010
,
0100
0020
0030
0002
0003
0200
0300
2000
3000
0200
0300
2000
3000
0200
0300
0000
,
0010
0100
0010
0000
0000
0000
0000
0000
1000
0100
1000
0000
0100
0000
0000
1000
,
0200
0000
0300
0001
0200
0000
0300
0010
0200
0000
0300
1000
0200
0000
0300
0010
,
0200
0000
0300
0001
0200
0000
0300
0000
0010
0100
0010
0000
4004
0000
0000
0000
,
0000
0000
0000
3003
2002
0000
0000
3003
0220
0000
0000
0330
1000
0100
0010
0001
,
0010
1000
0100
0010
0200
0300
0020
0030
0001
1000
0100
0001
0020
0000
0030
2000
,
3000
0200
0300
1000
0200
0000
0300
0000
0200
0300
0020
0030
0002
0000
0003
0000
,
0020
0030
0200
0300
0020
0030
0001
0100
0001
0200
0300
0020
0030
2000
3000
0200
,
0300
2000
3000
0200
0300
0020
0030
0000
0100
0010
0200
0300
2000
3000
0200
0300
,
1000
0100
1000
0010
0200
0000
0300
0010
0100
0010
1000
0100
0020
0000
0030
0100
,
0002
0000
0003
1000
0002
0000
0003
0100
0020
0000
0030
1000
0200
0000
0300
0010
,
0002
0000
0003
0000
0000
0010
0000
0100
0010
0200
0300
2000
3000
0200
0300
0020
,
0030
0001
0100
0000
0002
0003
1000
0000
0100
1000
0200
0300
0020
0030
0002
0003
,
0100
0010
0100
0000
2200
0000
3300
0110
0220
0000
0330
0011
0022
0000
0033
0110
,
0220
0000
0330
1100
2200
0000
3300
0110
0220
0000
0330
1001
2002
0000
3003
0000
,
0010
0100
0010
0000
1000
0000
0100
1000
0100
2000
3000
0020
0030
0200
0300
0020
,
0030
0002
0003
0200
0300
0020
0030
0000
0100
0010
0100
0000
1000
0000
0100
0000
,
0010
0100
0010
0000
2020
0000
3030
1010
2020
0000
3030
0101
0202
0000
0303
0110
,
0220
0000
0330
1001
2002
0000
3003
1100
2200
0000
3300
0110
0220
0000
0330
0000
,
1000
0000
0100
0000
0010
0000
0000
0000
0100
0000
0010
0100
0010
0002
0003
0200
0300
2000
3000
0200
0300
0010
0002
0003
1010
0000
0000
0000
0000
0000
0000
0000
,
0101
0110
1001
1MM1
;
