#TITLE:Asphalt Crack;
#SUBTITLE:;
#ARTIST:āˆ€Sāˆ€;
#TITLETRANSLIT:;
#SUBTITLETRANSLIT:;
#ARTISTTRANSLIT:ASA;
#GENRE:Rave;
#CREDIT:Wrland;
#MUSIC:Asphalt Crack.ogg;
#BANNER:Asphalt Crack.png;
#BACKGROUND:BG.png;
#PREVIEWVID:preview.mp4;
#CDTITLE:Wrland Season 3 CITYGHT + last one night.png;
#SAMPLESTART:97.834;
#SAMPLELENGTH:12.000;
#SELECTABLE:YES;
#OFFSET:0.000;
#BPMS:0.000=157.000;
#STOPS:188.000=1.146;
#DISPLAYBPM:157.000;
#METERTYPE:DDR X;
#JACKET:Asphalt Crack-jacket.png;
#CDIMAGE:Asphalt Crack-cd.png;
#BGCHANGES:0.000=Asphalt Crack.avi=0.000=0=0=0=StretchNoLoop====,
99999.000=-nosongbg-=1.000=0=0=0=StretchNoLoop====
;
#FGCHANGES:;

//--------------- dance-single - Wrland ----------------
#NOTES:
     dance-single:
     Wrland:
     Beginner:
     2:
     0,0,0,0,0:
0000
0000
0000
0000
,
0000
0000
0000
0000
,
0000
0000
0000
0000
,
0000
0000
0000
0000
,
0100
0000
0100
0000
,
0010
0000
0010
0000
,
0001
0000
0001
0000
,
2002
0000
3003
0000
,
1000
0000
0100
0000
,
1000
0000
0100
0000
,
0010
0000
0001
0000
,
0010
0000
0100
0000
,
1000
0000
0100
0000
,
1000
0000
0100
0000
,
0010
0000
0001
0000
,
0100
0000
0010
0000
,
0100
0000
0100
0000
,
1000
0000
1000
0000
,
0100
0000
0100
0000
,
0010
0000
0001
0000
,
0010
0000
0100
0000
,
1000
0000
0100
0000
,
1000
0000
0100
0000
,
0010
0000
0001
0000
,
1001
0000
1000
0000
,
1001
0000
0001
0000
,
0110
0000
0100
0000
,
0110
0000
0010
0000
,
0011
0000
0010
0000
,
0011
0000
0001
0000
,
1001
0000
1000
0000
,
1100
0000
0100
0000
,
0200
0000
0000
0000
,
0000
0300
0000
0000
,
0200
0000
0000
0000
,
0000
0000
0300
0000
,
0200
0000
0000
0000
,
0000
0000
0300
0000
,
0002
0000
0000
0000
,
0000
0000
0003
0000
,
0100
0000
0100
0000
,
1000
0000
1000
0000
,
0100
0000
0100
0000
,
0010
0000
0010
0000
,
0001
0000
0001
0000
,
1000
0000
1000
0000
,
0001
0000
0001
0000
,
0000
1000
0000
0100
,
0000
1000
0000
0100
,
0000
0010
0000
0100
,
0000
0010
0000
0001
,
0000
0100
0000
0010
,
0000
0100
0000
0010
,
0000
0001
0000
0001
,
0000
1000
0000
1000
,
0000
0100
0000
0100
,
0000
1000
0000
1000
,
0000
0100
0000
0100
,
0000
0010
0000
0010
,
0000
0001
0000
0001
,
0000
1000
0000
1000
,
0000
0100
0000
0100
,
0000
0020
0000
0000
,
0030
0110
0000
0100
,
0000
1000
0000
0100
,
0000
0010
0000
0001
,
0000
0010
0000
0100
,
0000
1001
0110
0000
,
0100
0000
1000
0000
,
0100
0000
0010
0000
,
0100
0020
0000
0030
,
1000
0001
0000
0000
0000
0000
0000
0000
;

//--------------- dance-single - Wrland ----------------
#NOTES:
     dance-single:
     Wrland:
     Easy:
     6:
     0,0,0,0,0:
0000
0000
0000
0000
,
0000
0000
0000
0000
,
0000
0000
0000
0000
,
0000
0000
0000
0000
,
0100
0010
0100
0000
,
0010
0001
0010
0000
,
1000
0100
1000
0000
,
0200
0000
0300
0000
,
0100
1000
0100
0000
,
0010
0100
0010
0000
,
0100
0000
0100
0100
0000
0000
0000
0000
,
0010
0000
0010
0010
0000
0000
0000
0000
,
0001
0010
0100
0000
,
1000
0100
1000
0000
,
0100
0000
0010
0100
0000
0000
0000
0000
,
0001
0000
0100
0001
0000
0000
0000
0000
,
0010
0100
0010
0001
,
0100
0001
0100
0000
0101
0000
0000
0000
,
0010
0100
1000
0100
,
1000
0100
1000
0000
1100
0000
0000
0000
,
0100
0010
0001
0100
,
0010
0000
0100
0010
0000
0000
0101
0000
,
0100
0010
1000
0100
,
1000
0000
0100
1000
0000
0000
1100
0000
,
0100
0010
0100
0010
,
0001
0100
0001
0000
,
0010
0100
1000
0100
,
1000
0100
0010
0000
,
0100
0010
0001
0100
,
0010
0100
1000
0000
,
0100
1000
0100
0010
,
0001
0100
0010
0000
,
0220
0000
0000
0000
,
0330
0000
0000
0000
,
2002
0000
0000
0000
,
3003
0000
0000
0000
,
2200
0000
0000
0000
,
0000
3300
0000
0000
,
0220
0000
0000
0000
,
0000
0000
0330
0000
,
0100
0000
0100
0000
,
0010
0000
0010
0000
,
0001
0000
0001
0000
,
0100
0000
0100
0000
,
1000
0000
1000
0000
,
0100
0000
0100
0000
,
0010
0100
0020
0000
,
0030
0100
1000
0100
,
0000
0010
0001
0010
,
0000
0100
0010
0100
,
0000
0000
1000
0000
0001
1000
0001
0000
,
0000
0100
1000
0100
,
0000
0010
0001
0010
,
0000
0000
0100
0000
0010
0100
0010
0000
,
0000
0000
0001
0000
0100
0001
0100
0000
,
1001
0100
1000
0100
,
0000
0010
0100
0010
,
0000
0000
0001
0100
0001
0100
0001
0000
,
0000
0000
0010
0100
0010
0100
0010
0000
,
0000
1000
1001
0100
,
0110
0010
0011
0100
,
0110
0000
0100
1000
0000
0100
0010
0000
,
0001
0200
0000
0310
,
0000
1001
0100
1000
,
0100
0010
0001
0100
,
0000
0010
0100
0010
,
0001
0100
0010
0100
,
0000
1001
0100
0010
,
0100
1000
0100
0010
,
0001
0100
0010
0100
,
0010
0200
0000
0300
,
0100
0010
0000
0000
0000
0000
0000
0000
;

//--------------- dance-single - Wrland ----------------
#NOTES:
     dance-single:
     Wrland:
     Medium:
     8:
     0,0,0,0,0:
0000
0000
0000
0000
,
0000
0000
0000
0000
,
0000
0000
0000
0000
,
0000
0000
0000
0000
,
0100
0010
0100
0010
,
0001
0100
0010
0100
,
1000
0100
0010
0001
0100
0010
0100
1000
,
0200
0000
0000
0300
,
0100
0000
0010
0100
0010
0000
0001
0000
,
0100
0000
0010
0100
0010
0000
0001
0000
,
1000
0000
0100
1000
0100
0000
0100
0000
,
0010
0000
0001
0100
0001
0000
0010
0000
,
0100
0000
1000
0100
1000
0000
0100
0000
,
0010
0000
0001
0100
0001
0000
0010
0000
,
0100
0000
0010
0100
0010
0000
0001
0000
,
0100
0000
0010
0100
0000
1000
0100
0000
,
1000
0100
0010
0001
,
0100
0000
0001
0100
0000
0010
0100
0000
,
1000
0100
0010
0100
,
0010
0000
0001
0100
0000
0010
0100
0000
,
0010
0100
1000
0100
,
1000
0000
0100
1000
0000
0100
0010
0000
,
0100
0010
0001
0100
,
0001
0000
0100
0010
0000
0100
0010
0000
,
0010
0100
1000
0100
,
1000
0100
0010
0001
,
0100
0001
0100
0001
,
0010
0000
0100
0010
0000
0100
0010
0000
,
0001
0100
1000
0100
,
1000
0000
0100
1000
0000
0100
0010
0000
,
0100
0010
0001
0100
,
0001
0000
0100
0001
0000
0100
0001
0000
,
0020
0000
0230
0000
,
2300
0000
3200
0000
,
2300
0000
3200
0000
,
0320
0000
0130
0100
,
0020
0000
0032
0000
,
0023
0000
0032
0000
,
0203
0000
2300
0000
,
3100
0000
0001
0000
1000
0001
1000
0000
,
0100
1000
0100
0000
,
0010
0001
0010
0000
,
0100
0010
0100
0000
,
0100
0000
1000
0100
1000
0000
0000
0000
,
0100
0000
0010
0001
0100
0000
0000
0000
,
0010
0000
0001
0100
0001
0000
0000
0000
,
0010
0000
0100
0000
0010
0000
0001
0100
,
0000
0000
0100
0000
1000
0100
0000
0010
,
1000
0000
0100
0000
0010
0001
0100
0000
,
0010
0000
0100
0000
1000
0100
0000
0100
,
0010
0000
0001
0000
0100
0010
0000
0100
,
1000
0100
0010
0001
,
0100
0010
0100
1000
,
0100
0000
1000
0100
1000
0000
0100
0010
,
0001
0000
0100
0001
0100
0010
1000
0000
,
0100
0001
1001
0100
,
1100
0100
0110
0010
,
0011
0000
0100
0000
0010
0100
0000
0100
,
1000
0000
0100
0000
0010
0001
0000
0100
,
0010
1000
1100
0100
,
0110
0010
0011
0001
,
0101
0000
0001
0100
0001
0000
0010
1000
,
0010
0000
0100
0000
0010
0000
0001
0100
,
0001
0000
1001
0000
0100
0000
1000
0100
,
1000
0000
0100
0000
0010
0100
0000
0010
,
0001
0000
0100
0000
0010
0100
0000
0010
,
0001
0000
0100
0000
1000
0100
0000
0100
,
0010
0000
0000
0000
0110
0000
0010
0001
,
0100
0000
1000
0000
0100
1000
0000
0100
,
0010
0000
0001
0000
0100
0001
0000
0010
,
0100
0000
0010
0000
0100
0010
0000
0001
,
0100
1000
0000
0000
0000
0000
0000
0000
;

//--------------- dance-single - Wrland ----------------
#NOTES:
     dance-single:
     Wrland:
     Hard:
     12:
     0,0,0,0,0:
0000
0000
0000
0000
,
0000
0000
0000
0000
,
0000
0000
0000
0000
,
0000
0000
0000
0000
,
1000
0000
0001
0000
1000
0000
0100
0000
1000
0100
0010
0000
0100
0000
0000
0000
,
0010
0000
0100
0000
0010
0000
0001
0000
0100
0001
0100
0000
0001
0000
0000
0000
,
0100
0010
0100
0010
0001
0100
0010
1000
,
0100
0000
0010
0001
0010
0000
0100
0000
1100
0000
0100
0000
0010
0000
0000
0000
,
0100
0010
0100
0010
0001
0100
0010
0000
,
0100
1000
0100
0010
0001
0100
0001
0000
,
0100
0001
0100
0010
0100
0010
0100
0000
,
0010
0001
0100
0000
0010
0100
1000
0100
,
1001
0000
0100
0010
0001
0000
0100
0000
0010
0000
0100
0000
0010
0000
0000
0000
,
1000
0000
0100
1000
0010
0000
0100
0000
0010
0000
0100
0000
0010
0000
0000
0000
,
0001
0000
0100
0010
0001
0000
0100
0000
1000
0000
0100
0000
1000
0000
0000
0000
,
0100
0000
0010
0100
0010
0000
0001
0000
0100
0000
0001
0000
0100
0000
0000
0000
,
1000
0100
1000
0100
0010
0001
0010
0100
,
0010
0000
1000
0100
0000
1000
0100
0000
,
0010
0100
0010
0001
0010
0100
1000
0100
,
0100
0000
1000
0100
0000
0010
0100
0000
,
0010
0100
0010
0001
0100
0001
0100
0001
,
0010
0000
0010
0100
0000
1000
0100
0000
,
1000
0100
0010
0001
0100
0010
1000
0100
,
0010
0000
0000
0000
0000
0000
0100
0000
0000
0010
0000
0000
0001
0000
0001
0000
0001
0000
1001
0000
1001
0000
1001
0000
,
1001
0100
0010
0100
0010
0001
0100
0010
,
1000
0100
0010
0001
0100
0001
0100
0000
,
0010
0100
0010
0001
0100
0010
0100
0010
,
0001
1000
0100
1000
0100
0010
0100
0000
,
0010
0000
0100
0000
0010
0000
0001
0000
0100
0000
0010
0000
0100
0001
0010
1000
,
0001
1000
0100
1000
0100
0010
0100
0000
,
0010
0100
0010
0001
0100
0010
1000
0100
,
0010
0001
0100
0010
1000
0100
0020
0030
,
0001
0000
0100
0001
0000
0100
0001
0000
,
0200
0300
0010
0100
0000
1000
0100
0000
,
0020
0030
0100
0010
0000
0001
0100
0000
,
0020
0030
1000
0100
0000
1000
0100
0000
,
0020
0030
0100
0010
0000
0001
0100
0000
,
0020
0030
0100
0010
0000
0001
0100
0000
,
0020
0030
0100
1000
0000
0100
1000
0000
,
0100
0000
0000
0000
0010
0000
0100
0000
0010
0001
0010
1000
0001
0100
0010
0100
,
0010
0011
0010
0110
,
1000
1100
0100
0110
,
0010
0011
0001
0101
,
0010
0110
1000
1100
,
0110
0000
1001
0000
0110
0000
1001
0010
,
1100
0000
0110
0000
0011
0000
0010
0100
,
0010
0001
0010
0100
1000
0100
0010
0001
0010
0100
1000
0100
0010
0001
0010
0100
,
0010
0000
1000
0000
0001
1000
0001
0000
,
0100
0000
1000
0000
0100
1000
0100
0000
,
0010
0000
0100
0000
0010
0001
0100
0000
,
0010
0000
0100
0000
1000
0100
1000
0000
,
0100
0000
0010
0000
0001
0100
0001
0000
,
0010
0000
0100
0000
0010
0001
0100
0000
,
0010
0000
0100
0000
1000
0100
1000
0000
,
0100
0000
0000
0000
0010
0000
0000
0001
0000
0000
0100
0000
0010
0000
0000
0000
,
0100
0000
1000
0000
0100
1000
0100
0000
,
0010
0000
0001
0000
0100
0001
0100
0000
,
0010
0000
0100
0000
1000
0100
1000
0000
,
0100
0000
0010
0001
0100
0001
0100
0001
,
0100
0000
0010
0000
0100
1000
0100
0000
,
0110
0000
0001
0000
0100
0010
1000
0000
,
1100
0000
0100
0010
0001
0100
0010
0100
,
1000
0010
0100
0001
0010
0000
0000
0000
0010
0000
0100
0000
0010
0000
0000
0000
,
0110
0001
0010
0100
0110
0000
0000
0000
1000
0000
0100
0000
1000
0000
0000
0000
,
0100
0010
0001
0000
0100
0010
0001
0000
,
0100
0010
0001
0000
0100
1000
0100
0000
,
0010
0100
0010
0000
0001
0100
0001
0000
,
0010
1000
0101
0000
1010
0000
0100
0010
,
0001
0000
0100
0000
0010
0100
0000
0010
,
0001
0000
0100
0000
1000
0100
0000
0010
,
0001
0000
0000
0000
0100
0000
0000
0010
0100
0000
0010
0000
0000
1000
0001
0100
,
0010
0100
0000
0000
0000
0000
0000
0000
;
