#TITLE:Amnolys;
#SUBTITLE:;
#ARTIST:onoken;
#TITLETRANSLIT:;
#SUBTITLETRANSLIT:;
#ARTISTTRANSLIT:;
#GENRE:BEMANI;
#CREDIT:Wrland;
#MUSIC:Amnolys.ogg;
#BANNER:Amnolys.png;
#BACKGROUND:BG.png;
#PREVIEWVID:preview.mp4;
#CDTITLE:Wrland Season 3 CITYGHT + last one night.png;
#SAMPLESTART:12.000;
#SAMPLELENGTH:15.000;
#SELECTABLE:YES;
#OFFSET:0.000;
#BPMS:0.000=70.000
,41.000=22.500
,42.000=45.000
,43.000=90.000
,45.000=180.000
,109.000=90.000
,117.000=180.000
,173.000=90.000
,177.000=180.000
,247.000=90.000
;
#STOPS:;
#DISPLAYBPM:70.000:180.000;
#JACKET:Amnolys-jacket.png;
#CDIMAGE:Amnolys-cd.png;
#METERTYPE:DDR X;
#BGCHANGES:0.000=Amnolys.avi=0.000=0=0=0=StretchNoLoop====,
99999=-nosongbg-=1.000=0=0=0 // don't automatically add -songbackground-
;
#FGCHANGES:;

//--------------- dance-single - Wrland ----------------
#NOTES:
     dance-single:
     Wrland:
     Beginner:
     5:
     0,0,0,0,0:
0000
0000
0000
0000
,
0000
0000
0000
0000
,
0000
0000
0000
0000
,
0000
0000
1000
0000
,
1000
0000
0001
0000
,
0001
0000
1000
0000
,
1000
0000
0100
0110
,
0010
0011
0100
0000
,
1000
0000
0100
0000
,
0010
0000
0001
0000
,
0000
2002
0000
0000
,
3003
1000
0000
0000
,
0000
1000
0000
0000
,
0000
0100
0000
0000
,
0000
0010
0000
0000
0000
0000
0000
0000
,
0000
0100
0000
0000
0000
0000
0000
0000
,
0000
0010
0000
0000
,
0000
0001
0000
0000
,
0000
1000
0000
0000
,
0000
0100
0000
0000
,
0000
0100
0000
0000
,
0000
0010
0000
0000
,
0000
0001
0000
0000
,
0000
1000
0000
0000
,
0000
0100
0000
0000
,
0000
0010
0000
0000
,
0000
0100
0000
0000
,
0000
0020
0000
0000
,
0030
0200
0000
0000
,
0300
1000
0000
0000
,
0000
1000
0000
0000
,
0000
0100
0000
0000
,
0000
1000
0000
0000
,
0000
0100
0000
0000
,
0000
0010
0000
0000
,
0000
0001
0000
0000
,
0000
0010
0000
0000
,
0000
0100
0000
0000
,
0000
1000
0000
0000
,
0000
0100
0000
0000
,
0000
0010
0000
0000
,
0000
0100
0000
0000
,
0000
1000
0000
0000
,
0000
0200
0000
0000
,
0300
0100
0000
0000
,
0000
0010
0000
0000
,
0000
0001
0000
0000
,
0000
1000
0000
0000
,
0000
0100
0000
0000
,
0000
1000
0000
0100
,
0000
0000
0010
0000
1000
0100
0000
0000
,
0000
0010
0000
0000
,
0000
0100
0000
0001
,
0000
1000
0001
1000
,
0000
0000
0000
0100
,
0000
0000
0000
0010
,
0000
0000
0000
0001
,
0000
0000
0000
0100
,
0000
0000
0000
0010
,
0000
0000
0000
0100
,
0000
0000
0000
0010
,
0000
0000
0000
0220
,
0000
0000
0000
0000
,
0000
0000
0330
1001
;

//--------------- dance-single - Wrland ----------------
#NOTES:
     dance-single:
     Wrland:
     Easy:
     8:
     0,0,0,0,0:
0000
0000
0000
0000
,
0000
0000
0000
0000
,
0000
0000
0000
0000
,
0000
0000
0000
0000
0100
0000
0100
1000
,
0100
1000
0100
0010
,
0001
0010
0001
0000
0100
0000
0100
0000
,
1000
0000
0100
0000
1000
0100
0110
0001
,
0101
0000
0000
0000
1010
0000
0000
0000
0100
0000
0000
0000
0000
0010
0100
0000
,
0001
0000
0000
0000
0000
0010
0100
0000
1000
0000
0000
0000
0000
1000
0100
0000
,
0001
0000
0000
0000
0000
0100
0010
0000
0110
0000
0000
0000
0000
0000
1001
0000
,
0000
0220
0000
0000
,
0330
1000
0000
0100
,
0000
0010
0000
0100
,
0000
0000
0010
0000
0001
0000
0100
0010
,
0000
0100
0000
0000
0000
1000
0000
0100
,
0000
0010
0000
0000
0000
0000
0100
0000
,
0010
0001
0000
0010
,
0000
0100
0000
1000
,
0000
0100
0000
0010
,
0000
0100
0000
1000
,
0000
1000
1000
1000
,
0000
0001
0000
0001
,
0000
0001
0001
0001
,
0000
0100
0000
1000
,
0000
0100
0010
0100
,
0000
0010
0000
0001
,
0000
0100
0010
0001
,
0000
2000
0000
0000
,
3000
0002
0000
0000
,
0003
0100
0000
0010
,
0000
0100
0000
0010
,
0000
0001
0000
1000
,
0000
0100
0000
1000
,
0000
0100
0000
0010
,
0000
0100
0000
0010
,
0000
0001
0000
0100
,
0000
1000
0000
0100
,
0000
0010
0000
0100
,
0000
0010
0000
0001
,
0000
0100
0000
1000
,
0000
0100
0000
0010
,
0000
0100
0000
1000
,
0000
0100
0000
0010
,
0000
0202
0303
2020
,
3030
0100
0000
1000
,
0000
0100
0000
1000
,
0000
0100
0000
0010
,
0000
0001
0000
0100
,
0000
0010
0000
0100
,
0000
0010
0000
0001
,
0000
0000
1000
0000
0010
0100
0000
0000
,
0010
1000
0010
0100
,
1000
0010
0100
0010
,
0001
0100
0010
0100
,
0000
1000
0000
0100
,
0000
1000
0100
0100
,
0000
0010
0000
0100
,
0000
0010
0000
0001
,
0000
0100
0000
1000
,
0000
0100
0000
0110
,
0000
0001
0000
1000
,
0000
1100
0000
0220
,
0000
0000
0000
0000
,
0000
0000
0330
1001
;

//--------------- dance-single - Wrland ----------------
#NOTES:
     dance-single:
     Wrland:
     Medium:
     10:
     0,0,0,0,0:
0000
0000
0000
0000
,
0000
0000
0000
0000
,
0000
0000
0000
0000
,
0000
0000
0000
0000
0000
0000
0000
0000
1000
0000
0001
1000
0002
0003
1000
0000
,
0100
0000
1000
0100
2000
3000
0100
0000
0010
0000
0100
0000
0010
0000
0000
0000
,
0001
0000
0100
0000
0010
0000
0000
0000
0100
0000
1000
0100
2000
3000
0010
0000
,
0100
0000
0010
0100
0020
0030
0001
0000
0202
0000
0303
0000
2020
0000
3030
0000
,
0101
0000
0110
0000
1100
0000
0110
0000
0002
0000
0000
0000
0003
1000
0100
0000
,
0200
0000
0000
0300
0000
1000
0100
0000
0002
0000
0000
0003
0000
0010
0100
0000
,
0020
0000
0000
0030
0000
0100
0010
0000
0002
0000
0000
0000
0003
0000
2002
0000
,
0000
3003
2020
0000
0000
0000
0000
0000
,
3030
0100
0010
0100
,
0010
0001
0100
0010
,
0100
0000
1000
0000
0100
0000
1000
0100
,
0000
0010
0000
0001
0000
0100
0000
0010
,
0000
0100
0000
0010
0001
0000
0010
0000
,
0100
1000
0100
1000
,
0100
0010
0001
0100
,
0010
0100
1000
0100
,
0010
0000
0001
0000
0100
0001
0100
0000
,
0010
0100
0010
0000
1000
0100
1000
0000
,
0100
0000
0001
0000
0100
0001
0100
0000
,
0010
0100
0010
0000
0001
0000
0101
0000
,
1000
0100
1000
0100
,
1000
0100
0010
0100
,
0010
0000
0001
0000
1000
0100
1000
0000
,
0100
0010
0001
0000
0010
0100
0010
0000
,
0001
2002
3003
2200
,
3300
0220
0330
0022
,
0033
1001
1000
0100
,
0010
0001
0100
0020
,
0030
0100
0010
0001
,
0100
0010
1000
0200
,
0300
1000
0100
1000
,
0100
0001
0100
0020
,
0030
0100
0010
0001
,
0100
0010
0100
0020
,
0030
0001
0100
0001
,
0100
0010
1000
0020
,
0030
0100
1000
0100
,
0010
0001
0100
0020
,
0030
0100
1000
0100
,
0010
0001
0100
0010
,
0100
0020
0030
0200
,
0300
1000
0100
1000
,
0100
0010
0001
0100
,
0001
0000
0100
0001
0100
0000
0010
0100
,
0010
1000
0100
1000
,
0100
0010
0001
0100
,
0010
0100
0010
0002
,
0003
0000
0010
0000
1000
0010
0000
0100
,
0010
0001
0100
0100
,
0010
0001
0100
0010
,
0100
1000
0100
0010
,
0001
0100
0010
0100
,
1000
0100
0010
1001
,
0100
0010
0001
0100
,
0010
0100
0010
0001
,
0100
0001
0100
0010
,
0100
0010
0001
0101
,
0010
0110
0100
1100
,
0100
0110
0001
0202
,
0000
0000
0000
0000
,
0000
0000
0303
1001
;

//--------------- dance-single - Wrland ----------------
#NOTES:
     dance-single:
     Wrland:
     Hard:
     12:
     0,0,0,0,0:
0000
0000
0000
0000
,
0000
0000
0000
0000
,
0000
0000
0000
0000
,
0000
0000
0000
0000
0000
0000
0000
0000
2000
3000
0100
1000
0200
0300
0010
0100
,
0020
0030
0001
0100
0002
0003
0020
0030
0110
0000
1001
0000
0100
1000
0200
0300
,
0002
0003
0100
0010
0200
0300
0010
0000
0002
0003
0101
0000
0020
0030
0110
0000
,
2000
0000
0000
3000
0000
0000
1100
0000
0000
0000
0000
0000
0200
0000
0000
0300
0000
0000
0110
0000
0000
0000
0000
0000
0202
0000
0000
0000
0000
0000
0000
0000
0000
0303
0000
0000
1000
0000
0001
0000
1010
0000
0220
0000
0000
0330
0000
0000
,
0101
0000
0000
0000
0000
0000
0000
0000
0010
0000
0000
0000
2002
0000
0000
0000
0000
0000
3003
0000
0100
0000
0000
0000
2020
0000
0000
0000
0000
0000
3030
0000
0100
0000
0000
0000
0220
0000
0000
0000
0000
0000
0330
0000
0000
0000
0000
0000
0011
0000
0000
0000
0000
0000
0000
0000
0000
1100
0000
0000
0000
0000
0000
0000
0000
0000
1010
0000
0000
0000
0000
0000
0000
0000
0000
0000
0000
0000
1000
0000
0000
0000
0000
0000
0100
0000
0000
0000
0000
0000
0000
0000
0000
0000
0000
0000
,
0101
0000
0000
1001
0000
0000
0101
0000
0000
0000
0010
0000
0100
0000
0000
0000
0101
0000
0000
1010
0000
0000
0011
0000
0000
0000
0100
0000
0010
0000
0000
0000
,
0101
0000
0000
1010
0000
0000
0110
0000
0000
0000
1000
0000
0100
0000
0000
0000
1010
0000
0000
0011
0000
0000
0101
0000
0000
0000
0000
0000
1010
0000
0000
0101
,
0000
1010
0000
0000
2002
0000
0000
0000
0000
0000
0000
0000
0000
0000
0000
0000
,
3003
0000
0100
0000
0010
0000
0100
0010
,
0001
0000
0010
0000
0100
0000
0001
1000
,
0001
0000
0100
0000
0010
0000
0100
0010
,
0000
0001
0000
0100
0010
0100
0000
0010
,
0000
1001
0000
0100
0010
0000
0100
0010
,
0001
0000
0010
0000
1000
0100
1000
0000
,
0100
0000
0001
0000
0100
0000
0001
0100
,
0010
1000
0010
0100
0010
0001
0100
0010
,
0100
0000
0010
0000
0100
0010
0001
0000
,
0001
0100
0001
0000
0010
1000
0010
0000
,
0100
1000
0202
0303
,
2200
3300
0110
0101
,
0110
0000
1000
0000
0100
0010
0100
0000
,
0010
0000
0000
0000
0000
0000
0001
0000
0000
0000
0000
0000
0100
0000
0000
0001
0000
0000
0100
0000
0000
0000
0010
0000
,
0000
1000
0000
0010
0000
0000
0100
0000
0000
0010
0000
0000
,
0100
0010
0001
0000
0010
0100
0010
0000
,
0100
0000
2002
0000
3003
0000
2000
3000
,
0200
0000
0300
0000
1000
0000
0100
0000
0010
0000
0001
0100
0001
0000
0010
0000
,
0200
0300
1000
0100
0020
0030
0100
0000
,
0010
0000
0001
0000
0100
0000
0010
0001
,
0100
1000
0200
0300
0010
0000
0100
0001
,
0010
1000
0200
0300
0020
0030
0100
0010
,
0001
0100
0010
1000
0200
0300
0020
0030
,
0200
0300
0020
0030
0001
0100
0001
1000
,
0010
0001
0200
0300
2000
3000
0200
0300
,
0020
0030
0002
0003
0100
0000
0010
0100
,
0010
0000
0001
1000
0200
0300
0020
0030
,
2000
3000
0200
0300
0010
0001
0100
1000
,
0010
0001
0200
0300
0020
0030
0100
0001
,
0010
1000
0200
0300
0020
0030
0200
0300
,
0020
0030
0001
0000
0100
0000
0010
0100
,
0020
0030
0200
0300
2000
3000
0200
0300
,
0001
0000
2002
0000
3000
0003
2000
3000
,
0200
0300
0200
0300
0020
0030
0200
0300
,
0020
0030
0001
0000
0100
0001
0200
0300
,
0020
0030
1000
0000
0100
1000
0200
0300
,
0200
0300
0010
0000
0001
0100
0002
0003
,
0200
0300
0020
0030
0100
0000
0010
0100
,
0020
0030
0002
0003
0200
0300
2002
0000
,
3003
0000
0010
0000
0100
0001
0000
1000
,
0100
0001
0020
0030
0200
0300
0020
0030
,
0002
0003
0200
0300
2000
3000
0200
0300
,
2000
3000
0200
0300
0020
0030
0002
0003
,
0020
0030
0100
0010
0002
0003
0200
0300
,
2000
3000
0200
0300
1000
0000
0202
0303
,
2002
3003
0200
0300
0020
0030
2200
3300
,
0220
0330
0002
0003
0200
0300
0220
0330
,
2200
3300
0020
0030
0002
0003
0200
0300
,
0010
0100
0010
0001
0100
0010
2002
3003
,
1001
0000
2200
3300
0110
0000
0202
0303
,
1001
0000
0220
0330
1001
0000
2002
0000
,
0000
0000
0000
0000
,
0000
0000
3003
1001
;

//--------------- dance-single - Wrland ----------------
#NOTES:
     dance-single:
     Wrland:
     Challenge:
     14:
     0,0,0,0,0:
0000
0000
0000
0000
,
0000
0000
0000
0000
,
0000
0000
0000
0000
,
0000
0000
0000
0000
0000
0000
0000
0000
0000
0000
0000
0000
0400
0000
0000
0000
0000
0000
0300
0000
0000
0000
0000
0000
0020
0000
0000
0030
0000
0000
0100
0000
0000
0010
0000
0000
0002
0000
0000
0003
0000
0000
1000
0000
0100
0000
0010
0000
,
0002
0000
0000
0003
0000
0000
0100
0000
0010
0000
1000
0000
0200
0000
0000
0300
0000
0000
0010
0000
0100
0000
0001
0000
0200
0000
0000
0300
0000
0000
0020
0000
0000
0030
0000
0000
1000
0000
0000
0000
0100
0000
2000
0000
0000
3000
0000
0000
,
0100
0000
0000
0000
0001
0000
0100
0000
0000
0000
0010
0000
0100
0000
0001
0000
0010
0000
1000
0000
0010
0000
0100
0000
2000
0000
0000
3000
0000
0000
0001
0000
0100
0000
0001
0000
0200
0000
0000
0300
0000
0000
0010
0000
0100
0000
0010
0000
,
0200
0000
0000
0300
0000
0000
1000
0000
0100
0000
0010
0000
0200
0000
0000
0300
0000
0000
2002
0000
0000
3003
0000
0000
0100
0000
0000
0000
0000
0000
2120
0000
0000
3030
0000
0000
0100
0000
0010
0000
0100
0000
0212
0000
0000
0303
0000
0000
,
2200
0000
0000
0000
0000
0000
3300
0000
0010
0000
0000
0000
0202
0000
0000
0000
0000
0000
0303
0000
0100
0000
0000
0000
2020
0000
0000
0000
0000
0000
3030
0000
0010
0000
0000
0000
2002
0000
0000
0000
0000
0000
3003
0000
0000
0000
0000
0000
0101
0000
0000
0000
0000
0000
0000
0000
0000
0101
0000
0000
0000
0000
0000
0000
0000
0000
0101
0000
0000
0000
0000
0000
0000
0000
0000
0000
0000
0000
0010
0000
0000
0000
0000
0000
0100
0000
0000
0000
0000
0000
0000
0000
0000
0000
0000
0000
,
1100
0000
0000
1100
0000
0000
1100
0000
0000
0000
0100
0000
0010
0000
0000
0000
0110
0000
0000
0110
0000
0000
0110
0000
0000
0000
0001
0000
0100
0000
0000
0000
,
0101
0000
0000
0101
0000
0000
0101
0000
0000
0000
0010
0000
0100
0000
0000
0000
1001
0000
0000
0110
0000
0000
1001
0000
0000
0000
0000
0000
1100
0000
0000
0101
,
0000
0101
0000
0000
21M2
0000
0000
3003
0200
0300
0020
0030
0100
0000
0010
0000
,
2002
0000
0000
3003
0100
0000
1000
0000
0100
0000
0010
0000
0001
0000
0010
0000
,
0100
0010
0001
0010
0100
1000
0100
0010
,
0001
0000
1000
0000
0100
0000
0010
0000
0001
0000
0010
0000
0200
0000
0000
0300
0000
0000
1000
0000
0000
0100
0000
0000
,
0000
0000
0110
0000
0010
0001
0010
0100
1000
0100
2002
0000
3003
0000
0220
0000
,
0330
2002
3003
0100
0020
0030
0001
1000
,
0100
0010
0002
0003
2000
3000
0200
0300
,
2000
0000
3000
0000
0200
0000
0300
0000
0002
0000
0003
0000
0100
0010
0100
0010
,
0001
0010
0100
1000
0200
0000
0300
0000
0010
0000
0100
0000
0001
0010
0100
0000
,
0100
0010
0200
0300
0010
0100
0020
0030
,
0001
0100
0002
0003
1000
0100
2000
3000
,
0100
0001
0010
0000
2002
3003
0100
0000
,
0220
0330
0001
0000
0202
0303
0010
0000
,
2020
3030
0100
0001
0010
1000
0100
0001
,
0010
0000
0000
0100
0000
0000
0002
0000
0000
0003
0000
0000
0020
0000
0000
0030
0000
0000
0100
0000
0000
0000
0010
0000
,
0000
0000
0001
0000
0000
0000
0200
0000
0000
0300
0000
0000
0010
0000
0000
1000
0000
0000
0110
0000
0000
0010
0000
0000
,
0001
0000
0010
0000
1001
0010
0100
0010
1000
0100
0010
0001
0100
0010
0001
0010
,
0100
0001
0010
0001
0100
1000
0010
0100
0010
0001
0100
0010
0001
0001
1000
0100
,
0010
0100
0010
0001
0100
0010
0001
1000
0100
0010
0001
1000
0001
0100
0010
0001
,
0100
0010
0100
0001
1001
0000
0100
0000
0020
0000
0030
0000
0002
0000
0003
0000
,
0200
0300
0020
0030
1000
0100
1000
0001
,
0100
0010
0200
0300
0010
0100
0010
1000
,
0001
0100
0022
0033
0202
0303
2200
3300
,
0100
0010
0001
1000
0200
0300
0020
0030
,
0001
0100
0001
0010
1000
0100
0010
0001
,
0100
0010
2000
3000
0100
1000
0100
0010
,
0001
0100
0020
0030
0001
0100
0020
1030
,
0100
0010
0001
0100
0002
0003
0020
0030
,
0200
0300
2000
3000
0100
0010
0001
0010
,
1000
0100
0020
0030
0100
0010
0001
1000
,
0100
0010
0002
0003
2200
3300
0220
0000
,
0330
0000
0000
0101
0000
0000
0010
0100
0010
0100
0001
0010
,
0001
0000
0000
1100
0000
0000
0110
0001
1000
0110
0000
0000
,
0011
0100
0010
44MM
0000
0000
0000
0000
0000
0000
0000
0000
,
3300
0000
0100
0010
0100
0010
0002
0003
,
0200
0000
0300
0000
1000
0000
0100
0000
0010
0000
0001
0000
0100
0001
0010
0000
,
1000
0100
0020
0030
0001
0100
0020
0030
,
2000
0000
3000
0000
0100
0000
0010
0000
0001
0000
0100
0000
0010
0001
1000
0000
,
0100
0010
0002
0003
0200
0300
0010
0100
,
2000
3000
0200
0300
0020
0030
0202
0000
,
0303
0000
0010
0000
0100
0010
0000
0100
,
0010
0000
2000
3000
0100
0010
0002
0003
,
0020
0030
0200
0300
2000
3000
0200
0300
,
0020
0000
0000
0030
0000
0000
0001
0000
0000
0000
1000
0000
0000
0000
0100
0000
0000
0000
0020
0000
0000
0030
0000
0000
,
0200
0300
0010
0000
0100
0001
0200
0300
,
1000
0000
0100
0001
0110
0000
2020
3030
,
0010
0001
0001
0010
1000
0100
1000
0010
,
0100
0100
1000
0010
0100
0010
0001
0100
,
0010
0000
1000
0000
0100
0000
0010
0000
0001
0000
0100
0000
0010
0001
1000
0010
,
0100
1000
0010
0100
0001
0010
0010
0001
0100
0001
0010
0100
1010
0000
0100
0000
,
0011
0100
1010
0010
0101
1000
1010
0100
,
0101
0000
0010
0000
1001
0100
0010
0100
1001
0010
0100
0001
4M14
0000
0000
0000
,
0000
0000
0000
0000
,
0000
0000
3003
1001
;
