#VERSION:0.83;
#TITLE:Algo de Ti;
#SUBTITLE:;
#ARTIST:Paulina Rubio;
#TITLETRANSLIT:;
#SUBTITLETRANSLIT:;
#ARTISTTRANSLIT:;
#GENRE:Latin;
#CREDIT:Wrland;
#MUSIC:Algo de Ti.ogg;
#BANNER:Algo de Ti.png;
#BACKGROUND:BG.png;
#CDTITLE:Wrland Season 3 CITYGHT.png;
#SAMPLESTART:53.332;
#SAMPLELENGTH:12.000;
#SELECTABLE:YES;
#OFFSET:0.001;
#BPMS:0.000=117.000
,234.000=58.500
;
#STOPS:;
#DISPLAYBPM:58.000:117.000;
#JACKET:Algo de Ti-jacket.png;
#CDIMAGE:Algo de Ti-cd.png;
#BGCHANGES:0.000=Algo de Ti.avi=1.000=0=0=0=StretchNoLoop====,
99999.000=-nosongbg-=1.000=0=0=0=StretchNoLoop====
;
#FGCHANGES:;

//--------------- dance-single - Wrland ----------------
#NOTEDATA:;
#STEPSTYPE:dance-single;
#DESCRIPTION:Wrland;
#DIFFICULTY:Beginner;
#METER:2;
#RADARVALUES:0,0,0,0,0;
#NOTES:
0000
0000
0000
0000
,
0000
0000
0000
0000
,
0000
0000
0000
0000
,
0000
0000
0000
0000
,
0000
0000
0000
0000
,
0000
0000
0000
0000
,
0000
0000
0000
0000
,
0000
0000
0000
0000
,
0000
0000
0000
0000
,
0000
0000
0000
0000
,
0000
0000
0100
0000
,
0000
0000
0000
0000
,
0000
0100
0000
0000
,
0000
0000
0000
0000
,
0000
0010
0000
0000
,
0000
0000
0000
0000
,
0000
0000
0001
0000
,
0000
0000
1000
0000
,
0000
0000
0100
0000
,
0000
0000
0000
0000
,
0100
0000
0010
0000
,
0000
0000
0000
0000
,
0001
0000
1000
0000
,
0000
0000
0000
0000
,
1000
0000
0100
0000
,
0000
0000
0000
0000
,
0000
0000
0100
0000
,
0000
0000
0000
0000
,
0000
0000
0100
0000
,
0000
0000
0000
0000
,
0000
0000
0010
0000
,
0000
0000
0000
0000
,
0000
0000
0100
0000
,
0000
0000
0000
0000
,
0000
0000
0010
0000
,
0000
0000
0000
0000
,
0000
0000
0001
0000
,
0000
0000
0000
0000
,
0000
0000
1000
0000
,
0000
0000
0000
0000
,
0000
0000
0100
0000
,
0000
0000
0000
0000
,
0000
0000
0001
0000
,
0000
0000
0000
0000
,
0000
0000
0010
0000
,
0000
0000
0000
0000
,
0000
0000
0100
0000
,
0000
0000
0000
0000
,
0000
0000
1000
0000
,
0000
0000
0000
0000
,
0000
0000
0100
0000
,
0000
0000
0000
0000
,
0000
0000
1000
0000
,
0000
0000
0000
0000
,
0000
0000
0010
0000
,
0000
0000
0000
0000
,
0000
0000
0001
0000
,
0000
0000
0000
0000
,
0000
0000
2000
0000
,
0000
3000
0002
0000
,
0000
0003
0200
0000
,
0000
0300
0020
0000
,
0000
0030
0200
0000
,
0000
0300
0000
0000
;

//--------------- dance-single - Wrland ----------------
#NOTEDATA:;
#STEPSTYPE:dance-single;
#DESCRIPTION:Wrland;
#DIFFICULTY:Easy;
#METER:4;
#RADARVALUES:0,0,0,0,0;
#NOTES:
0000
0000
0000
0000
,
0000
0000
0000
0000
,
0000
0000
0000
0000
,
0000
0000
0000
0000
,
0000
0000
0000
0000
,
0000
0000
0000
0000
,
0000
0000
0000
0000
,
0000
0000
0000
0000
,
0000
0000
0000
0000
,
0000
0000
0000
0000
,
0000
0000
1000
0000
,
1000
0000
1000
0000
,
0100
0110
0001
0000
,
0001
0000
0001
0000
,
0010
0110
0100
0000
,
1000
0000
0100
0000
,
1000
0000
1000
0100
,
0010
0000
0001
0010
,
0100
0000
0100
0000
,
0100
0000
0010
0000
,
0110
0000
0001
0000
,
0001
0000
1000
0000
,
1001
0000
0100
0000
,
1000
0000
0100
0000
,
0110
0000
0010
0001
,
0010
0000
0100
1000
,
0100
0000
1000
0000
,
1000
0000
1000
0100
,
0010
0000
0001
0000
,
0001
0000
0001
0010
,
0100
0000
0100
0000
,
0100
0000
0010
0100
,
0010
0000
0001
0000
,
1000
0000
1000
0001
,
1000
0000
0100
0000
,
1000
0000
0100
1000
,
0100
0000
0010
0000
,
0001
0000
0010
0001
,
0010
0000
0100
0000
,
1000
0000
0100
1000
,
0100
0000
0010
0000
,
0100
0000
0100
0010
,
0001
0000
0001
0000
,
0010
0000
0100
1000
,
0100
0000
1000
0000
,
0100
0000
0010
0100
,
0010
0000
0001
0000
,
0100
0000
1000
0100
,
1000
0000
0100
0000
,
0010
0000
0100
0010
,
0001
0000
0010
0000
,
0100
0000
1000
0100
,
1000
0000
0100
0000
,
0010
0000
0001
0100
,
0001
0000
0010
0000
,
0100
0000
1000
0100
,
1000
0000
0100
0000
,
0110
0000
0000
0000
,
0000
0000
2000
0000
,
3001
0000
0002
0000
,
1003
0000
0200
0000
,
0310
0000
0020
0000
,
0031
0000
0002
0000
,
1003
0000
0000
0000
;

//--------------- dance-single - Wrland ----------------
#NOTEDATA:;
#STEPSTYPE:dance-single;
#DESCRIPTION:Wrland;
#DIFFICULTY:Medium;
#METER:7;
#RADARVALUES:0,0,0,0,0;
#NOTES:
0000
0000
0000
0000
,
0000
0000
0000
0000
,
0000
0000
0000
0000
,
0000
0000
0000
0000
,
0000
0000
0000
0000
,
0000
0000
0000
0000
,
0000
0000
0000
0000
,
0000
0000
0000
0000
,
0000
0000
0000
0000
,
0000
0000
0000
0000
,
0000
0000
0000
0000
0000
0100
1000
0100
,
1000
0100
0010
0001
0010
0100
0200
0000
,
0300
0000
0000
0000
0000
0100
0010
0100
,
0010
0001
0100
0010
0100
1000
0200
0000
,
0300
0000
0000
0000
0000
0100
0010
0001
,
0100
0010
0100
1000
0100
0010
0200
0000
,
0300
1000
1001
0001
,
1001
0100
0110
0010
,
0110
0000
0100
0000
1000
0100
1000
0100
,
0010
0001
0100
0010
0100
0010
0002
0000
,
0003
0000
0000
0000
0000
0010
0100
0010
,
0001
0100
0010
1000
0100
1000
0200
0000
,
0300
0000
0000
0000
0000
0100
0010
0001
,
0100
0010
0100
1000
0100
0010
0002
0000
,
0003
0100
1000
1100
,
1000
1100
0001
0011
,
0001
0000
0011
0000
0010
0000
0100
0100
,
1000
0100
0010
0001
0000
0100
0000
0000
,
0100
0000
0010
0100
0000
0010
0001
0100
,
0010
1000
0100
2000
3000
0200
0300
0000
,
1000
0000
0100
0010
0000
0001
0010
0100
,
1000
0100
0010
1000
0000
0100
0000
1000
,
0100
0010
0000
0100
0000
0010
0001
0100
,
0010
0100
1000
0100
0000
1000
0000
0000
,
0100
0010
0100
0010
0001
0000
0100
0000
,
1000
0100
0010
0002
0003
0200
0300
0000
,
0100
1000
0100
1000
0000
0100
0010
0001
,
0100
0010
0001
0200
0300
0020
0030
0000
,
0100
1000
0100
1000
0000
0100
0010
0001
,
0100
0010
1000
0100
0000
0010
0000
0001
,
0100
0010
0000
0100
0000
0010
0100
0010
,
0001
0100
1000
0100
0000
1000
0000
0000
,
1000
0100
0010
0001
0000
0100
0010
0100
,
0010
0001
0100
0020
0030
0200
0300
0000
,
1000
0000
0100
1000
0000
0100
0010
0001
,
0100
0010
1000
0200
0300
0020
0030
0000
,
0001
1000
0000
1001
0000
0100
0010
0001
,
0100
0010
1000
0200
0300
2000
3000
1000
,
0100
1000
0000
0100
0000
0100
0100
0010
,
0010
0001
0001
0010
0000
0100
0000
0000
,
0100
1000
0100
0010
0000
0100
0010
0000
,
0001
0100
0010
0200
0300
0020
0030
0000
,
0001
0010
0100
0010
0000
0100
0010
0001
,
0100
0010
1000
0200
0300
2000
3000
0000
,
1000
0100
1000
0100
0000
0100
0010
0001
,
0100
0010
0100
0020
0030
0200
0300
1000
,
0100
1000
0000
0100
0000
0010
0001
0100
,
2002
0000
3003
1000
,
0001
0000
1000
0000
0001
0000
1000
0000
0000
0002
0000
0000
0003
0000
0000
0000
,
2000
3000
0002
0003
,
2000
3000
0200
0300
,
2000
3000
0020
0030
,
0002
0003
0200
0300
;

//--------------- dance-single - Wrland ----------------
#NOTEDATA:;
#STEPSTYPE:dance-single;
#DESCRIPTION:Wrland;
#DIFFICULTY:Hard;
#METER:10;
#RADARVALUES:0,0,0,0,0;
#NOTES:
0000
0000
0000
0000
,
0000
0000
0000
0000
,
0000
0000
0000
0000
,
0000
0000
0000
0000
,
0000
0000
0000
0000
,
0000
0000
0000
0000
,
0000
0000
0000
0000
,
0000
0000
0000
0000
,
0000
0000
0000
0000
,
0000
0000
0000
0000
,
0000
0000
1MM1
0000
0000
1000
0001
1000
,
0001
0000
1000
0000
0010
0000
1000
0000
0100
0000
1000
0000
0100
1000
0100
0000
,
0010
0100
0020
0030
0000
0100
0010
0001
,
0100
0000
0010
0000
0100
0000
1000
0000
0010
0000
0100
0000
0010
0100
0001
0000
,
0100
0000
0220
0330
1000
0100
1000
0100
,
0010
0001
0100
0010
0100
1000
0200
0300
,
1000
0100
0002
0003
0100
0010
1000
0010
,
0100
0000
0010
0100
0010
0000
0001
0000
0200
0000
0000
0000
0310
0000
0000
0000
,
0100
0000
1000
0100
1000
0000
0100
0000
0000
0000
0100
0000
0010
0000
0001
0000
,
0100
0000
0010
0000
0100
0000
0010
0000
0001
0000
0100
0000
0001
0100
0001
0000
,
0010
1000
0010
0000
0100
0010
0100
0000
0010
0000
0001
0000
0100
0000
0010
0000
,
1000
0000
0100
0000
1000
0000
0100
0000
1000
0000
0100
0000
1000
0100
1000
0000
,
0100
0010
0100
0000
0010
0001
0010
0000
0100
0000
1000
0000
0100
0000
1000
0000
,
0100
0010
0001
0100
0010
0100
0110
0000
,
1000
0001
1000
0000
0020
0000
1000
0000
,
1000
1000
1030
0000
0200
0000
0001
0300
,
0001
0010
0100
0010
0000
0001
0100
0010
,
1000
0100
1000
0200
0300
0010
0100
0001
,
0100
0010
1000
0010
0000
0100
0100
1000
,
0100
0000
0010
0000
0001
0000
0200
0000
0300
0000
0020
0000
0000
0030
0000
0000
,
0100
0010
1000
0100
1000
1100
0100
0110
,
0001
0011
0100
1010
0000
0110
0000
0010
,
0100
0002
0003
0020
0030
0100
0010
1000
,
0001
0000
0100
0000
0010
0000
2000
0000
3000
0000
2000
0000
0000
3000
0000
0000
,
0100
0010
0100
0002
0003
0100
0010
0100
,
0010
1000
0100
2000
3000
2200
3300
0000
,
0001
0000
0100
0000
0001
0000
0200
0000
0000
0300
0001
0000
0010
0000
0001
0000
,
0100
0000
0001
0000
0100
0000
0020
0000
0030
0000
2020
0000
0000
3030
0000
0000
,
1000
0100
0010
0100
1100
0010
0101
0100
,
1010
1000
0011
0200
0300
0022
0033
0100
,
1000
0200
0300
0020
0030
0001
0100
0010
,
0100
0000
1000
0000
0100
0000
0010
0000
0001
0000
0100
0001
0100
0000
1000
0100
,
1000
0100
0010
0001
0100
0010
0100
1000
,
0100
0000
0010
0000
0001
0000
0100
0000
0001
0100
0001
0000
0010
0100
0010
1000
,
0100
0010
0001
0200
0300
1000
0100
0010
,
0100
0010
0001
0200
0300
0020
0030
0000
,
0001
0010
0100
0010
0100
1100
1000
1100
,
0100
0110
0010
0022
0033
2002
3003
0100
,
0010
0200
0300
2000
3000
0100
0010
0001
,
0100
0000
0010
0000
0100
0000
1000
0000
0100
0000
1000
0100
1000
0000
0100
0010
,
0100
0001
0100
0020
0030
1000
0100
0010
,
0001
0100
0010
0200
0300
0020
0030
0000
,
0001
0100
1000
0100
0000
0100
1000
0100
,
0010
0001
0100
0020
0030
0200
0300
0000
,
0010
0100
0010
0001
0001
0001
1001
1000
,
1001
0100
0110
0020
0030
0220
0330
0001
,
1000
0002
0003
0200
0300
0010
0100
1000
,
0100
1000
0100
0010
0100
0001
0100
0001
0100
0000
0000
0000
0010
0000
0100
0000
,
0010
0000
0001
0000
0100
0000
0010
0000
0000
0200
0000
0000
0300
0000
0000
0000
,
0020
0000
0030
0000
0001
1000
0001
1000
0002
0000
0000
0000
0003
0000
0000
0100
,
1000
0000
0200
0000
0000
0300
0000
0000
0020
0030
0200
0300
0020
0030
0002
0003
,
0200
0000
0000
0000
0300
0000
0000
0000
0100
0010
0002
0000
0000
0003
0000
0000
,
0010
0100
2000
0000
0000
3000
0000
0000
2002
0000
0000
0000
0000
0000
0000
0000
,
3003
0000
0000
0000
;
