#TITLE:愛と誠;
#SUBTITLE:;
#ARTIST:ALI PROJECT;
#TITLETRANSLIT:Ai to Makoto;
#SUBTITLETRANSLIT:;
#ARTISTTRANSLIT:;
#GENRE:J-Pop;
#CREDIT:;
#BANNER:Ai to Makoto.png;
#BACKGROUND:Ai to Makoto-bg.png;
#LYRICSPATH:;
#CDTITLE:Wrland Season 3 CITYGHT.png;
#MUSIC:Ai to Makoto.ogg;
#OFFSET:0.002000;
#SAMPLESTART:65.146004;
#SAMPLELENGTH:12.000000;
#SELECTABLE:YES;
#DISPLAYBPM:69.000000:139.000000;
#BPMS:0.000000=69.995003
,12.000000=139.988998
,280.000000=69.995003
;
#STOPS:
;
#BGCHANGES:0.000=Ai to Makoto.avi=1.000=0=0=0=StretchNoLoop====,
99999.000=-nosongbg-=1.000=0=0=0=StretchNoLoop====,
99999=-nosongbg-=1.000=0=0=0 // don't automatically add -songbackground-
;
#KEYSOUNDS:;
#ATTACKS:;

//---------------dance-single - ----------------
#NOTES:
     dance-single:
     :
     Beginner:
     1:
     0.034166,0.102698,0.014068,0.028137,0.000000,34.000000,32.000000,2.000000,4.000000,0.000000,0.000000,0.034166,0.102698,0.014068,0.028137,0.000000,34.000000,32.000000,2.000000,4.000000,0.000000,0.000000:
0000
0000
0000
0000
,
0000
0000
0000
0000
,
0000
0000
0000
0000
,
0000
0000
0000
0000
,
0000
0000
0000
0000
,
0000
0000
0000
0000
,
0000
0000
0000
0000
,
0000
0000
0000
0000
,
0000
0000
0000
0000
,
0000
0000
0000
0000
,
0000
0000
0000
0000
,
1000
0000
0000
0000
,
0000
0000
0000
0000
,
0100
0000
0000
0000
,
0000
0000
0000
0000
,
1000
0000
0000
0000
,
0000
0000
0000
0000
,
0010
0000
0000
0000
,
0000
0000
0000
0000
,
0100
0000
0000
0000
,
0000
0000
0000
0000
,
0001
0000
0000
0000
,
0000
0000
0000
0000
,
0010
0000
0000
0000
,
0000
0000
0000
0000
,
0100
0000
0000
0000
,
0000
0000
0000
0000
,
1000
0000
0000
0000
,
0000
0000
0000
0000
,
0100
0000
0000
0000
,
0000
0000
0000
0000
,
1000
0000
0000
0000
,
0000
0000
0000
0000
,
0100
0000
0000
0000
,
0000
0000
0000
0000
,
0010
0000
0000
0000
,
0000
0000
0000
0000
,
0100
0000
0000
0000
,
0000
0000
0000
0000
,
0001
0000
0000
0000
,
0000
0000
0000
0000
,
0100
0000
0000
0000
,
0000
0000
0000
0000
,
1000
0000
0000
0000
,
0000
0000
0000
0000
,
1000
0000
0000
0000
,
0000
0000
0000
0000
,
1000
0000
0000
0000
,
0000
0000
0000
0000
,
0100
0000
0000
0000
,
0000
0000
0000
0000
,
0010
0000
0000
0000
,
0000
0000
0000
0000
,
0001
0000
0000
0000
,
0000
0000
0000
0000
,
0010
0000
0000
0000
,
0000
0000
0000
0000
,
0100
0000
0000
0000
,
0000
0000
0000
0000
,
0010
0000
0000
0000
,
0000
0000
0000
0000
,
0100
0000
0000
0000
,
0000
0000
0000
0000
,
1000
0000
0000
0000
,
0000
0000
0000
0000
,
0010
0000
0000
0000
,
0000
0000
0000
0000
,
0100
0000
0000
0000
,
0000
0000
0000
0000
,
0001
0000
0000
0000
,
2002
0000
0000
0000
,
3003
0000
0000
0000
,
0220
0000
0000
0000
,
0330
0000
0000
0000
;

//---------------dance-single - ----------------
#NOTES:
     dance-single:
     :
     Easy:
     2:
     0.063307,0.102698,0.014068,0.028137,0.000000,63.000000,61.000000,2.000000,4.000000,0.000000,0.000000,0.063307,0.102698,0.014068,0.028137,0.000000,63.000000,61.000000,2.000000,4.000000,0.000000,0.000000:
0000
0000
0000
0000
,
0000
0000
0000
0000
,
0000
0000
0000
0000
,
0000
0000
0000
0000
,
0000
0000
0000
0000
,
0000
0000
0000
0000
,
0000
0000
0000
0000
,
0000
0000
0000
0000
,
0000
0000
0000
0000
,
0000
0000
0000
0000
,
0000
0000
0000
0000
,
0100
0000
0000
0000
,
0100
0000
0000
0000
,
0010
0000
0000
0000
,
0100
0000
0000
0000
,
1000
0000
0000
0000
,
1000
0000
0000
0000
,
1000
0000
0000
0000
,
0001
0000
0000
0000
,
0010
0000
0000
0000
,
0001
0000
0000
0000
,
0100
0000
0000
0000
,
0010
0000
0000
0000
,
1000
0000
0000
0000
,
0100
0000
0000
0000
,
1000
0000
0000
0000
,
0100
0000
0000
0000
,
0010
0000
0000
0000
,
0100
0000
0000
0000
,
0010
0000
0000
0000
,
0001
0000
0000
0000
,
0010
0000
0000
0000
,
0100
0000
0000
0000
,
0010
0000
0000
0000
,
0100
0000
0000
0000
,
0010
0000
0000
0000
,
0010
0000
0000
0000
,
0100
0000
0000
0000
,
0100
0000
0000
0000
,
1000
0000
0000
0000
,
1000
0000
0000
0000
,
0100
0000
0000
0000
,
1000
0000
0000
0000
,
1000
0000
0000
0000
,
1000
0000
0000
0000
,
0001
0000
0000
0000
,
0010
0000
0000
0000
,
0001
0000
0000
0000
,
0010
0000
0000
0000
,
0100
0000
0000
0000
,
0010
0000
0000
0000
,
1000
0000
0000
0000
,
0100
0000
0000
0000
,
1000
0000
0000
0000
,
0100
0000
0000
0000
,
0010
0000
0000
0000
,
0001
0000
0000
0000
,
0010
0000
0000
0000
,
0001
0000
0000
0000
,
0100
0000
0000
0000
,
0010
0000
0000
0000
,
0100
0000
0000
0000
,
0010
0000
0000
0000
,
0100
0000
0000
0000
,
1000
0000
0000
0000
,
0100
0000
0000
0000
,
1000
0000
0000
0000
,
0010
0000
0000
0000
,
0001
0000
0000
0000
,
0010
0000
0000
0000
,
2002
0000
0000
0000
,
3003
0000
0000
0000
,
0220
0000
0000
0000
,
0330
0000
0000
0000
;

//---------------dance-single - ----------------
#NOTES:
     dance-single:
     :
     Medium:
     5:
     0.193941,0.390394,0.021102,0.154751,0.021102,193.000000,190.000000,3.000000,22.000000,0.000000,0.000000,0.193941,0.390394,0.021102,0.154751,0.021102,193.000000,190.000000,3.000000,22.000000,0.000000,0.000000:
// measure 0
0000
0000
0000
0000
,  // measure 1
0000
0000
0000
0000
,  // measure 2
0000
0000
0000
0000
,  // measure 3
0000
0000
0000
0000
,  // measure 4
0000
0000
0000
0000
,  // measure 5
0000
0000
0000
0000
,  // measure 6
0000
0000
0000
0000
,  // measure 7
0000
0000
0000
0000
,  // measure 8
0000
0000
0000
0000
,  // measure 9
0000
0000
0000
0000
,  // measure 10
0000
0000
0000
0000
,  // measure 11
0010
0000
0010
0000
,  // measure 12
0100
0000
0100
0000
,  // measure 13
1000
0000
0100
0000
,  // measure 14
1000
0000
1000
0000
,  // measure 15
0100
0000
1000
0000
,  // measure 16
0100
0000
0010
0000
,  // measure 17
0001
0000
0100
0000
,  // measure 18
0020
0030
0200
0300
,  // measure 19
0010
0000
0010
0000
,  // measure 20
0001
0000
0010
0000
,  // measure 21
1000
0000
1000
0000
,  // measure 22
0100
0000
1000
0000
,  // measure 23
1000
0000
0100
0000
,  // measure 24
0010
0000
0001
0000
,  // measure 25
0010
0000
0001
0000
,  // measure 26
0020
0030
0200
0300
,  // measure 27
0010
0000
0010
0000
,  // measure 28
0100
0010
0100
0000
,  // measure 29
1000
0000
1000
0000
,  // measure 30
1000
0100
0010
0000
,  // measure 31
0001
0000
0010
0000
,  // measure 32
0100
0010
0100
0010
,  // measure 33
0200
0300
0020
0030
,  // measure 34
0200
0300
0020
0030
,  // measure 35
0001
0010
0100
0010
,  // measure 36
0001
0100
0020
0030
,  // measure 37
0100
0010
0100
0010
,  // measure 38
0100
1000
0200
0300
,  // measure 39
0100
0010
0100
0010
,  // measure 40
0001
0010
0100
0010
,  // measure 41
0100
0010
0010
0001
,  // measure 42
0100
0010
0200
0300
,  // measure 43
1000
0100
2000
3000
,  // measure 44
0100
1000
0200
0300
,  // measure 45
0100
0010
0001
0100
,  // measure 46
0010
0100
0010
0100
,  // measure 47
0100
1000
0100
0010
,  // measure 48
0001
0100
0010
0100
,  // measure 49
0010
0001
0100
0010
,  // measure 50
0100
1000
0200
0300
,  // measure 51
0100
0010
0100
0100
,  // measure 52
1000
0100
0010
0001
,  // measure 53
0100
0010
0100
1000
,  // measure 54
0100
0010
0200
0300
,  // measure 55
0100
1000
0200
0300
,  // measure 56
0100
0010
0200
0300
,  // measure 57
0100
0010
0001
0100
,  // measure 58
0010
0100
0010
0100
,  // measure 59
0100
1000
0100
1000
,  // measure 60
0100
1000
0100
0010
,  // measure 61
0010
0000
0000
0100
0010
0100
0010
0000
0000
0100
0010
0100
,  // measure 62
0010
0000
0000
0100
0010
0100
0020
0000
0000
0030
0000
0000
,  // measure 63
0100
0010
0100
0010
,  // measure 64
0100
0010
0001
1001
,  // measure 65
0100
0100
1000
0100
,  // measure 66
1000
0100
0010
0100
,  // measure 67
1000
0100
1000
0100
,  // measure 68
1000
0100
0010
0001
,  // measure 69
0100
0010
0100
0010
,  // measure 70
0220
0000
0000
0000
,  // measure 71
0000
0000
0000
0330
,  // measure 72
2002
0000
0000
0000
,  // measure 73
0000
0000
0000
0000
,  // measure 74
3003
0000
0000
0000
;

//---------------dance-single - ----------------
#NOTES:
     dance-single:
     :
     Hard:
     10:
     0.429082,0.546552,0.337638,1.019949,0.203990,427.000000,379.000000,48.000000,145.000000,0.000000,0.000000,0.429082,0.546552,0.337638,1.019949,0.203990,427.000000,379.000000,48.000000,145.000000,0.000000,0.000000:
0000
0000
0000
0000
,
0000
0000
0000
0000
,
0000
0000
0000
0000
,
2000
0000
3000
0000
0200
0000
0300
0000
0010
0000
1000
0000
0001
0000
1000
0001
,
2000
3000
0100
0010
0100
0010
0001
0100
,
2000
0000
3000
0010
0200
0000
0300
0000
0000
0000
0010
0000
0100
0000
0010
0100
,
0020
0030
0200
0300
1000
0001
0100
0010
,
0100
0010
0100
1000
0100
0010
0100
1000
,
0001
0000
0100
0000
0100
0000
1000
0000
0100
0010
0100
0010
0200
0000
0300
0000
,
0001
0100
1000
0100
0010
0001
0100
0010
,
1000
0000
0100
0000
0010
0001
0100
1000
0100
0010
0001
0010
2002
0000
3003
0000
,
0010
0100
0010
0100
2000
3000
0010
0001
,
0200
0300
0010
0100
0020
0030
0002
0003
,
0100
0010
1000
0100
0020
0030
0001
0100
,
0020
0030
0202
0303
0022
0000
0033
0000
,
0100
0010
0100
0010
0200
0300
2000
3000
,
0020
0030
0100
0010
2000
3000
0200
0300
,
2000
3000
0100
0010
0002
0003
0100
0010
,
0200
0300
0020
0030
,
0020
0030
0001
0010
0200
0300
1000
0100
,
0020
0030
0100
0010
2000
3000
0200
0300
,
1000
0010
0100
0010
0200
0300
0010
0100
,
2000
3000
0002
0003
2000
0000
3000
0000
,
0200
0300
1000
0100
2000
3000
0200
0300
,
0002
0003
0010
0100
0020
0030
0200
0300
,
2000
3000
0100
1000
0200
0300
1000
0100
,
0020
0030
0200
0300
,
0101
1001
1010
0110
,
0110
0101
0110
1100
,
0110
0011
1010
0101
,
1010
0101
0110
1010
,
0101
1010
0110
1010
,
0101
1010
0110
1001
,
0220
0330
2002
3003
,
2020
3030
0202
0303
,
2002
3003
0200
0300
0020
0030
2000
3000
,
0020
0000
0030
1000
0200
0000
0300
0000
0200
0000
0300
0000
0020
0000
0030
0000
,
0200
0000
0300
0010
0200
0000
0300
0000
0020
0000
0030
0000
0002
0000
0003
0010
,
0200
0000
0300
1000
0020
0000
0030
0000
2002
0000
0000
0000
0000
0000
3003
0000
,
0200
0000
0300
0010
0200
0000
0300
0000
0020
0000
0030
0000
0200
0000
0300
0000
,
2000
0000
3000
0100
2000
0000
3000
0000
0200
0000
0300
0000
0020
0000
0030
0000
,
0200
0000
0300
0010
0200
0000
0300
0000
0020
0000
0030
0000
0002
0000
0003
0100
,
0002
0000
0003
1000
0002
0000
0003
0000
0220
0000
0000
0000
0000
0000
0330
0000
,
0100
0000
0000
0010
0100
0000
0000
0000
2020
0000
0000
0000
0000
0000
3030
0000
,
0101
0000
0000
0001
0100
0000
0000
0000
0202
0000
0000
0000
0000
0000
0303
0000
,
0010
0000
0000
1000
0010
0000
0000
0000
0110
0000
0000
0000
0101
0000
0000
0100
,
0001
0000
0000
1000
0001
0000
0000
0100
0010
0000
0000
0000
1001
0000
0000
0000
,
0200
0300
0020
0030
0200
0300
0020
0030
,
0100
0000
0000
0010
0200
0000
0300
0000
2000
0000
3000
0000
0200
0000
0300
0000
,
0002
0000
0003
0010
0200
0000
0300
0000
0020
0000
0030
0000
0100
0000
0000
0010
,
0100
0000
0000
0010
0200
0000
0300
0000
0202
0000
0000
0000
0303
0000
0000
0000
,
0100
0000
0000
0010
0200
0000
0300
0000
2000
0000
3000
0000
0200
0000
0300
0000
,
1000
0000
0000
1000
0002
0000
0003
0000
0020
0000
0030
0000
0200
0000
0300
0000
,
2000
0000
3000
0010
0200
0000
0300
0000
0020
0000
0030
0000
0002
0000
0003
0100
,
0020
0000
0030
0100
0002
0000
0003
0000
2002
0000
0000
0000
0000
0000
3003
0000
,
0100
0000
0000
1000
0100
0000
0000
0000
2000
0000
0000
0000
3000
0000
0000
0000
,
1000
0000
0000
1000
0020
0000
0030
0000
0200
0000
0000
0000
0300
0000
0000
0000
,
0100
0000
0000
0100
0020
0000
0030
0000
0200
0000
0300
0000
1000
0000
0000
1000
,
0100
0000
0000
0010
0100
0000
0000
0010
0200
0000
0300
0000
0110
0000
0000
0000
,
0100
0010
0100
1000
0100
0010
0001
0100
,
0010
1000
0100
0010
0002
0003
1001
0000
,
0220
0000
0000
0330
0000
0000
0100
0000
1000
0000
0100
0000
0020
0000
0000
0030
0000
0000
1000
0000
0100
0000
0010
0000
,
0002
0000
0000
0003
0000
0000
0100
0000
0010
0000
0100
0000
2002
0000
0000
0000
0000
0000
3003
0000
0000
0000
0000
0000
,
1000
0000
0010
0000
1000
0000
0001
0010
2000
0000
0000
0000
3000
0000
0100
0010
,
0100
0000
0000
0000
0000
0000
0000
0000
0000
0010
0000
0000
0001
0000
0000
0000
0000
0000
0000
0000
1000
0000
0000
0000
0100
0000
0000
0000
1000
0000
0000
0000
0100
0000
0000
0000
2000
0000
0000
0000
0000
0000
3000
0000
0000
0000
0000
0000
,
0100
1000
0100
0010
0001
0100
0010
1000
,
0100
0000
0010
0000
0001
0000
0100
1000
0100
0000
0010
0000
0001
0000
0100
0000
,
0020
0000
0030
0000
0200
0000
0300
0000
0010
0100
0010
0100
0020
0000
0030
0000
,
0100
0010
0001
0100
1000
0100
0010
0001
,
0010
0000
0100
0000
1000
0100
0010
0100
0010
0001
0010
0100
0020
0000
0030
0000
,
2002
0000
0000
0000
3003
0000
0200
0300
,
2000
0000
0000
0000
0000
0000
0000
3000
,
0220
0000
0000
0000
,
0000
0000
0000
0000
,
0330
0000
0000
0000
;
