#TITLE:ALL THE THINGS SHE SAID;
#SUBTITLE:;
#ARTIST:t.A.T.u.;
#TITLETRANSLIT:;
#SUBTITLETRANSLIT:;
#ARTISTTRANSLIT:;
#GENRE:Rock;
#CREDIT:Wrland;
#MUSIC:ALL THE THINGS SHE SAID.ogg;
#BANNER:ALL THE THINGS SHE SAID.png;
#BACKGROUND:BG.png;
#LYRICSPATH:ALL THE THINGS SHE SAID.lrc;
#PREVIEWVID:preview.mp4;
#CDTITLE:Wrland Season 3 CITYGHT + last one night.png;
#SAMPLESTART:56.000;
#SAMPLELENGTH:12.000;
#SELECTABLE:YES;
#OFFSET:0.000;
#BPMS:0.000=90.000;
#STOPS:;
#DISPLAYBPM:90.000;
#JACKET:ALL THE THINGS SHE SAID-jacket.png;
#CDIMAGE:ALL THE THINGS SHE SAID-cd.png;
#METERTYPE:DDR X;
#BGCHANGES:0.000=ALL THE THINGS SHE SAID.avi=1.000=0=0=0=StretchNoLoop====,
99999.000=-nosongbg-=1.000=0=0=0=StretchNoLoop====
;
#FGCHANGES:;

//--------------- dance-single - Wrland ----------------
#NOTES:
     dance-single:
     Wrland:
     Beginner:
     1:
     0,0,0,0,0:
0000
0000
0000
0000
,
0000
0000
0000
0000
,
0000
0000
0000
0000
,
0000
0000
0000
0000
,
2000
0000
0000
0000
,
3000
0000
0000
0000
,
0200
0000
0000
0000
,
0300
0000
0000
0000
,
0010
0000
0000
0000
,
0010
0000
0000
0000
,
0100
0000
0000
0000
,
1000
0000
0000
0000
,
0001
0000
0000
0000
,
0001
0000
0000
0000
,
0100
0000
0000
0000
,
0010
0000
0000
0000
,
0200
0000
0000
0300
,
1000
0000
0000
0000
,
1000
0000
0000
0000
,
0001
0000
0000
0000
,
0010
0000
0000
0000
,
0100
0000
0000
0000
,
0100
0000
0000
0000
,
1000
0000
0000
0000
,
0010
0000
0000
0000
,
0001
0000
0000
0000
,
0010
0000
0000
0000
,
0100
0000
0000
0000
,
1000
0000
0000
0000
,
0100
0000
0000
0000
,
0010
0000
0000
0000
,
0100
0000
0000
0000
,
0010
0000
0000
0000
,
0100
0000
0000
0000
,
0001
0000
0000
0000
,
1000
0000
0000
0000
,
0100
0000
0000
0000
,
0010
0000
0000
0000
,
0001
0000
0000
0000
,
1000
0000
0000
0000
,
0100
0000
0000
0000
,
0010
0000
0000
0000
,
0100
0000
0000
0000
,
1000
0000
0000
0000
,
0010
0000
0000
0000
,
0200
0000
0000
0000
,
0000
0000
0000
0000
,
0000
0000
0000
0000
,
0300
0000
0000
0000
;

//--------------- dance-single - Wrland ----------------
#NOTES:
     dance-single:
     Wrland:
     Easy:
     4:
     0,0,0,0,0:
0000
0000
0000
0000
,
0000
0000
0000
0000
,
0000
0000
0000
0000
,
0000
0000
0000
0000
,
2000
0000
0000
0000
,
3000
0000
0000
0000
,
0002
0000
0000
0000
,
0003
0000
0000
0000
,
1000
0000
1000
0000
,
0001
0000
0001
0000
,
1000
0000
0100
0000
,
1000
0000
0010
0000
,
0100
0000
0100
0000
,
0010
0000
0010
0000
,
0100
0000
1000
0000
,
0100
0000
0010
0000
,
0202
0000
0000
0303
,
0010
0000
0100
0000
,
1000
0000
1000
0000
,
0100
0000
0100
0000
,
1000
0000
0100
0000
,
1000
1000
1000
1000
,
1001
0000
0000
0000
,
0001
0001
0001
0001
,
1001
0000
0000
0000
,
0100
0000
1000
0000
,
0100
0000
1000
0000
,
0100
0000
0010
0000
,
0001
0000
0010
0000
,
0200
0000
0000
0300
,
2000
0000
0000
3000
,
0020
0000
0000
0030
,
0002
0000
0000
0003
,
0100
0000
0101
0000
,
0100
0000
1100
0000
,
2000
0000
3000
0000
,
2000
0000
3000
0000
,
0100
0000
0100
0000
,
0010
0000
0001
0000
,
0100
0000
0010
0000
,
0100
0000
1000
0000
,
1000
0001
1000
0001
,
1000
0000
0000
0000
,
0010
0100
0010
0100
,
0010
0000
0000
0000
,
0200
0000
0000
0000
,
0000
0000
0000
0000
,
0000
0000
0000
0000
,
0300
0000
0000
0000
;

//--------------- dance-single - Wrland ----------------
#NOTES:
     dance-single:
     Wrland:
     Medium:
     7:
     0,0,0,0,0:
0000
0000
0000
0000
,
0000
0000
0000
0000
,
0000
0000
0000
0000
,
0000
0000
0000
0000
,
1000
0000
1000
0000
,
0001
0000
0001
0000
,
1000
0000
1000
0000
,
0001
0000
0001
0000
0001
1000
0001
0000
,
1000
0010
0100
0010
,
1000
0001
0100
1000
,
0010
0010
0001
0001
,
0100
0000
0000
0000
0100
0000
0000
0000
1000
0000
0100
0020
0000
0030
0000
0000
,
0100
1000
0100
1000
,
0100
0010
0001
0010
,
0100
1000
0100
1000
,
0100
1000
0100
2000
0000
3000
0000
0000
0100
0010
0100
0020
0000
0030
0000
0000
,
0001
0100
0001
0200
0000
0300
0000
0000
0010
0100
0010
0200
0000
0300
0000
0000
,
0100
0000
1000
0000
0100
0000
1000
0000
0100
0000
0010
0000
0001
0000
0100
0001
,
0100
0000
0010
0100
0010
0100
0010
0000
0100
0010
1000
0100
0020
0000
0030
0000
,
0001
0000
0100
0000
0001
0000
0010
0100
0010
0100
0010
0000
0100
1000
0100
1000
,
0100
0000
0100
1000
0100
0010
0001
0000
0010
0100
0010
0100
0020
0000
0030
0000
,
0200
0300
1000
0100
0220
0330
0001
0010
,
0220
0330
0100
1000
0200
0300
2200
3300
,
0220
0330
2002
3003
0220
0330
1000
0220
,
0330
0000
0022
0000
0000
0000
0033
0000
0100
0000
0010
0100
0010
0100
0020
0000
,
0030
0000
0100
1000
0100
1000
0200
0300
0010
0001
0100
0001
0202
0000
0303
0000
,
0001
0010
0001
0100
0020
0030
0001
0100
0001
0100
0002
0003
0010
0100
0010
0100
,
0020
0030
0100
1000
0100
1000
0200
0000
0300
0000
0000
0000
0010
0100
0020
0030
,
0100
0010
0001
0100
0002
0003
0010
0100
0010
0100
0020
0000
0000
0030
0000
0000
,
1000
0001
1000
0001
,
0100
1000
0100
1000
,
0100
0010
0100
0010
,
0202
0000
0000
0303
,
0010
0100
1000
0100
,
1000
0100
0010
0001
,
0100
1000
0100
1000
,
2200
0000
0000
0000
3300
0000
0000
0000
0100
0000
0010
0000
0100
0010
0100
0000
,
0100
0000
0010
0000
0002
0000
0003
0000
0100
0000
0010
0000
0100
0010
0100
0010
,
0200
0300
0010
0100
0010
0100
0020
0030
0001
0100
0001
0100
0002
0000
0003
0000
,
0010
0000
0100
0000
1000
0000
0100
0000
1000
0000
0100
0000
1000
0100
1000
0100
,
2000
3000
0100
0010
0001
0100
0002
0003
0001
0100
0001
0100
0002
0000
0003
0000
,
0010
0100
0020
0030
0200
0300
1000
0100
,
2200
0000
3300
0000
0100
0010
0100
0010
0002
0000
0003
0000
0202
0000
0303
0000
,
0220
0330
2200
3300
0202
0303
0010
0220
,
0330
0000
1001
0000
1000
0000
0001
0000
1000
0000
0001
1000
0001
1000
0001
0000
,
2002
0000
0000
0000
,
0000
0000
0000
0000
,
0000
0000
0000
0000
,
3003
0000
0000
0000
;

//--------------- dance-single - Wrland ----------------
#NOTES:
     dance-single:
     Wrland:
     Hard:
     10:
     0,0,0,0,0:
0000
0000
0000
0000
,
0000
0000
0000
0000
,
1000
0100
1000
0100
2000
3000
0100
0010
0100
0010
0200
0300
0010
0001
0100
0001
,
0200
0300
0010
0100
0010
0100
0020
0030
0001
0100
0001
0100
0002
0000
0003
0000
,
1000
0100
0010
0001
0202
0303
0010
0220
,
0330
1100
0100
0220
0330
0001
0100
0202
,
0303
0010
0100
0220
0330
1000
0100
2200
,
3300
0000
0100
0000
0010
0000
0001
0100
0001
0000
0010
0100
0010
0100
0010
0001
,
0100
0010
0000
0000
0000
0000
0100
1000
0100
0010
0001
0200
0000
0300
0010
0100
,
0010
0001
0100
0020
0000
0000
0030
0000
1000
0100
0010
0002
0000
0003
0000
0000
,
0001
0010
0100
2000
0000
3000
0000
0000
1000
0100
0010
0002
0000
0003
0100
1000
,
0100
0010
0100
0020
0000
0030
0001
0100
0001
0100
0001
0200
0000
0300
0010
0100
,
0010
0001
0100
0000
0220
0330
1000
0000
0010
0100
1000
0200
0000
0300
0010
0100
,
0010
0001
0100
0000
0202
0303
0010
0100
0010
0100
0010
0220
0000
0330
1000
0100
,
1000
0100
0000
0200
0000
0300
0010
0100
0010
0001
0000
0200
0000
0000
0300
0000
,
0010
0100
0010
0200
0000
0300
0000
0100
0001
0010
0001
0200
0000
0000
0300
0000
,
0010
0100
0010
0200
0000
0300
0000
1000
0100
0010
0001
0200
0000
0000
0300
0000
,
0010
0100
0010
0100
0020
0030
0001
0100
0001
0100
0002
0003
0010
1000
0010
1000
,
0020
0030
0100
0010
0100
0010
0200
0300
1000
0100
1000
0100
2000
0000
0000
3000
,
0100
0010
1000
0100
0020
0030
0010
0100
0010
0100
0020
0030
1000
0100
1000
0100
,
2000
3000
0100
0010
0100
0010
0200
0300
0010
0001
0010
0001
0020
0000
0000
0030
,
1000
0000
0100
0000
0220
0330
0001
0000
0202
0000
0303
0000
0010
0000
0220
0000
,
0330
0000
1100
0000
0100
0010
0001
0100
0020
0000
0030
0000
0022
0000
0033
0000
,
2200
0000
3300
0000
0022
0000
0033
0000
0220
0000
0330
0000
2002
3003
0220
0000
,
0000
0330
1001
0000
1000
0001
1000
0001
2000
3000
0100
0010
0100
0010
0200
0300
,
2020
3030
0100
1000
0100
1000
0200
0300
0010
0100
0010
0100
0020
0000
0000
0030
,
0001
0100
0001
0100
0002
0003
0010
0100
0010
0100
0020
0030
1000
0001
1000
0001
,
2000
3000
0010
0100
0010
0100
0020
0000
0030
0000
0000
0000
0010
0100
0020
0030
,
0100
0001
0100
0001
0200
0300
0010
1000
0010
1000
0020
0000
0030
0000
0000
0000
,
2000
0000
3000
0000
0200
0000
0000
0300
1000
0100
1000
0000
0200
0000
0000
0300
,
0020
0000
0000
0030
0200
0000
0000
0300
0010
0100
0020
0030
0002
0000
0003
0000
,
0002
0000
0000
0003
0200
0000
0000
0300
0020
0000
0000
0030
0200
0300
0020
0000
,
0000
0030
0200
0000
0000
0000
0000
0000
0000
0000
0000
0000
0300
0000
0000
0000
,
1000
0000
0101
0000
0200
0000
0300
0000
0001
0000
0101
0000
0002
0000
0000
0003
,
0010
0000
0110
0000
2000
0000
3000
0000
0100
0010
0100
0000
0020
0000
0030
0000
,
0202
0303
0220
0330
2200
3300
0110
2002
,
3003
0000
2002
3003
0100
0010
0100
0000
0010
0010
0001
0100
0010
0100
1000
0000
,
0100
0010
0100
0010
0200
0300
0001
0100
0001
0100
0002
0003
0010
1000
0010
1000
,
0020
0030
0100
1000
0100
1000
0200
0300
0010
0100
0010
0100
0020
0000
0030
0000
,
0001
0100
0001
0100
0002
0003
0100
0001
0100
0001
0200
0300
0010
0100
0010
0100
,
0020
0030
1000
0100
1000
0100
2000
3000
0100
0010
0100
0010
0200
0000
0300
0000
,
0200
0300
0010
0000
0022
0000
0033
0000
0001
0000
0100
0000
0010
0000
0220
0000
,
0000
0330
1000
0000
0100
0010
0001
0100
0020
0000
0030
0000
0220
0000
0330
0000
,
2002
3003
2200
3300
0022
0033
0110
2002
,
3003
0000
1001
0000
1000
0001
1000
0000
0010
0100
0010
0100
0010
0000
0000
0000
,
0220
0000
0000
0000
,
0000
0000
0000
0000
,
0000
0000
0000
0000
,
0330
0000
0000
0000
;
