#TITLE:ALL I WANT FOR CHRISTMAS IS YOU;
#SUBTITLE:;
#ARTIST:Mariah Carey;
#TITLETRANSLIT:;
#SUBTITLETRANSLIT:;
#ARTISTTRANSLIT:;
#GENRE:Pop;
#CREDIT:Wrland;
#MUSIC:ALL I WANT FOR CHRISTMAS IS YOU.ogg;
#BANNER:ALL I WANT FOR CHRISTMAS IS YOU.png;
#LYRICSPATH:ALL I WANT FOR CHRISTMAS IS YOU.lrc;
#PREVIEWVID:preview.mp4;
#BACKGROUND:BG.png;
#CDTITLE:Wrland Season 3 CITYGHT + last one night.png;
#SAMPLESTART:7.383;
#SAMPLELENGTH:12.000;
#SELECTABLE:YES;
#OFFSET:0.000;
#BPMS:0.000=183.023
,3.000=150.020
;
#STOPS:;
#DISPLAYBPM:150.000;
#JACKET:ALL I WANT FOR CHRISTMAS IS YOU-jacket.png;
#CDIMAGE:ALL I WANT FOR CHRISTMAS IS YOU-cd.png;
#METERTYPE:DDR X;
#BGCHANGES:0.000=ALL I WANT FOR CHRISTMAS IS YOU.avi=0.000=0=0=0=StretchNoLoop====,
99999=-nosongbg-=1.000=0=0=0 // don't automatically add -songbackground-
;
#FGCHANGES:;

//--------------- dance-single - Wrland ----------------
#NOTES:
     dance-single:
     Wrland:
     Beginner:
     2:
     0,0,0,0,0:
0000
0000
0000
0000
,
0000
0000
0000
0000
,
0000
0000
0000
0000
,
0000
0000
0000
0000
,
0000
0000
0000
1000
,
0000
0000
0000
1000
,
0000
0000
0000
0001
,
0000
0000
0000
0001
,
0000
0000
0000
0100
,
0000
0000
0000
0010
,
0000
0000
0000
0100
,
0000
0000
0000
1000
,
0000
0000
0000
1000
,
0000
0000
0000
0100
,
0000
0000
0000
0010
,
0000
0000
0000
0001
,
0000
0000
0000
0100
,
0000
0000
0000
0100
,
0000
0000
0000
1000
,
0000
0000
0000
1000
,
0000
0000
0000
0100
,
0000
0000
0000
0010
,
0000
0000
0000
0100
,
0000
0000
0000
0010
,
0000
0000
0000
0001
,
0000
0000
0000
0100
,
0000
0000
0000
0001
,
0000
0000
0000
0010
,
0000
0000
0000
0100
,
0000
0000
0000
1000
,
0000
0000
0000
0100
,
0000
0000
0000
1000
,
0000
0000
0000
0100
,
0000
0000
0000
0010
,
0000
0000
0000
0100
,
0000
0000
0000
1000
,
0000
0000
0000
0100
,
0000
0000
0000
0010
,
0000
0000
0000
0100
,
0000
0000
0000
1000
,
0000
0000
0000
0100
,
0000
0000
0000
0100
,
0000
0000
0000
1000
,
0000
0000
0000
0001
,
0000
0000
0000
0010
,
0000
0000
0000
0100
,
0000
0000
0000
0100
,
0000
0000
0000
2000
,
0000
0000
0000
0000
,
0000
0000
0000
3000
,
0000
0000
0000
1001
,
0000
0000
0000
1000
,
0000
0000
0000
0001
,
1000
0001
1000
0001
,
0000
1000
0000
0110
,
0000
0000
0000
0100
,
0000
0000
0000
0100
,
0010
0100
0010
0100
,
0000
0001
0000
0110
,
0000
0000
0000
0010
,
0000
0000
0000
0001
,
0010
0001
0010
0001
,
0000
0010
0000
1001
,
0000
0000
0000
1000
,
0000
0000
0000
0001
,
1000
0001
1000
0001
,
0000
1000
0000
2200
,
0000
0000
0000
0000
,
0000
0000
0000
0000
,
3300
0000
0000
0000
;

//--------------- dance-single - Wrland ----------------
#NOTES:
     dance-single:
     Wrland:
     Easy:
     6:
     0,0,0,0,0:
0000
0000
0000
0000
,
0000
0000
0000
0000
,
0000
0000
0000
0000
,
0000
0000
0000
0000
,
0000
0000
0000
1000
,
0000
1000
0000
1000
,
0000
0000
0000
0001
,
0000
0001
0000
0001
,
0000
0000
0000
0100
,
0000
0010
0000
0100
,
0000
0000
0000
1000
,
0000
0100
0000
0010
,
0000
0000
0000
0100
,
0000
0010
0000
0001
,
0000
0000
0000
0100
,
0000
1000
0000
0100
,
0000
0000
0000
0010
,
0000
0001
0000
0010
,
0000
0000
0000
0100
,
0000
1000
0000
0100
,
0000
0000
0000
1000
,
0000
1000
0000
0100
,
0000
0000
0000
0010
,
0000
0001
0000
0010
,
0000
0000
0000
0100
,
0000
0100
0000
1000
,
0000
0000
0000
1000
,
0000
0100
0000
0010
,
0000
0000
0001
0100
,
0000
0100
0000
0010
,
0000
0000
0000
0001
,
0000
0100
0000
1000
,
0000
0000
0000
1000
,
0000
0100
0000
1000
,
0000
0000
0000
0100
,
0000
0010
0000
0001
,
0000
0000
0000
0100
,
0000
0010
0000
0100
,
0000
0000
0000
0100
,
0000
1000
0000
0100
,
0000
0000
0000
0010
,
0000
0100
0000
0010
,
0000
0000
0000
0001
,
0000
0010
0000
0100
,
0000
0000
0000
1000
,
0000
0100
0000
0010
,
0000
0000
0000
0100
,
0000
0010
0000
0200
,
0000
0000
0000
0000
,
0000
0000
0000
0300
,
0000
0000
0000
0000
,
0110
0000
1000
0000
,
0100
0000
1000
0100
,
0000
0010
0001
0100
,
0000
0010
0000
0100
,
0100
0100
0000
1000
,
1000
1000
0000
0001
,
0001
0001
0000
1000
,
0001
1000
0000
1000
,
0000
1000
0000
0100
,
0000
0010
0000
0001
,
0000
0010
0100
0010
,
0000
0001
0000
0101
,
0000
0010
0000
1000
,
0000
0100
0000
1000
,
0100
0010
0001
0100
,
0000
0001
0000
0202
,
0000
0000
0000
0000
,
0000
0000
0000
0000
,
0303
0000
0000
0000
;

//--------------- dance-single - Wrland ----------------
#NOTES:
     dance-single:
     Wrland:
     Medium:
     9:
     0,0,0,0,0:
0000
0000
0000
0000
,
0000
0000
0000
0000
,
0000
0000
0000
0000
,
0000
0000
0000
0000
,
0000
0000
0000
1000
,
0100
1000
0100
0010
,
0001
0100
0001
0100
,
0001
0100
0010
0100
,
1000
0100
1000
0100
,
0100
0010
0100
0010
,
0001
0010
0100
0010
,
0001
0010
0100
0010
,
0100
0010
0001
0101
,
1000
0100
1000
0100
,
0010
0100
0010
0100
,
1100
0100
0010
0001
,
0100
0010
0100
0010
,
0010
0000
0001
0010
0000
0000
0100
0000
0010
0000
0000
0100
,
0000
0000
1000
0000
0000
0100
0000
0000
0000
0100
0000
0000
,
0010
0001
0100
0010
,
0100
0010
0000
0100
,
0010
0001
0100
0001
,
0100
0001
0000
0010
,
0100
1000
0100
1000
,
0100
2000
3000
0100
,
0010
0000
0000
0001
0000
0100
0000
0000
0020
0000
0000
0000
,
0030
0000
0100
1000
,
0100
0010
0001
0100
,
0010
0000
0010
0100
,
1000
0100
1000
0100
,
0010
0001
0100
0001
,
0100
0000
0000
0001
0000
0000
0100
0000
0000
0010
0000
1000
,
0100
0000
0010
0001
0000
0010
0100
0000
1000
0001
0000
0000
,
0100
0010
0100
1000
,
0100
1000
0100
0010
,
0100
0010
0001
0100
,
0010
0100
0010
0001
,
0100
1000
0100
1000
,
0100
0010
0100
0010
,
0001
0100
0010
0100
,
1000
0000
0000
0100
0000
0000
0010
0001
0010
0100
0000
0000
,
0010
0100
1000
0100
,
1000
0100
0010
0001
,
0100
0010
0001
0100
,
0010
0000
0000
0100
0000
0000
0010
0000
0000
0100
0000
0010
,
0000
0000
0001
0000
0000
0100
0000
0000
2020
0000
0000
0000
,
3030
0100
0001
1000
,
0100
0010
0100
0001
,
0101
0010
0110
1000
,
1100
0000
0000
0100
0000
0000
0220
0000
0000
0330
0000
0010
,
0100
0000
0010
0100
0000
0010
1001
0000
0100
0010
0000
0000
,
2002
0000
3003
1000
,
0100
1000
0100
0010
,
0100
0010
0001
0101
,
0000
0000
2002
0000
0000
0000
3003
0000
0000
0100
0000
0000
,
1000
0100
0010
0001
,
0100
0000
0010
0100
,
0010
0000
0000
0001
0000
0100
0010
0000
0000
1000
0000
0000
,
0000
0000
2002
0000
0000
0000
3003
0000
0000
0001
0000
0000
,
0100
0010
0001
0100
,
0010
0000
0100
0010
,
0001
0100
0010
0110
,
0000
0000
2002
0000
0000
0000
3003
0000
0000
1000
0000
0000
,
0100
1000
0100
0010
,
0001
0100
0001
0100
,
0010
0001
0100
0010
,
0000
0000
0022
0000
0000
0000
0033
0000
0000
2002
0000
0000
,
0000
0000
0000
0000
,
0000
0000
0000
0000
,
3003
0000
0000
0000
;

//--------------- dance-single - Wrland ----------------
#NOTES:
     dance-single:
     Wrland:
     Hard:
     12:
     0,0,0,0,0:
0000
0000
0000
0000
,
0000
0000
0000
0000
,
0000
0000
0000
0000
,
0000
0000
0000
0000
0000
0000
0000
0000
0000
0000
0000
0100
,
0010
0000
1000
0100
0000
1000
0001
1000
0001
0110
0000
0000
,
0100
0000
0000
0010
0000
0000
0001
0000
0100
0000
0000
0010
,
0000
0000
0100
0000
0000
2000
0000
3000
0000
0100
0000
0000
,
0010
0000
0000
0001
0000
1000
0000
0000
0100
0000
0000
1000
,
0000
0000
0200
0000
0300
0000
0100
0000
0000
0010
0000
0000
,
0001
0000
0000
0100
0000
0000
0010
0000
0100
0000
0000
0010
,
0000
0000
0001
0000
0000
0200
0000
0300
0000
0010
0000
0000
,
0100
0000
0000
1000
0000
0000
0100
0000
1000
0000
0000
0100
,
0000
0000
2000
0000
0000
3000
0000
0000
0000
0100
0000
0000
,
0010
0000
0000
0001
0000
0000
0100
0000
0010
0000
0000
0100
,
0000
0000
1000
0000
0000
0200
0000
0300
0000
1000
0000
0000
,
0100
0000
0010
0000
0000
0001
0000
0000
1000
0000
0000
0010
,
0000
0000
0100
0000
0000
0000
0010
0000
1000
0001
0000
0000
,
0100
0000
0001
0100
0000
0000
0010
0000
1000
0000
0000
0100
,
0000
0000
1000
0000
0000
0200
0000
0300
0000
0010
0000
0000
,
0001
0000
0100
0000
0000
0001
0000
0000
1000
0000
0000
0001
,
0000
0000
0100
0000
0000
0000
0010
0001
0010
0100
0000
0000
,
0010
0100
0010
0001
,
0100
0000
0000
0020
0000
0030
0100
0000
0100
0010
0000
0000
,
0001
1000
0001
1000
,
0100
0000
0000
1000
0000
0000
0100
0010
0001
0200
0000
0300
,
0020
0000
0030
0100
0000
0020
0000
0030
0001
0000
0000
1000
,
0100
0000
0000
0010
0000
0000
0100
0010
0001
0100
0000
0000
,
0010
1010
0100
0101
,
0010
0000
0000
0110
0000
0000
0001
0000
0000
0022
0000
0033
,
0200
0000
0300
0020
0000
0030
0200
0000
0300
1000
0000
0100
,
0010
0000
0000
0001
0000
0100
0001
0000
0000
0101
0000
0000
,
1000
0000
0000
0100
0000
0000
0010
0000
0000
0001
0000
0001
,
0100
0000
0010
1000
0000
0100
0010
0000
0001
0100
0000
0000
,
0010
0000
0000
0100
0000
0000
0010
0000
0001
0000
0000
1000
,
0000
0000
0100
0000
0000
0020
0000
0030
0000
0001
0000
0000
,
0100
0000
0000
0001
0000
0000
0010
0000
0100
0000
0000
1000
,
0000
0000
0200
0000
0300
0000
0010
0000
0000
0001
0000
0000
,
0100
0000
0000
1000
0000
0000
0010
0000
0000
0100
0000
0000
0000
0000
0000
0000
0010
0000
0000
0000
0000
0000
0001
0000
,
0000
0000
0010
0000
0000
0200
0000
0300
0000
0010
0000
0000
,
0100
0000
0000
0010
0000
0000
0001
0000
0100
0000
0000
0010
,
0000
0000
0100
0000
0000
0000
1000
0100
0010
0001
0000
0000
,
0010
0000
0000
0100
0000
0000
0010
0000
0001
0000
0000
0100
,
0000
0000
0020
0000
0030
0000
0100
0000
0000
1000
0000
0000
,
0100
0000
0000
1000
0000
0000
0100
0000
0010
0000
0000
0001
,
0000
0000
0100
0000
0000
0000
0010
0100
0010
0001
0000
1000
,
0000
0000
0100
0000
0000
1000
0000
0000
2002
0000
0000
0000
,
3003
0000
0000
0100
0000
0000
0010
0000
0001
0100
0000
0000
,
0010
0100
0010
0001
,
1001
0000
0000
1000
0000
0100
1000
0000
0000
0100
0000
0010
,
0100
0000
0000
0001
0000
0100
0001
0000
0000
0000
0000
0001
,
1000
0000
0100
0010
0000
0001
0010
0000
0100
0010
0000
0000
,
2000
0000
3000
0100
0000
0010
0100
0000
0000
0001
0000
0100
,
0001
0000
0000
0010
0000
0100
0010
0000
0000
1000
0000
0100
,
0010
0000
0000
0001
0000
0100
0001
0000
0000
2002
0000
0000
,
3003
0000
2200
0000
0000
3300
0000
0000
0000
0100
0000
0000
,
0010
0001
0100
0001
,
0010
0000
0000
0100
0000
0000
1000
0000
0000
0100
0000
1000
,
0100
0000
0000
0100
0000
0010
0100
0000
0000
2002
0000
0000
,
3003
0000
0202
0000
0000
0303
0000
0000
0000
0010
0000
0000
,
0100
1000
0100
1000
,
0100
0000
0000
0001
0000
0000
0100
0000
0000
0010
0000
0100
,
0010
0000
0000
0001
0000
0100
0001
0000
0000
0202
0000
0000
,
0303
0000
2200
0000
0000
3300
0100
0000
0001
0010
0000
0000
,
0010
0100
1000
0100
,
0001
0000
0000
0100
0000
0000
0010
0000
0000
0100
0000
0010
,
0100
0000
0000
0001
0000
0100
0001
0000
0000
0202
0000
0000
,
0303
0000
2020
0000
0000
3030
0000
0000
0000
2002
0000
0000
,
0000
0000
0000
0000
,
0000
0000
0000
0000
,
3003
0000
0000
0000
;
