#VERSION:0.83;
#TITLE:傷口 -KIZUGUCHI-;
#SUBTITLE:;
#ARTIST:avenew feat. 佐倉紗織;
#TITLETRANSLIT:-KIZUGUCHI-;
#SUBTITLETRANSLIT:;
#ARTISTTRANSLIT:avenew feat. Saori Sakura;
#GENRE:J-Pop;
#CREDIT:Wrland;
#MUSIC:-KIZUGUCHI-.ogg;
#BANNER:-KIZUGUCHI-.png;
#BACKGROUND:BG.png;
#CDTITLE:Wrland Season 3 CITYGHT + last one night.png;
#SAMPLESTART:97.807;
#SAMPLELENGTH:20.000;
#SELECTABLE:YES;
#OFFSET:0.000;
#BPMS:0.000=75.200
,4.000=130.000
;
#STOPS:;
#DISPLAYBPM:130.000;
#JACKET:-KIZUGUCHI--jacket.png;
#CDIMAGE:-KIZUGUCHI--cd.png;
#BGCHANGES:0.000=-KIZUGUCHI-.avi=0.000=0=0=0=StretchNoLoop====,
99999=-nosongbg-=1.000=0=0=0 // don't automatically add -songbackground-
;
#FGCHANGES:;

//--------------- dance-single - Wrland ----------------
#NOTEDATA:;
#STEPSTYPE:dance-single;
#DESCRIPTION:Wrland;
#DIFFICULTY:Beginner;
#METER:3;
#RADARVALUES:0,0,0,0,0;
#NOTES:
0000
0000
0000
0000
,
0000
0000
0000
0000
,
0000
0000
0000
0000
,
0000
0000
0000
0000
,
0000
0000
0000
0000
,
0000
0000
0000
0000
,
0000
0000
0000
0000
,
1000
0000
1000
0000
,
0001
0000
0001
0000
,
1000
0000
0001
0000
,
1000
0000
0100
0000
,
1000
0000
1000
0000
,
0100
0000
0100
0000
,
0010
0000
0010
0000
,
0001
0000
0001
0000
,
1000
0000
1000
0000
,
0001
0000
0001
0000
,
1000
0000
0100
0000
,
1000
0000
0100
0000
,
0220
0000
0000
0330
,
1000
0000
0100
0000
,
1000
0000
0100
0000
,
0010
0000
0001
0000
,
0100
0000
0010
0000
,
0100
0000
0010
0000
,
0100
0000
1000
0000
,
0100
0000
0010
0000
,
2002
0000
0000
3003
,
0001
0000
0100
0000
,
0010
0000
0100
0000
,
1000
0000
0100
0000
,
1000
0000
0010
0000
,
0100
0000
0001
0000
,
0010
0000
0100
0000
,
1000
0000
0100
0000
,
0010
0000
0001
0000
,
0010
0000
0100
0000
,
1000
0000
0100
0000
,
1000
0000
0100
0000
,
0010
0000
0001
0000
,
0100
0000
0010
0000
,
0100
0000
0000
0000
1000
0000
0000
0220
,
0000
0000
0000
0330
,
0010
0000
0100
0000
,
0010
0000
0001
0000
,
0100
0000
1000
0000
,
0100
0000
0010
0000
,
0100
0000
0001
0000
,
0010
0000
0100
0000
,
1000
0000
0001
0000
,
1000
0000
0001
0000
,
0100
0000
0010
0000
,
0100
0000
0010
0000
,
0101
0000
0010
0000
,
1100
0000
0100
0000
,
0010
0000
0001
0000
,
0100
0000
1000
0000
,
0100
0000
1000
0000
,
0100
0000
0001
0000
,
0101
0000
0010
0000
,
1010
0000
0100
0000
,
0100
0000
1000
0000
,
0100
0000
0010
0000
,
0001
0000
0100
0000
,
0010
0000
0100
0000
,
1001
0000
1000
0000
,
0100
0000
1000
0000
,
0110
0000
0001
0000
,
0010
0000
0100
0000
,
0101
0000
0010
0000
,
1000
0000
0100
0000
,
1100
0000
0100
0000
,
1000
0000
0100
0000
,
0011
0000
0001
0000
,
0010
0000
0100
0000
,
0110
0000
1000
0000
,
1001
0000
0110
0000
,
0001
0000
0010
0000
,
0100
0000
1000
0000
,
0100
0000
1000
0000
,
0100
0000
0010
0000
,
0101
0000
0010
0000
,
0100
0000
1000
0000
,
0110
0000
1000
0000
,
0100
0000
0010
0000
,
0101
0000
0010
0000
,
0100
0000
1000
0000
,
0110
0000
1000
0000
,
0001
0000
1000
0000
,
2002
0000
0000
0000
,
0000
0000
0000
0000
,
0000
0000
0000
0000
,
0000
0000
0000
0000
,
0000
0000
0000
0000
,
3003
0000
0000
0000
;

//--------------- dance-single - Wrland ----------------
#NOTEDATA:;
#STEPSTYPE:dance-single;
#DESCRIPTION:Wrland;
#DIFFICULTY:Easy;
#METER:6;
#RADARVALUES:0,0,0,0,0;
#NOTES:
0000
0000
0000
0000
,
0000
0000
0000
0000
,
0000
0000
0000
0000
,
0000
0000
0000
0000
,
0000
0000
0000
0000
,
0000
0000
0000
0000
,
0000
0000
0000
0000
,
1000
1000
1000
0100
,
2200
3300
0220
0330
,
0001
0001
0001
0001
,
0002
0003
0022
0033
,
0100
0010
0100
0010
,
0200
0300
0220
0330
,
0001
0100
0001
0100
,
0002
0003
0202
0303
,
1000
0100
1000
0100
,
2000
3000
2200
3300
,
0100
0010
0100
0010
,
0002
0003
2200
3300
,
0202
0000
0000
0303
,
1000
0100
1000
0000
,
0100
0000
0010
0000
0001
0100
0000
0000
,
0001
0000
0010
0000
0100
1000
0000
0000
,
0100
1000
0100
0010
,
0001
0100
0010
0000
,
0100
0000
1000
0000
,
0100
1000
0200
0300
,
0220
0000
0000
0330
,
0001
0100
0002
0003
,
0010
0000
0100
0000
1000
0100
0000
0000
,
0100
0000
1000
0000
0100
1000
0000
0000
,
0100
0010
0001
0100
,
0001
0010
0200
0300
,
1000
0100
1000
0100
,
0010
0000
0001
0100
0002
0000
0003
0000
,
0010
0100
1000
0100
,
1000
0000
0100
0000
0010
0001
0000
0100
,
0010
0100
1000
0100
,
1000
0000
0100
1000
0100
0000
0100
0000
,
0010
0000
0001
0100
0000
0001
0100
0010
,
0100
0000
0010
0000
0100
0010
0000
0001
,
0100
0000
0010
0000
1000
0100
1000
0200
,
0300
0100
0010
0100
,
0010
0000
0100
0000
0001
0100
0000
0001
,
0100
1000
0100
1000
,
0010
0000
0100
0010
0000
0001
0100
0000
,
0001
0000
0010
0000
0100
0000
1000
0100
,
1000
0000
0100
0000
1000
0000
0100
1000
,
0100
0010
0001
0100
,
1000
0000
0000
0100
0010
0000
0001
0000
,
0100
0000
0010
0100
0010
0000
0001
0000
,
0100
1000
0100
1000
,
0100
1000
0000
0100
0010
0000
0001
0000
,
0100
0000
0010
0100
0000
0001
0100
0000
,
0011
1100
0110
0100
,
0010
0000
0001
0000
0100
0001
0000
0000
,
0100
0000
1000
0000
0100
1000
0000
0100
,
1000
0100
0010
0001
,
0100
0010
0100
1000
,
0100
0000
0100
1000
0000
0100
0010
0000
,
0001
0000
0100
0001
0000
0010
0100
0000
,
1000
0100
1000
0100
,
0010
0001
0100
0010
,
0200
0300
0020
0030
,
0200
0000
0300
0000
1000
0000
0100
1000
,
0100
0100
0010
0001
,
0100
0010
0100
1000
,
0100
1000
0100
0010
,
0002
0003
0200
0300
,
0010
0001
0100
0010
,
0100
0010
0001
0100
,
0020
0000
0000
0030
2000
0000
0000
3000
,
0100
0000
1000
0000
0100
1000
0000
0100
,
0010
0001
0100
0001
,
0010
0100
1000
0100
,
2000
0000
0000
3000
0100
1000
0000
0100
,
0010
0001
0100
0010
,
0100
0000
0010
0000
0001
0100
0000
0010
,
0100
0000
1000
0000
0100
1000
0000
0100
,
0010
0000
0001
0000
0100
0010
0000
0100
,
1000
0000
0100
0000
0010
0001
0000
0100
,
0020
0030
0200
0300
,
0020
0030
0220
0330
,
2000
0000
3000
0000
0002
0000
0000
0003
,
2000
3000
2002
3003
,
0002
0000
0000
0003
0200
0000
0000
0300
,
0002
0000
0003
0000
0202
0000
0000
0303
,
0020
0000
0000
0030
0200
0000
0000
0300
,
0020
0000
0000
0030
0200
0000
0300
0000
,
0220
0000
0000
0000
,
0000
0000
0000
0000
,
0000
0000
0000
0000
,
0000
0000
0000
0000
,
0000
0000
0000
0000
,
0330
0000
0000
0000
;

//--------------- dance-single - Wrland ----------------
#NOTEDATA:;
#STEPSTYPE:dance-single;
#DESCRIPTION:Wrland;
#DIFFICULTY:Medium;
#METER:9;
#RADARVALUES:0,0,0,0,0;
#NOTES:
0000
0000
0000
0000
,
0000
0000
0000
0000
,
0000
0000
0000
0000
,
0000
0000
0000
0000
,
0000
0000
0000
0000
,
0000
0000
0000
0000
,
0000
0000
0000
0000
,
1000
0000
0000
0100
0000
0000
2000
0000
3000
0000
0000
0000
0100
0000
1000
0000
,
0100
0000
0000
0010
0000
0000
0200
0000
0000
0000
0300
0000
0001
0000
0100
0000
,
0001
0000
0000
0100
0000
0000
0020
0000
0000
0000
0030
0000
0100
0000
1000
0000
,
0100
0000
0000
1000
0000
0000
0200
0000
0300
0000
0000
0000
0100
0000
0010
0000
,
0001
0000
0000
0100
0000
0000
0002
0000
0000
0000
0003
0000
0010
0000
0100
0000
,
0010
0000
0000
0100
0000
0000
0020
0000
0000
0000
0030
0000
0001
0000
0100
0000
,
0010
0000
0000
0100
0000
0000
2000
0000
0000
0000
3000
0000
0100
0000
1000
0000
,
0100
0000
0000
1000
0000
0000
0200
0000
0000
0000
0300
0000
0100
0000
0010
0000
,
0001
0000
0000
0001
0000
0000
0002
0000
0000
0000
0003
0000
0001
0000
0100
0000
,
0010
0000
0000
0010
0000
0000
0020
0000
0000
0000
0030
0000
0100
0000
1000
0000
,
0100
0000
0000
0100
0000
0000
0200
0000
0000
0000
0300
0000
1000
0000
0100
0000
,
1000
0000
0000
1000
0000
0000
2000
0000
0000
0000
3000
0000
0100
0000
0010
0000
,
0200
0000
0000
0300
,
0010
0000
0000
0100
0000
0000
0010
0000
0002
0000
0003
0000
0100
0000
0000
0000
,
1000
0000
0100
1000
0110
0000
0220
0330
,
0001
0000
0100
0001
0200
0300
0110
0000
,
0200
0300
0020
0030
0100
1000
0100
1000
,
0200
0300
0020
0030
0002
0000
0003
1000
,
0200
0300
2000
3000
0100
1000
0200
0300
,
0010
0000
0000
0001
0000
0000
0100
0000
0002
0000
0003
0000
0200
0000
0300
0000
,
0020
0030
0100
1000
0000
0100
1000
0000
,
0100
0000
0000
0010
0000
0000
0100
0000
0020
0000
0000
0000
0030
0000
0000
0000
,
0010
0000
0100
0001
0200
0300
0220
0330
,
0002
0003
1000
0001
2000
3000
0100
1000
,
0200
0300
0020
0030
0100
0001
0100
0001
,
0200
0300
0220
0330
2002
0000
3003
0000
,
2000
3000
0200
0300
0010
0100
0020
0030
,
0200
0000
0300
0001
0000
0000
0100
0000
0020
0000
0000
0000
0030
0000
0000
0000
,
2000
3000
0020
0030
0100
0010
0200
0300
,
0001
0000
0001
0002
0003
0100
0020
0030
,
2000
3000
0100
1000
2000
3000
0200
0300
,
0020
0000
0030
0000
0100
0000
0010
0000
0100
0000
0010
0000
0100
0000
0001
0200
,
0000
0300
0010
2000
3000
0010
0100
0001
,
2000
3000
0020
0030
0100
0020
0030
0100
,
0020
0030
0200
0300
0001
0100
0001
0200
,
0300
0010
0100
0010
0001
0100
0010
1000
,
0100
0000
1000
0200
0300
0000
0010
0000
0100
0000
0010
0100
0000
0000
0010
0000
,
0002
0000
0003
0000
0100
0000
1000
0100
0000
0000
0010
0000
0100
0000
0010
0000
,
0002
0000
0003
0000
0100
0000
0001
0100
0000
0000
0001
0000
0100
0000
1000
0000
,
0100
0000
1000
0200
0000
0000
0000
0000
0000
0000
0300
0000
0010
0100
0010
0100
,
0020
0000
0030
0000
0001
0000
1000
0001
0000
0000
0100
0000
1000
0000
0100
0000
,
2000
0000
3000
0000
0100
0000
1000
0100
0001
0000
0010
0000
0100
0000
0010
0000
,
0002
0003
0100
1000
0200
0300
0020
0030
,
0002
0003
1000
0001
1000
0001
1000
0001
,
1000
0000
0001
1000
0000
0000
0100
0000
1000
0000
0100
2000
0000
3000
0100
0000
,
0020
0000
0030
0000
0001
0000
0100
0001
0000
0000
0010
0000
0100
0000
1000
0000
,
0200
0000
0300
0000
0100
0000
0010
0200
0000
0300
0010
0000
0002
0000
0003
0000
,
0101
0000
0000
1010
0000
0000
2002
0000
0000
0000
3003
0000
0100
0000
0010
0000
,
1000
0000
0100
2000
0000
0000
0000
0000
0000
0000
0000
0000
3000
0000
0000
0000
,
2000
0000
3000
0000
0100
0000
0010
0000
0002
0003
0000
0000
2002
0000
3003
0000
,
0100
0000
1000
0200
0000
0000
0300
0000
0010
0000
0001
0200
0000
0300
0010
0000
,
0200
0000
0000
0300
0010
0000
0100
0020
0000
0030
0001
0000
1000
0000
0001
0000
,
2000
0000
3000
0000
0100
1000
0100
1000
0100
0000
0010
0000
0100
0000
0010
0000
,
1001
0000
0000
1010
0000
0000
2200
0000
0000
3300
0000
0000
0100
0000
0010
0000
,
0001
0000
0100
0002
0000
0000
0003
0000
0001
0000
0100
0000
0010
0000
0200
0000
,
0000
0000
0300
0000
2000
0000
3000
0000
0200
0000
0300
1000
0000
0000
0100
0000
,
2000
3000
0100
0020
0030
0001
0200
0300
,
0020
0030
0001
0200
0300
0010
0200
0300
,
1000
0000
0100
1000
0100
1000
1100
0000
,
0100
0010
0001
0100
0001
0100
0101
0000
,
0010
0000
0001
0010
0001
0010
0011
0000
,
0100
0010
1000
0100
0010
0001
1100
0000
,
0100
0000
0010
0001
0100
0001
0101
0000
,
0001
1000
0010
1000
0010
1000
1010
0000
,
0100
0010
0001
0000
0100
1000
0100
0000
,
0010
0001
0100
0000
0010
0100
0001
0000
,
0100
1000
0100
1000
0100
1000
1100
0000
,
0100
0010
0001
0100
0001
0100
0101
0000
,
0010
0000
0000
0000
0100
0000
0010
0100
0000
0000
0010
0000
0001
0000
1000
0000
,
1001
0000
0000
0110
0000
0000
1001
0000
0000
0110
0000
0000
1001
0000
1001
0000
,
2000
3000
0100
1000
0100
0000
0100
0010
,
0002
0003
0200
0300
0020
0030
1000
0100
,
0010
0000
0001
0100
0000
0010
0100
0010
,
0001
0000
0100
0010
0002
0003
1000
0000
,
2000
3000
0000
1000
0000
0000
0001
1000
,
0002
0003
0000
0001
0000
0000
0001
1000
,
2000
3000
0000
1000
0000
0000
1000
0100
,
2000
3000
0000
1000
0000
0000
0100
1000
,
0200
0300
0000
0100
0000
0000
0000
0000
,
0020
0030
0000
0010
0000
0000
0010
0100
,
0020
0030
0000
0001
0000
0000
0000
0000
,
0001
0000
0000
0100
0000
0000
0001
0000
0000
0000
0000
0000
0100
0000
1000
0000
,
0220
0000
0000
0000
,
0000
0000
0000
0000
,
0000
0000
0000
0000
,
0000
0000
0000
0000
,
0000
0000
0000
0000
,
0330
0000
0000
0000
;

//--------------- dance-single - Wrland ----------------
#NOTEDATA:;
#STEPSTYPE:dance-single;
#DESCRIPTION:Wrland;
#DIFFICULTY:Hard;
#METER:12;
#RADARVALUES:0,0,0,0,0;
#NOTES:
0000
0000
0000
0000
,
0000
0000
0000
0000
,
0000
0000
0000
0000
,
0000
0000
0000
0000
,
0000
0000
0000
0000
,
0000
0000
0000
0000
,
0000
0000
0000
0000
,
2000
0000
3000
0200
0000
0000
0300
0000
,
2000
0000
3000
0200
0300
0000
0100
0010
,
0002
0003
0000
0002
0000
0000
0003
0000
,
0002
0000
0003
0200
0000
0300
0010
0100
,
0020
0000
0030
0200
0000
0000
0300
0000
,
0200
0000
0300
2000
0000
3000
1000
0100
,
0020
0000
0030
0002
0000
0000
0003
0000
,
0002
0000
0003
0200
0000
0000
0300
0010
,
0200
0000
0300
0020
0000
0000
0030
0000
,
0002
0000
0003
0200
0000
0300
1000
0100
,
0220
0000
0330
0002
0000
0000
0003
0000
,
0002
0000
0003
0020
0000
0030
0100
1000
,
0100
0000
0000
0000
1000
0000
0100
0000
0010
1000
0000
0100
0000
0000
0010
0000
,
0200
0000
0300
0010
0000
0000
0001
0000
0100
0000
0010
0000
1000
0000
0100
0000
,
1000
0000
0100
0000
0010
0000
0001
0200
0000
0000
0000
0000
0300
0000
0010
0000
,
0100
0000
0010
0000
0001
0000
0100
0002
0000
0000
0000
0000
0003
0000
0100
0000
,
0020
0030
0200
0300
1000
0100
1000
0100
,
0020
0030
0200
0300
0200
0300
0000
0100
,
0010
0000
0001
0000
0100
0000
0001
0000
0100
0001
0000
0100
0000
0000
1000
0000
,
0200
0000
0300
0020
0000
0030
0100
0000
0020
0000
0030
0000
0001
0000
0000
0000
,
2002
0000
3003
0000
0100
0000
1000
0000
0100
0010
0000
0100
0000
0000
0010
0000
,
0002
0000
0003
0100
0000
0000
1000
0000
0200
0000
0000
0000
0300
0000
1000
0000
,
0100
0000
1000
0000
0100
0000
1000
0200
0000
0000
0300
0000
0000
0000
0100
0000
,
0010
0000
0001
0000
0100
0000
0001
0200
0000
0000
0000
0000
0300
0000
0010
0000
,
0200
0300
0020
0030
0001
0100
0001
0010
,
0200
0300
2000
3000
0200
0000
0300
1000
,
0100
0000
1000
0000
0100
0000
0010
0000
0100
0010
0000
0100
0000
0000
0010
0000
,
0002
0000
0003
0200
0000
0300
0001
0000
0200
0000
0000
0000
0000
0000
0300
0000
,
0002
0000
0003
0000
0020
0000
0030
0000
0100
0000
1000
0000
0200
0000
0300
2000
,
0000
0000
3000
0000
0200
0000
0300
0000
1000
0000
0100
0000
0010
0000
0001
0200
,
0000
0000
0300
0000
0010
0000
0100
0000
0010
0000
0100
0000
0010
0000
0001
0100
,
0020
0000
0030
0000
0100
0000
1000
0000
0100
0000
1000
0000
0100
0000
0010
0200
,
0000
0300
0010
0100
0000
0010
0100
0010
,
0002
0000
0003
0000
0200
0000
0000
0300
1000
0000
0200
0000
0000
0300
2000
0000
,
0000
3000
0200
0300
1000
0100
1000
0200
,
0300
0000
0100
0010
0001
0100
0001
0100
,
0001
0000
0100
0002
0000
0003
0010
0000
0100
0000
1000
0200
0000
0300
0100
0001
,
0020
0000
0030
0000
0010
0000
0100
0020
0000
0030
1000
0000
0100
0000
1000
0000
,
0200
0000
0300
0000
0100
0000
0010
0200
0000
0300
0010
0000
0001
0000
0100
0000
,
0001
0000
0100
0002
0000
0000
0000
0000
0003
0000
0000
0000
0010
0100
0010
0100
,
0020
0000
0030
0000
0100
0000
1000
0200
0000
0000
0300
0000
0010
0000
0100
0000
,
0020
0000
0030
0000
0001
0000
0100
0000
0001
0000
0100
0010
0000
0000
0100
0000
,
0020
0000
0030
0100
0020
0030
0002
0003
,
0100
0010
1000
0100
1000
0100
0110
0110
,
1001
0000
1000
0001
0000
0000
1000
0000
0100
0000
1000
0100
0000
0000
0100
0001
,
0020
0000
0030
0000
0100
0000
0010
0100
0000
0000
0010
0000
0100
0000
0010
0000
,
0002
0000
0003
0000
0100
0000
0001
0100
0000
0000
0001
0000
0100
0000
1000
0000
,
0110
0000
0000
0110
0000
0000
0022
0000
0000
0000
0033
0000
0100
0000
1000
0000
,
0100
0000
1000
0200
0000
0000
0000
0000
0000
0000
0000
0000
0300
0000
0000
0000
,
0220
0000
0330
0001
1000
0100
1000
0100
,
1000
0000
0100
1000
0000
0000
0100
0000
0010
0000
0001
0100
0000
0000
0010
1000
,
0200
0000
0300
0000
0010
0000
0100
0010
0000
0000
0001
0000
0100
0000
0001
0000
,
0200
0000
0300
0000
0010
0100
0010
0100
0001
0000
0010
0000
0100
0000
1000
0000
,
0101
0000
0000
1010
0000
0000
0202
0000
0000
0000
0303
0000
0010
0000
0100
0000
,
0010
0000
0100
0020
0000
0000
0000
0000
0030
0000
0001
0000
0100
0000
0002
0000
,
0000
0000
0003
0000
0020
0000
0030
0000
0200
0000
0300
1000
0000
0000
0100
0000
,
2000
3000
0200
0300
0010
0001
0200
0300
,
0010
0100
0010
0001
0100
0010
0100
0010
,
0200
0300
0010
0100
0020
0030
0001
0100
,
2000
3000
0100
1000
0200
0300
0100
0010
,
0002
0000
0003
0000
0100
0001
0100
0001
0200
0000
0300
0000
0010
0000
0100
0000
,
2000
0000
3000
0000
0100
1000
0100
1000
0200
0000
0300
0000
0010
0000
0100
0000
,
0020
0030
0001
0100
0020
0030
1000
0100
,
2000
3000
0100
0010
0002
0003
0100
0010
,
0002
0003
0100
0010
0200
0300
1000
0100
,
0020
0030
0001
0100
0101
0101
0101
0101
,
0202
0303
0010
1000
0200
0300
0100
1000
,
0200
0300
0010
0001
0200
0300
1000
0100
,
2000
0000
3000
0000
1000
0100
1000
0100
2000
0000
3000
0000
0100
0000
0010
0000
,
1001
0000
0000
0110
0000
0000
1001
0000
0000
1100
0000
0000
1010
0000
0101
0000
,
0010
0100
0010
0001
0100
0001
2000
3000
,
0100
1000
0100
0010
0001
0100
0002
0003
,
0100
0001
0100
0001
0200
0000
0300
0000
1000
0100
1000
0100
2000
0000
3000
0000
,
0100
0010
0100
0010
0200
0000
0300
0000
0001
0100
0001
0100
0002
0000
0003
0000
,
2002
0000
0000
3003
,
2200
0000
0000
0000
3300
0000
0110
0110
,
2002
0000
0000
3003
,
0202
0000
0000
0000
0303
0000
0110
0110
,
0202
0000
0303
2000
0000
3000
0200
0000
0000
0000
0300
0000
1000
0000
0100
0000
,
0020
0000
0030
0002
0000
0003
0200
0000
0000
0000
0300
0000
0010
0000
0100
0000
,
2200
0000
3300
0200
0000
0300
0020
0000
0000
0000
0030
0000
0001
0000
0100
0000
,
0002
0000
0003
0200
0000
0300
0002
0000
0000
0000
0003
0000
0010
0000
0100
0000
,
2002
0000
0000
0000
,
0000
0000
0000
0000
,
0000
0000
0000
0000
,
0000
0000
0000
0000
,
0000
0000
0000
0000
,
3003
0000
0000
0000
;
