#TITLE:-Indefinitely-;
#SUBTITLE:;
#ARTIST:ALTIMA;
#TITLETRANSLIT:;
#SUBTITLETRANSLIT:;
#ARTISTTRANSLIT:;
#GENRE:J-Pop;
#CREDIT:;
#MUSIC:-Indefinitely-.ogg;
#BANNER:-Indefinitely-.png;
#BACKGROUND:-Indefinitely--bg.png;
#CDTITLE:Wrland Season 3 CITYGHT.png;
#SAMPLESTART:39.374;
#SAMPLELENGTH:12.000;
#SELECTABLE:YES;
#OFFSET:0.001;
#BPMS:0.000=144.000;
#STOPS:;
#JACKET:-Indefinitely--jacket.png;
#BGCHANGES:;
#FGCHANGES:;

//--------------- dance-single - ----------------
#NOTES:
     dance-single:
     :
     Beginner:
     1:
     0,0,0,0,0:
0000
0000
0000
0000
,
0000
0000
0000
0000
,
0000
0000
0000
0000
,
0000
0000
0000
0000
,
0000
0000
0000
0000
,
0000
0000
0000
0000
,
0000
0000
0000
0000
,
0000
0000
0000
0000
,
0100
0000
0000
0000
,
0000
0000
0000
0000
,
0010
0000
0000
0000
,
0000
0000
0000
0000
,
0100
0000
0000
0000
,
0000
0000
0000
0000
,
0010
0000
0000
0000
,
0000
0000
0000
0000
,
0001
0000
0000
0000
,
0000
0000
0000
0000
,
0001
0000
0000
0000
,
0000
0000
0000
0000
,
1000
0000
0000
0000
,
0000
0000
0000
0000
,
1000
0000
0000
0000
,
0000
0000
0000
0000
,
1001
0000
0000
0000
,
0000
0000
0000
0000
,
0100
0000
0000
0000
,
0000
0000
0000
0000
,
0110
0000
0000
0000
,
0000
0000
0000
0000
,
0010
0000
0000
0000
,
0000
0000
0000
0000
,
1000
0000
0000
0000
,
0000
0000
0000
0000
,
0100
0000
0000
0000
,
0000
0000
0000
0000
,
1000
0000
0000
0000
,
0000
0000
0000
0000
,
0010
0000
0000
0000
,
0000
0000
0000
0000
,
0100
0000
0000
0000
,
0000
0000
0000
0000
,
0010
0000
0000
0000
,
0000
0000
0000
0000
,
0100
0000
0000
0000
,
0000
0000
0000
0000
,
0010
0000
0000
0000
,
0000
0000
0000
0000
,
0001
0000
0000
0000
,
0000
0000
0000
0000
,
1000
0000
0000
0000
,
0000
0000
0000
0000
,
0100
0000
0000
0000
,
0000
0000
0000
0000
,
1000
0000
0000
0000
,
0000
0000
0000
0000
,
0100
0000
0000
0000
,
0000
0000
0000
0000
,
0010
0000
0000
0000
,
0000
0000
0000
0000
,
0100
0000
0000
0000
,
0000
0000
0000
0000
,
0000
0000
0000
0000
,
0000
0000
0000
0000
,
0000
0000
0000
0000
,
0000
0000
0000
0000
,
0000
0000
0000
0000
,
0000
0000
0000
0000
,
0000
0000
0000
0000
,
0000
0000
0000
0000
,
0001
0000
0000
0000
,
0000
0000
0000
0000
,
0100
0000
0000
0000
,
0000
0000
0000
0000
,
0010
0000
0000
0000
,
0000
0000
0000
0000
,
0110
0000
0000
0000
,
0000
0000
0000
0000
,
0010
0000
0000
0000
,
0000
0000
0000
0000
,
0101
0000
0000
0000
,
0000
0000
0000
0000
,
0001
0000
0000
0000
,
0000
0000
0000
0000
,
1001
0000
0000
0000
,
0000
0000
0000
0000
,
1000
0000
0000
0000
,
0000
0000
0000
0000
,
0101
0000
0000
0000
,
0000
0000
0000
0000
,
0100
0000
0000
0000
,
0000
0000
0000
0000
,
0000
0000
0000
0000
,
0000
0000
0000
0000
,
0000
0000
0000
0000
,
0000
0000
0000
0000
,
0000
0000
0000
0000
,
0000
0000
0000
0000
,
0000
0000
0000
0000
,
0000
0000
0000
0000
,
0100
0000
0000
0000
,
0000
0000
0000
0000
,
0010
0000
0000
0000
,
0000
0000
0000
0000
,
0100
0000
0000
0000
,
0000
0000
0000
0000
,
0010
0000
0000
0000
,
0000
0000
0000
0000
,
1001
0000
0000
0000
;

//--------------- dance-single - ----------------
#NOTES:
     dance-single:
     :
     Easy:
     2:
     0,0,0,0,0:
0000
0000
0000
0000
,
0000
0000
0000
0000
,
0000
0000
0000
0000
,
0000
0000
0000
0000
,
0000
0000
0000
0000
,
0000
0000
0000
0000
,
0000
0000
0000
0000
,
0000
0000
0000
0000
,
0100
0000
0000
0000
,
0001
0000
0000
0000
,
0100
0000
0000
0000
,
0001
0000
0000
0000
,
0100
0000
0000
0000
,
0010
0000
0000
0000
,
1000
0000
0000
0000
,
0010
0000
0000
0000
,
0100
0000
0000
0000
,
0100
0000
0000
0000
,
0010
0000
0000
0000
,
0010
0000
0000
0000
,
0100
0000
0000
0000
,
0100
0000
0000
0000
,
1000
0000
0000
0000
,
0100
0000
0000
0000
,
0110
0000
0000
0000
,
0010
0000
0000
0000
,
0100
0000
0000
0000
,
1000
0000
0000
0000
,
1001
0000
0000
0000
,
0100
0000
0000
0000
,
0010
0000
0000
0000
,
0100
0000
0000
0000
,
1100
0000
0000
0000
,
0100
0000
0000
0000
,
0100
0000
0000
0000
,
0010
0000
0000
0000
,
0001
0000
0000
0000
,
0100
0000
0000
0000
,
0010
0000
0000
0000
,
0100
0000
0000
0000
,
1000
0000
0000
0000
,
0100
0000
0000
0000
,
1000
0000
0000
0000
,
1100
0000
0000
0000
,
0010
0000
0000
0000
,
0100
0000
0000
0000
,
0010
0000
0000
0000
,
0101
0000
0000
0000
,
0010
0000
0000
0000
,
0100
0000
0000
0000
,
0010
0000
0000
0000
,
0100
0000
0000
0000
,
1000
0000
0000
0000
,
0100
0000
0000
0000
,
0010
0000
0000
0000
,
0100
0000
0000
0000
,
0001
0000
0000
0000
,
0100
0000
0000
0000
,
0010
0000
0000
0000
,
0100
0000
0000
0000
,
1000
0000
0000
0000
,
0010
0000
0000
0000
,
0000
0000
0000
0000
,
0000
0000
0000
0000
,
0000
0000
0000
0000
,
0000
0000
0000
0000
,
0000
0000
0000
0000
,
0000
0000
0000
0000
,
0000
0000
0000
0000
,
0000
0000
0000
0000
,
0001
0000
0000
0000
,
1000
0000
0000
0000
,
0001
0000
0000
0000
,
1000
0000
0000
0000
,
0100
0000
0000
0000
,
0010
0000
0000
0000
,
0101
0000
0000
0000
,
0010
0000
0000
0000
,
1000
0000
0000
0000
,
0100
0000
0000
0000
,
1010
0000
0000
0000
,
0010
0000
0000
0000
,
0100
0000
0000
0000
,
0001
0000
0000
0000
,
1001
0000
0000
0000
,
1000
0000
0000
0000
,
0100
0000
0000
0000
,
1000
0000
0000
0000
,
0010
0000
0000
0000
,
0100
0000
0000
0000
,
1001
0000
0000
0000
,
1000
0000
0000
0000
,
0000
0000
0000
0000
,
0000
0000
0000
0000
,
0000
0000
0000
0000
,
0000
0000
0000
0000
,
0000
0000
0000
0000
,
0000
0000
0000
0000
,
0000
0000
0000
0000
,
0000
0000
0000
0000
,
0010
0000
0000
0000
,
0100
0000
0000
0000
,
0010
0000
0000
0000
,
0100
0000
0000
0000
,
0001
0000
0000
0000
,
1000
0000
0000
0000
,
0001
0000
0000
0000
,
1000
0000
0000
0000
,
1001
0000
0000
0000
;

//--------------- dance-single - ----------------
#NOTES:
     dance-single:
     :
     Medium:
     5:
     0,0,0,0,0:
0000
0000
0000
0000
,
0000
0000
0000
0000
,
0000
0000
0000
0000
,
0000
0000
0000
0000
,
0000
0000
0000
0000
,
0000
0000
0000
0000
,
0000
0000
0000
0000
,
0000
0000
0000
0000
,
1000
0000
0100
0000
,
1000
0000
0100
0000
,
0010
0000
0100
0000
,
0010
0000
0100
0000
,
0001
0000
0100
0000
,
0001
0000
0100
0000
,
0010
0000
0100
0000
,
0010
0000
0100
0000
,
0001
0000
1000
0000
,
0100
0000
1000
0000
,
0100
0000
0010
0000
,
0100
0000
0010
0000
,
0001
0000
0100
0000
,
0010
0000
0100
0000
,
0010
0100
0010
0000
,
0001
0000
0000
1000
0000
0000
1001
0000
0000
0000
0000
0000
0000
0000
0000
0000
,
0100
0000
0010
0000
,
0100
0000
0010
0000
,
1001
0000
0100
0000
,
1000
0000
0100
0010
,
0100
0000
0010
0000
,
0001
0000
0100
0000
,
0010
0000
1000
0010
,
1000
0000
0100
0000
,
0101
0000
0010
0000
,
1010
0000
0100
0000
,
0100
0010
0100
0010
,
0100
0000
0100
0010
,
0001
0000
0100
1000
,
0100
0010
0100
0000
,
0100
0010
0100
0010
,
0001
0100
1000
0100
,
1000
0000
0100
0000
,
0010
0000
0100
0000
,
0010
0000
0100
0000
,
0001
0000
0100
0000
,
0010
0000
0100
0000
,
0010
0000
0100
0000
,
1000
0000
0100
0000
,
0010
0000
0100
0000
,
0100
0000
0010
0000
,
0100
0000
0010
0000
,
0001
0000
0100
0000
,
1000
0000
0100
0000
,
1001
0000
0010
0000
,
0100
0000
0010
0000
,
0100
0000
0010
0000
,
0100
0000
0010
0000
,
0001
0000
0100
0000
,
0010
0000
0100
0000
,
0010
0000
0001
0000
,
1000
0000
0001
0000
,
1000
0000
0001
0000
,
1000
0000
0000
0001
0000
0000
1001
0000
0000
0000
0000
0000
0000
0000
0000
0000
,
2000
0000
0000
0000
,
3000
0000
0000
0000
,
0002
0000
0000
0000
,
0003
0000
0000
0000
,
2000
0000
0000
0000
,
3000
0000
0000
0000
,
0020
0000
0000
0000
,
0030
0000
0000
0000
,
0100
0000
0010
0000
,
0100
0000
0010
0000
,
0001
0001
0010
0100
,
1000
0000
0000
1000
0100
0000
0100
0000
,
0010
0000
0100
0000
,
0100
0000
0000
0010
0000
0000
0110
0000
0000
0000
0000
0000
0000
0000
0000
0000
,
1001
0000
0100
0000
,
0010
0000
0100
0000
,
0010
0000
0100
0000
,
0001
0010
0100
1000
,
0100
0000
1000
0000
,
0100
0000
0010
0000
,
0100
0000
0010
0000
,
0001
1000
0001
1000
,
0100
0000
1000
0000
,
0010
0000
0100
0000
,
1000
0100
0001
0010
,
0100
0000
0000
0010
0100
0000
0010
0000
,
0100
0000
0010
0000
,
0100
0000
0000
0010
0000
0000
0110
0000
0000
0000
1000
0000
0001
0000
1000
0000
,
0001
0000
1000
0002
0000
0000
0000
0000
0000
0000
0000
0000
0003
0000
0000
0000
,
2002
0000
0000
0000
,
3003
0000
0000
0000
,
0000
0000
0000
0000
,
0000
0000
0000
0000
,
0000
0000
0000
0000
,
0000
0000
0000
0000
,
0000
0000
0000
0000
,
0000
0000
0000
0000
,
0000
0000
0000
0000
,
0200
0000
0000
0000
,
0300
0000
0000
0000
,
0020
0000
0000
0000
,
0030
0000
0000
0000
,
0200
0000
0000
0000
,
0300
0000
0000
0000
,
0020
0000
0000
0000
,
0030
0000
0000
0000
,
1001
0000
0000
0000
;

//--------------- dance-single - ----------------
#NOTES:
     dance-single:
     :
     Hard:
     8:
     0,0,0,0,0:
0000
0000
0000
0000
,
0000
0000
0000
0000
,
0000
0000
0000
0000
,
0000
0000
0000
0000
,
0000
0000
0000
0000
,
0000
0000
0000
0000
,
0000
0000
0000
0000
,
0000
0000
0000
0000
,
1000
0000
0001
0000
1000
0001
1000
0000
,
0001
0000
0100
0000
,
0100
0000
0010
0000
0100
0010
0100
0000
,
0010
0000
0010
0000
,
0100
0000
0010
0000
0100
0010
0001
0000
,
0100
0000
1000
0000
,
1000
0000
0100
0000
1000
0100
1000
0000
,
0100
0000
0010
0000
,
0100
0000
0000
0100
0000
0000
0100
0000
0000
0000
0010
0000
0100
0000
0010
0000
,
0001
0000
0000
0100
0000
0000
0010
0000
0000
0000
1000
0000
0100
0000
1000
0000
,
0100
0000
0000
0010
0000
0000
0100
0000
0000
0000
0010
0000
0100
0000
0010
0000
,
0100
0000
0000
0010
0000
0000
0100
0000
0000
0000
0001
0000
0100
0000
0001
0000
,
0100
0000
0000
0010
0000
0000
1000
0000
0000
0000
0010
0000
1000
0000
0010
0000
,
1000
0000
0000
0010
0000
0000
0100
0000
0000
0000
0001
0000
0100
0000
0001
0000
,
0100
0000
0001
0100
0001
0000
0100
0001
0000
0000
1000
0010
1000
0010
1000
0000
,
0011
0000
0000
0110
0000
0000
1001
0000
0000
0000
0100
0000
0010
0000
0100
0000
,
0020
0000
0030
0100
0010
0200
0300
0020
,
0000
0030
0200
0300
2000
3000
0100
2000
,
3000
0100
0020
0000
0030
0100
0010
0100
,
1000
0100
0010
0001
0100
0010
0100
1000
,
0200
0000
0300
0100
0010
0200
0300
0010
,
2000
0000
3000
0000
0200
0000
0300
0000
2000
0000
3000
0000
0000
0000
1000
0100
,
2000
0000
0000
0000
3000
0000
0100
0010
0100
0000
0010
0000
0001
0000
0100
0000
,
0020
0000
0030
0000
0200
0000
0300
0000
0010
0000
0000
0100
0000
0000
0010
0000
,
0200
0000
0000
0300
0000
0000
0000
0000
0010
0000
1000
0000
0020
0000
0000
0000
0000
0000
0030
0000
0000
0000
0000
0000
,
0200
0000
0300
0010
0200
0000
0300
0000
,
0100
0010
0100
0010
,
0002
0000
0003
1000
0002
0003
0100
0001
,
2000
0000
3000
0000
0020
0000
0030
0000
0100
0000
0000
0010
0000
0000
0100
0000
,
0010
0000
0000
1000
0000
0000
1001
0000
0000
0000
0100
0000
0010
0000
0100
0000
,
0010
0000
0100
0020
0000
0000
0000
0000
0030
0000
0100
0000
0010
0000
0100
0000
,
0000
0000
0010
0000
0100
0000
0010
0000
1000
0000
0001
0000
0100
0000
0001
1000
,
1001
0001
1000
0100
0010
0100
0010
0100
,
0001
0000
0000
1001
0000
0000
0110
0000
0000
0000
0100
0000
0000
0000
0000
0000
,
0010
0100
0010
0100
0010
0100
0010
0100
,
0010
0000
0000
1001
0000
0000
1010
0000
0000
0000
0101
0000
0000
0000
0000
0000
,
0010
0100
0010
0100
0010
0100
0010
0100
,
1010
0000
0000
0101
0000
0000
0101
0000
0000
0000
0110
0000
0000
0000
0000
0000
,
1000
0001
0100
0001
0100
0001
0100
0010
,
1001
0000
0000
1010
0000
0000
0101
0000
0000
0000
1000
0000
0000
0000
0010
0000
,
0100
0010
0100
0010
,
0001
0000
0000
0100
0000
0000
0010
0000
1000
0000
0000
0100
0000
0000
0001
0000
,
1000
0000
0000
0100
0000
0000
1000
0000
0100
0000
0000
0100
0000
0000
0010
0000
,
0100
0000
0000
0001
0000
0000
1000
0000
0001
0000
0000
1010
0000
0000
0101
0000
,
1001
0000
0000
0000
0100
0000
0000
0000
0010
0001
1000
0000
0100
0010
0100
0000
,
0010
0100
0010
0000
1000
0100
1000
0000
0010
0100
0010
0000
0001
0100
0001
0000
,
0100
0000
0000
1000
0000
0000
0100
0000
0010
0000
0000
0100
0000
0000
0010
0000
,
0001
0000
0000
0100
0000
0000
1000
0000
0100
0000
0000
0001
0000
0000
0100
0000
,
1001
0000
0100
0010
0000
0100
0010
1000
,
0100
0000
0000
0010
0000
0000
0100
0000
0010
0000
0000
0001
0000
0000
0100
0000
,
0010
0000
0000
1000
0000
0000
0100
0000
0010
0000
0000
0100
0000
0000
1000
0000
,
2002
0000
3003
0100
0010
0100
0010
0100
,
1000
0000
0100
0010
0000
0100
0001
0010
,
0100
0000
0000
0001
0000
0000
1001
0000
0000
0000
0100
0000
0010
0000
0100
0000
,
0020
0000
0030
0100
1000
0200
0300
0002
,
0000
0003
0200
0300
0020
0030
0100
0020
,
0030
0100
2000
0000
3000
0100
0010
0100
,
0001
0000
1000
0000
0001
0010
0100
0010
,
0200
0300
0000
0100
0010
0002
0003
0200
,
0000
0000
0300
0000
0010
0000
0000
0000
0200
0000
0300
0000
0000
0000
0100
0010
,
0200
0000
0300
0000
0000
0000
0100
0010
0001
0000
1000
0000
0100
0000
0010
0000
,
0200
0000
0000
0000
0300
0000
0000
0000
0100
0000
0000
0010
0000
0000
1000
0000
,
0200
0000
0000
0300
0000
0000
0000
0000
0100
0000
0010
0000
0200
0000
0000
0000
0000
0000
0300
0000
0000
1000
0000
0000
,
0020
0000
0030
0100
0020
0000
0030
0000
,
0200
0300
0002
0003
0200
0300
0020
0030
,
2000
0000
3000
0000
0000
0100
0000
0000
0020
0000
0030
0000
0100
0000
1000
0000
,
0200
0000
0300
0000
2000
0000
3000
0000
0100
0000
0000
0010
0000
0000
0100
0000
,
0010
0000
0000
0001
0000
0000
0200
0000
0300
0000
1000
0000
0100
0000
1000
0000
,
0200
0300
0000
0100
0010
0200
0300
0002
,
0000
0003
0200
0300
0020
0030
0100
0020
,
0030
0100
2000
0000
3000
0100
0010
0100
,
0010
0001
1000
0001
1000
0001
1000
0100
,
2000
0000
3000
0100
0010
0200
0300
0020
,
0000
0000
0030
0000
0100
0000
0000
0000
2002
0000
0000
0000
3003
0000
0100
0010
,
0200
0000
0000
0000
0300
0000
0001
1000
0100
0000
0010
0000
0100
0000
0010
0000
,
1000
0000
1000
0000
1001
0000
0000
0000
0010
0000
0000
0100
0000
0000
0010
0000
,
2000
0000
0000
0000
3000
0000
0010
0100
0020
0000
0000
0000
0030
0000
0000
0000
,
0202
0303
0000
1000
0020
0000
0030
0000
,
0200
0300
0020
0030
2000
3000
0020
0030
,
0200
0300
0000
0001
0200
0300
0001
1000
,
0020
0000
0030
0000
0200
0000
0300
0000
0010
0000
0000
0100
0000
0000
0010
0000
,
1000
0000
0000
0010
0000
0000
0200
0000
0300
0000
0001
0000
0100
0000
0001
0000
,
0100
0000
0001
2000
0000
0000
0000
0000
0000
0000
0000
0000
3000
0000
0110
0000
,
1001
0000
0000
0110
0000
0000
1001
0000
0000
0000
1001
0000
0000
0000
0000
0000
,
0000
0000
0000
0000
,
0000
0000
0000
0000
,
0000
0000
0000
0000
,
0000
0000
0000
0000
,
0000
0000
0000
0000
,
0000
0000
0000
0000
,
0000
0000
0000
0000
,
0000
0000
0000
0000
,
1000
0000
0000
0001
0000
0000
1000
0000
0000
0000
0000
0000
0000
0000
0000
0000
,
0100
0000
0000
0010
0000
0000
0100
0000
0000
0000
0000
0000
0000
0000
0000
0000
,
0010
0000
0000
0100
0000
0000
0010
0000
0000
0000
0000
0000
0000
0000
0000
0000
,
0000
0100
0000
0000
1000
0000
0100
0000
0000
0000
0000
0000
0000
0000
0000
0000
,
0100
0000
0000
0000
,
0010
0000
0000
0000
,
0001
0000
0000
0000
,
1000
0000
0000
0000
,
1001
0000
0000
0000
;

//--------------- dance-single - ----------------
#NOTES:
     dance-single:
     :
     Challenge:
     11:
     0,0,0,0,0:
0000
0000
0000
0000
,
0000
0000
0000
0000
,
0000
0000
0000
0000
,
0000
0000
0000
0000
,
0000
0000
0000
0000
,
0000
0000
0000
0000
,
0000
0000
0000
0000
,
0000
0000
0000
0000
,
1000
0001
1000
0001
1000
0001
1000
0000
,
2001
0010
0001
3100
0020
0001
0100
1000
,
0031
0100
0010
0100
0010
0100
0010
0000
,
2001
0010
0001
3010
0102
0010
0100
0013
,
1000
0001
1000
0001
1000
0001
1000
0000
,
0210
0001
0010
0301
2010
0100
0001
3010
,
0100
0010
0100
0010
0100
0010
0001
1000
,
0001
1000
0001
0100
2020
0000
0000
3030
,
0100
0000
1000
0100
1000
0000
0001
0000
0100
0000
0010
0000
0100
0000
0010
0000
,
0001
0000
1000
0010
1000
0000
1000
0100
0010
0000
0001
0000
0100
0000
0010
0000
,
0000
0000
0100
0010
0001
0000
1000
0000
0100
0001
1000
0000
0100
0010
0001
0000
,
0100
0000
0010
0100
0010
0000
0001
0000
1000
0000
0100
0000
1000
0000
0100
0000
,
0010
0100
0010
0101
0000
1000
0100
1100
,
0000
0110
0001
1000
0001
0100
0010
1000
,
0010
0000
0001
0100
0010
0000
0100
0001
0000
0000
1000
0000
0100
0000
1000
0000
,
1100
0000
0000
1010
0000
0000
1001
0000
0000
0000
0100
0000
0010
0000
0100
0000
,
0020
0000
0030
0001
0100
4000
3000
0200
,
0020
0330
0002
0003
0200
0300
0010
2000
,
3000
0010
0200
0000
0000
0001
1000
0301
,
0100
0010
0100
0010
0110
0001
1000
0001
,
0200
0000
0300
0010
0100
0040
0030
1000
,
0002
0000
0003
0000
0200
0000
0300
0000
0020
0000
0000
0000
0030
0000
0100
0010
,
0400
0000
0000
0000
0300
0000
0001
1000
0001
0000
0100
0000
0010
0000
0100
0000
,
0020
0000
2000
0000
0000
0000
3030
0000
1001
0000
0000
0100
0000
0000
0010
0000
,
2020
0000
0000
0000
0000
0000
3030
0000
0010
0000
0100
0000
0040
0000
0000
0000
0000
0000
0000
0000
0000
0030
0000
0000
,
2002
0000
3003
0100
0040
0000
0000
0030
,
0200
0300
2000
3000
0200
0300
0020
0030
,
0002
0000
0003
0100
4000
3000
1000
0100
,
0002
0000
0003
0000
4000
0000
3000
0000
0002
0000
0003
1000
0000
0000
0100
0000
,
1000
0000
0000
0100
0000
0000
4004
0000
3003
0000
0100
0000
0010
0000
0100
0000
,
0010
0000
1000
0004
0000
0000
0000
0000
0000
0000
1000
0000
0100
0000
1000
0000
,
0000
0100
1000
0100
0000
1010
0000
0000
,
1003
0100
0010
0100
0010
0001
0100
0010
,
1100
0000
0000
1010
0000
0000
0011
0000
0000
0000
2002
0000
0000
0000
3003
0000
,
0100
0010
0100
0010
0100
0010
1000
0001
,
0100
0000
0000
0101
0000
0000
1010
0000
0000
0000
0202
0000
0000
0000
0303
0000
,
1000
0000
0010
0000
0100
0000
0010
0000
0100
0001
0000
0000
0110
0000
1001
0000
,
0110
0000
0000
0011
0000
0000
1001
0000
0000
0000
0220
0000
0000
0000
0330
0000
,
0100
0010
1000
0010
0100
0001
1100
0110
,
0011
0000
0000
0110
0000
0000
1001
0000
0000
0000
0200
0000
0300
0000
0010
0000
,
0200
0000
0300
0000
0002
0000
0003
0000
4000
0000
3000
0000
0001
0000
0100
0010
,
0100
0000
0000
0010
0000
0000
0100
0000
4000
0000
3000
0000
0001
0000
0010
0100
,
0010
0000
0000
0001
0000
0000
1000
0000
0100
0000
0000
0010
0000
0000
0100
0000
,
0010
0000
0000
0001
0000
0000
1000
0000
0001
0000
0000
1000
0000
0000
0001
0000
,
4004
0000
0000
0000
0000
0000
3003
0000
0100
0010
0001
0010
0100
1000
0100
0010
,
0001
0000
0010
0100
0010
1000
0100
0010
0100
1000
0100
0010
0001
0010
0100
0010
,
0001
0010
0100
0010
0001
0100
0010
0100
1001
0100
0010
1000
0100
0010
0100
0010
,
1100
0010
0001
0100
1000
0001
0010
0001
0100
0100
0010
1000
0010
0100
0100
0010
,
1001
0000
0100
0040
0030
1000
0100
1000
,
0100
0000
0000
0010
0000
0000
0100
0000
0010
0000
0001
0100
0000
0000
1000
0000
,
0401
0000
0000
0000
1000
0000
0000
0000
0301
0000
0000
0100
0000
0000
0010
0000
,
0401
0000
0000
0000
1000
0300
0010
0000
0100
0000
0010
0000
0001
0000
0100
0000
,
0020
0000
0000
0030
0100
0000
4000
0000
0000
3000
0100
0000
0010
0000
0001
0000
,
1001
0000
0000
1001
0000
0000
1001
0000
0000
0000
0100
0000
0010
0000
0100
0000
,
0040
0000
0030
0001
1000
0004
0003
2000
,
0000
3000
0200
0300
0020
0030
0100
0020
,
0030
1000
0002
0000
0003
0001
1000
0001
,
1000
0100
0010
0100
0010
0100
0010
1000
,
0040
0000
0030
0100
0010
0200
0300
0010
,
0002
0000
0003
0000
0200
0000
0300
0000
0020
0000
0000
0000
0030
0000
1000
0001
,
4000
0000
0000
0000
3000
0000
0100
0010
0100
0000
0010
0000
1000
0000
0001
0000
,
2000
0000
0100
0000
0010
0000
3000
0000
0100
0000
0000
0010
0000
0000
0100
0000
,
0020
0000
0000
0000
0000
0000
0030
0000
1000
0000
0001
0000
4000
0000
0000
0000
0000
0000
3000
0000
0000
0100
0000
0000
,
0020
0000
0030
1000
0004
0100
0010
1003
,
0200
0300
0020
0030
2000
3000
0040
0030
,
0200
0300
0000
0010
0400
0300
0010
0100
,
0020
0000
0030
0000
0400
0000
0300
0000
0010
0000
0000
1000
0000
0000
0010
0000
,
0100
0000
0000
0010
0000
0000
4040
0000
3030
0000
0100
0000
0001
0000
0100
0000
,
0012
1000
0013
0100
0001
4000
3000
0010
,
0002
0003
0200
0300
0020
0030
0100
0020
,
0030
0000
1000
0000
0020
0000
0000
0000
0000
0000
0100
1000
0001
0000
1000
0000
,
0130
1000
0100
0100
0010
0100
0010
0001
,
2100
0010
3001
0100
0010
0400
0300
1000
,
0002
0000
0003
0000
0200
0000
0300
0000
0020
0000
0000
0000
0030
0000
0100
0010
,
0400
0000
0300
0000
1001
0000
0100
0010
0100
0000
0001
0000
0110
0000
1000
0000
,
0100
0000
1010
0000
0202
0000
0303
0000
0200
0000
0300
0020
0000
0030
0100
0000
,
2000
0000
0000
0000
3000
0000
0100
0010
0400
0000
1000
0000
1000
0000
1300
0000
,
0022
0000
0033
0100
4000
0100
0001
3100
,
0002
0003
0020
0030
0200
0300
0040
0030
,
2001
0100
3001
0100
0040
0030
1000
0100
,
0020
0000
0030
0000
0004
0000
0003
0000
0200
0000
0300
0010
0000
0000
0100
0000
,
2000
0000
3000
0200
0000
0300
0040
0000
0030
0000
0001
0000
0100
0000
0010
0000
,
1000
0000
0100
4000
0000
0000
0000
0000
0000
0000
0000
0000
0000
0000
0100
0000
,
0010
0000
0000
0100
0000
0000
0001
0000
0000
0000
0101
0000
0000
0000
0000
0000
,
3010
0100
0010
0100
1000
0100
0020
0030
,
0100
0010
0100
1000
0100
1000
0100
0010
0001
0010
0100
0010
0100
1000
0100
0001
,
0100
0000
0010
0000
0100
0000
0010
0000
0100
0000
0010
0000
0001
0000
0001
1000
,
0100
0000
0000
0010
0000
0000
0100
0000
0010
0000
0000
0100
0000
0000
0010
0000
,
0001
0100
0020
0030
1000
0100
1000
0001
,
1000
0001
1000
0001
1000
0100
0010
0100
,
0010
0001
2000
3000
0001
0100
0010
0001
,
0100
0010
0100
0010
0001
0100
0020
0030
,
1000
0000
0000
0100
0000
0000
2000
0000
0000
0000
0000
0000
3000
0000
0100
0000
,
0010
0000
0000
0100
0000
0000
0020
0000
0000
0000
0000
0000
0030
0000
0100
0010
,
0100
0000
0000
0010
0000
0000
0100
0000
0010
0000
0000
0100
0000
0000
0010
0000
,
1000
0001
2000
0000
0000
0000
0000
0000
3000
0000
0001
0000
0000
1000
0000
0000
,
0002
0000
0000
0000
0000
0000
0000
0000
0003
0000
0100
0000
0000
0010
0000
0000
,
0100
0010
0100
0010
1000
0100
0010
0001
0010
1000
0100
0010
,
0002
0000
0000
0000
0010
0100
0010
0100
0010
0000
0000
0000
0000
0000
0003
0000
,
1000
0000
0100
0000
0010
0000
0001
0000
0010
0000
0100
0000
1000
0000
0100
0000
0010
0000
0001
0000
0010
0000
0100
0000
1000
0000
0100
0000
0010
0000
0001
MMMM
,
1MM1
MMMM
MMMM
MMMM
MMMM
0000
0000
0000
0000
0000
0000
0000
0000
0000
0000
0000
0000
0000
0000
0000
0000
0000
0000
0000
0000
0000
0000
0000
0000
0000
0000
0000
;
