#VERSION:0.83;
#TITLE:everlasting;
#SUBTITLE:;
#ARTIST:fripSide;
#TITLETRANSLIT:;
#SUBTITLETRANSLIT:;
#ARTISTTRANSLIT:;
#GENRE:J-Pop;
#ORIGIN:;
#CREDIT:;
#BANNER:everlasting.png;
#BACKGROUND:everlasting-bg.png;
#PREVIEWVID:;
#JACKET:everlasting-jacket.png;
#CDIMAGE:;
#DISCIMAGE:;
#LYRICSPATH:;
#CDTITLE:Wrland Season 2.png;
#MUSIC:everlasting.ogg;
#OFFSET:0.000000;
#SAMPLESTART:77.774002;
#SAMPLELENGTH:12.000;
#SELECTABLE:YES;
#DISPLAYBPM:105.000000;
#BPMS:0.000=95.000,
1.000=105.000;
#STOPS:;
#DELAYS:;
#WARPS:;
#TIMESIGNATURES:0.000=4=4;
#TICKCOUNTS:0.000=4;
#COMBOS:0.000=1;
#SPEEDS:0.000=1.000=0.000=0;
#SCROLLS:0.000=1.000;
#FAKES:;
#LABELS:0.000=Song Start;
#BGCHANGES:0.000=everlasting.avi=1.000=0=0=0=StretchNoLoop====,
99999=-nosongbg-=1.000=0=0=0 // don't automatically add -songbackground-
;
#KEYSOUNDS:;
#ATTACKS:
;

//---------------dance-single - ----------------
#NOTEDATA:;
#CHARTNAME:;
#STEPSTYPE:dance-single;
#DESCRIPTION:;
#CHARTSTYLE:;
#DIFFICULTY:Beginner;
#METER:1;
#RADARVALUES:0.028710,0.084547,0.006930,0.020790,0.000000,29.000000,28.000000,1.000000,3.000000,0.000000,0.000000,0.000000,0.000000,0.000000,0.028710,0.084547,0.006930,0.020790,0.000000,29.000000,28.000000,1.000000,3.000000,0.000000,0.000000,0.000000,0.000000,0.000000;
#CREDIT:;
#DISPLAYBPM:105.000000;
#NOTES:
0000
0000
0000
0000
,
0000
0000
0000
0000
,
0000
0000
0000
0000
,
0000
0000
0000
0000
,
0000
0000
0000
0000
,
0000
0000
0000
0000
,
0000
0000
0000
0000
,
0000
0000
0000
0000
,
0000
0000
0000
0000
,
0000
1000
0000
0000
,
0000
0000
0000
0000
,
0000
0100
0000
0000
,
0000
0000
0000
0000
,
0000
1000
0000
0000
,
0000
0000
0000
0000
,
0000
0010
0000
0000
,
0000
0000
0000
0000
,
0000
0100
0000
0000
,
0000
0000
0000
0000
,
0000
0001
0000
0000
,
0000
0000
0000
0000
,
0000
0100
0000
0000
,
0000
0000
0000
0000
,
0000
0010
0000
0000
,
0000
0000
0000
0000
,
0000
0100
0000
0000
,
0000
0000
0000
0000
,
0000
1000
0000
0000
,
0000
0000
0000
0000
,
0000
0010
0000
0000
,
0000
0000
0000
0000
,
0000
0100
0000
0000
,
0000
0000
0000
0000
,
0000
0020
0000
0030
,
0000
0001
0000
0000
,
0000
0000
0000
0000
,
0000
1000
0000
0000
,
0000
0000
0000
0000
,
0000
0100
0000
0000
,
0000
0000
0000
0000
,
0000
1000
0000
0000
,
0000
0000
0000
0000
,
0000
0100
0000
0000
,
0000
0000
0000
0000
,
0000
0010
0000
0000
,
0000
0000
0000
0000
,
0000
0100
0000
0000
,
0000
0000
0000
0000
,
0000
0010
0000
0000
,
0000
0000
0000
0000
,
0000
0100
0000
0000
,
0000
0000
0000
0000
,
0000
0010
0000
0000
,
0000
0000
0000
0000
,
0000
0100
0000
0000
,
0000
0000
0000
0000
,
0000
0010
0000
0000
,
0000
0000
0000
0000
,
0000
0001
0000
0000
,
0000
1000
0000
0000
,
0000
2002
0000
0000
,
3003
0000
0000
0000
;

//---------------dance-single - ----------------
#NOTEDATA:;
#CHARTNAME:;
#STEPSTYPE:dance-single;
#DESCRIPTION:;
#CHARTSTYLE:;
#DIFFICULTY:Easy;
#METER:3;
#RADARVALUES:0.052471,0.084547,0.006930,0.020790,0.000000,53.000000,52.000000,1.000000,3.000000,0.000000,0.000000,0.000000,0.000000,0.000000,0.052471,0.084547,0.006930,0.020790,0.000000,53.000000,52.000000,1.000000,3.000000,0.000000,0.000000,0.000000,0.000000,0.000000;
#CREDIT:;
#DISPLAYBPM:105.000000;
#NOTES:
0000
0000
0000
0000
,
0000
0000
0000
0000
,
0000
0000
0000
0000
,
0000
0000
0000
0000
,
0000
0000
0000
0000
,
0000
0000
0000
0000
,
0000
0000
0000
0000
,
0000
0000
0000
0000
,
0000
0000
0000
0000
,
0000
0100
0000
0000
,
0000
0100
0000
0000
,
0000
0010
0000
0000
,
0000
0010
0000
0000
,
0000
1000
0000
0000
,
0000
1000
0000
0000
,
0000
0001
0000
0000
,
0000
0001
0000
0000
,
0000
1000
0000
0000
,
0000
0001
0000
0000
,
0000
1000
0000
0000
,
0000
0001
0000
0000
,
0000
0100
0000
0000
,
0000
1000
0000
0000
,
0000
0100
0000
0000
,
0000
1000
0000
0000
,
0000
0100
0000
0000
,
0000
0010
0000
0000
,
0000
0001
0000
0000
,
0000
0010
0000
0000
,
0000
1000
0000
0000
,
0000
0010
0000
0000
,
0000
1000
0000
0000
,
0000
0010
0000
0000
,
0000
0200
0000
0300
,
0000
0010
0000
0000
,
0000
0100
0000
0000
,
0000
0010
0000
0000
,
0000
0001
0000
0000
,
0000
1000
0000
0000
,
0000
0100
0000
0000
,
0000
1000
0000
0000
,
0000
0010
0000
0000
,
0000
0100
0000
0000
,
0000
0010
0000
0000
,
0000
0001
0000
0000
,
0000
0010
0000
0000
,
0000
0100
0000
0000
,
0000
0010
0000
0000
,
0000
0100
0000
0000
,
0000
0010
0000
0000
,
0000
0001
0000
0000
,
0000
1000
0000
0000
,
0000
0100
0000
0000
,
0000
1000
0000
0000
,
0000
0010
0000
0000
,
0000
0100
0000
0000
,
0000
0010
0000
0000
,
0000
0001
0000
0000
,
0000
1000
0000
0000
,
0000
0100
0000
0000
,
0000
0220
0000
0000
,
0330
0000
0000
0000
;

//---------------dance-single - ----------------
#NOTEDATA:;
#CHARTNAME:;
#STEPSTYPE:dance-single;
#DESCRIPTION:;
#CHARTSTYLE:;
#DIFFICULTY:Medium;
#METER:4;
#RADARVALUES:0.158402,0.274779,0.013860,0.020790,0.003465,160.000000,158.000000,2.000000,3.000000,0.000000,0.000000,0.000000,0.000000,0.000000,0.158402,0.274779,0.013860,0.020790,0.003465,160.000000,158.000000,2.000000,3.000000,0.000000,0.000000,0.000000,0.000000,0.000000;
#CREDIT:;
#DISPLAYBPM:105.000000;
#NOTES:
0000
0000
0000
0000
,
0000
0000
0000
0000
,
0000
0000
0000
0000
,
0000
0000
0000
0000
,
0000
1000
0000
1000
,
0000
0001
0000
0001
,
0000
0100
0000
0100
,
0000
0020
0000
0000
,
0000
0130
0000
0000
,
0000
1000
0000
0100
,
0000
1000
0000
0100
,
0000
0010
0000
0100
,
0000
0010
0000
0100
,
0000
1001
0000
0100
,
0000
0010
0000
0100
,
0000
0100
0000
0010
,
0000
0010
0000
0001
,
0000
1000
0000
1000
,
0000
0100
0000
0100
,
0000
1000
0000
1000
,
0000
0100
0000
0100
,
0000
0010
0000
0010
,
0000
0001
0000
0001
,
0000
0010
0000
0010
,
0000
0001
0000
0001
,
0000
0010
0000
0100
,
0000
0010
0000
0100
,
0000
1000
0000
0100
,
0000
1000
0000
0100
,
0000
0010
0000
0100
,
0000
0010
0000
0100
,
0000
1000
0000
0100
,
0000
1000
0000
0100
,
0000
0010
0000
0100
,
0100
0010
0000
1000
,
0000
0000
1000
0100
0010
0001
0010
0000
,
0000
0100
0000
0010
,
0000
0000
0010
0100
1000
0100
0010
0000
,
0000
0100
0000
0010
,
0000
0000
0100
0010
0001
0010
0100
0000
,
0000
0100
0000
0010
,
0000
0000
0010
0100
1000
0100
0010
0000
,
0000
1000
0000
0001
,
0000
0000
0001
1000
0100
0010
0100
0000
,
0000
0100
0000
0010
,
0000
0000
1000
0100
0010
1000
0100
0000
,
0000
0100
0000
0010
,
0000
0000
0001
0100
0010
0100
1000
0000
,
0000
0100
0000
0010
,
0000
0000
0100
1000
0100
1000
0100
0000
,
0000
0010
0000
0100
,
0000
0000
0010
0100
0010
0001
0100
0000
,
0000
0000
1000
0100
1000
0100
1000
0000
,
0000
0000
0010
0100
0010
0001
0100
0000
,
0000
0010
0000
0100
,
0000
0000
0010
0100
1000
0100
0010
0000
,
0000
0100
0000
1000
,
0000
0000
1000
0100
0010
0100
1000
0000
,
0000
0100
0000
0010
,
0000
0000
0100
0010
0100
1000
0100
0010
,
0001
0000
0100
1000
0202
0000
0000
0000
0000
0000
0000
0000
0000
0000
0000
0000
,
0303
0000
0000
0000
;

//---------------dance-single - ----------------
#NOTEDATA:;
#CHARTNAME:;
#STEPSTYPE:dance-single;
#DESCRIPTION:;
#CHARTSTYLE:;
#DIFFICULTY:Hard;
#METER:7;
#RADARVALUES:0.383136,0.591831,0.013860,0.443527,0.145532,387.000000,385.000000,2.000000,64.000000,0.000000,0.000000,0.000000,0.000000,0.000000,0.383136,0.591831,0.013860,0.443527,0.145532,387.000000,385.000000,2.000000,64.000000,0.000000,0.000000,0.000000,0.000000,0.000000;
#CREDIT:;
#DISPLAYBPM:105.000000;
#NOTES:
// measure 0
0000
0000
0000
0000
,  // measure 1
0000
0000
0000
0000
,  // measure 2
0000
0000
0000
0000
,  // measure 3
0000
0000
0000
0000
,  // measure 4
0100
0001
0010
1000
0100
0010
0200
0300
,  // measure 5
1000
0010
0100
1000
0100
0010
0200
0300
,  // measure 6
0100
0001
0010
0100
0010
0001
0100
0010
,  // measure 7
0100
0010
2000
0000
0001
0000
0001
0000
,  // measure 8
0001
3002
1003
1000
,  // measure 9
0100
0010
0100
0010
0100
0000
1000
0000
0100
0000
1000
0000
0000
0000
0100
0000
,  // measure 10
0010
0100
0000
0100
0010
0002
0000
0000
,  // measure 11
0003
0000
0100
0010
0100
0010
0000
0100
,  // measure 12
1000
0100
0000
0001
0100
0020
0000
0000
,  // measure 13
0030
0000
0100
1000
0100
0002
0003
0100
,  // measure 14
0010
2000
3000
0100
0010
2000
3000
0001
,  // measure 15
0001
0001
1000
1000
0100
2000
3000
0100
,  // measure 16
0010
0000
0100
0000
0020
0000
0000
0000
0030
0000
1000
0100
2000
0000
0000
0000
,  // measure 17
0000
3000
0100
0010
0100
0020
0030
0001
,  // measure 18
1000
0002
0003
0100
2000
0000
0000
0000
,  // measure 19
3000
0000
0010
1000
0100
0000
0010
0000
0100
0000
1000
0002
0000
0003
0100
0000
,  // measure 20
0010
2000
3000
0100
2000
0000
0000
3000
,  // measure 21
1001
0000
0001
0001
0010
0002
0003
0100
,  // measure 22
1000
0200
0300
1000
0200
0000
0000
0000
,  // measure 23
0300
0000
0001
0010
0001
0000
0100
0000
1000
0000
0100
0020
0000
0030
0100
0000
,  // measure 24
0010
0000
0001
0000
2000
0000
0000
0000
3000
0000
0100
1000
0010
0000
0000
0000
,  // measure 25
0100
0000
1000
0000
0200
0000
0000
0000
0300
0000
0100
0020
0000
0030
0001
0000
,  // measure 26
1000
0002
0000
0003
1000
0010
0100
0001
,  // measure 27
0100
0000
1000
0000
0200
0000
0300
0000
0010
0000
0100
0020
0000
0030
0001
0000
,  // measure 28
0100
0020
0030
1000
0200
0000
0000
0300
,  // measure 29
0100
0000
0010
0000
0200
0000
0300
0000
1000
0000
0100
2000
0000
3000
0100
0000
,  // measure 30
0010
0200
0000
0000
0300
0000
0001
0100
,  // measure 31
0001
0000
1000
0000
0200
0000
0300
0000
1000
0000
0100
0020
0000
0030
0100
0000
,  // measure 32
0010
0200
0300
0010
0200
0000
0000
0300
,  // measure 33
0100
0000
0010
0000
0001
0000
1000
0000
0001
0000
1000
0002
0000
0000
0000
0003
,  // measure 34
0100
1000
0100
0010
0100
0010
0002
0003
,  // measure 35
0100
0010
1000
0100
1000
0100
2000
3000
,  // measure 36
0100
0010
0002
0003
0100
0010
0200
0300
,  // measure 37
1000
0100
0010
0001
0010
0100
2000
3000
,  // measure 38
0001
0100
0010
1000
0100
0010
0002
0003
,  // measure 39
0001
0010
0100
1000
0100
0010
0002
0003
,  // measure 40
0100
0010
0100
1000
0100
0010
0001
0100
,  // measure 41
0010
0000
1000
0100
2000
0000
0000
0000
0000
0000
0000
0000
3001
0000
0000
0000
,  // measure 42
0100
0010
1000
0100
0010
0100
0020
0030
,  // measure 43
0100
0010
0100
0010
0100
0010
0200
0300
,  // measure 44
0001
0100
0002
0003
1000
0100
2000
3000
,  // measure 45
0001
0100
0010
0100
0010
0001
0200
0300
,  // measure 46
0100
0000
0001
0000
1000
0000
0100
0000
1000
0000
0100
1000
0200
0000
0300
0000
,  // measure 47
0010
0000
0100
0000
0010
0000
0001
0000
0100
0000
0010
0100
0020
0000
0030
0000
,  // measure 48
0010
0100
1000
0100
0010
0100
0010
0001
,  // measure 49
0100
1000
0200
0000
0000
0000
0310
0000
,  // measure 50
0100
0010
0001
0100
1000
0100
0020
0030
,  // measure 51
0100
0000
1000
0000
0100
0000
0010
0000
0001
0000
0100
0000
2000
0000
3000
0010
,  // measure 52
0000
0100
0010
1000
0200
0000
0300
0001
0100
0000
0001
0010
0100
0000
1000
0100
,  // measure 53
0010
0001
0010
0100
0010
0100
0010
0100
1000
0100
1000
0100
1000
0100
0010
0001
,  // measure 54
0010
0100
1000
0100
0010
0100
0020
0030
,  // measure 55
0100
0010
0001
0100
1000
0100
0010
0001
,  // measure 56
1000
0001
0010
0100
2000
0000
3000
0100
0010
0001
0010
0100
0020
0000
0030
0002
,  // measure 57
0000
0003
1000
0001
2000
0000
3000
0000
0100
0010
0100
0010
0100
0010
0001
0100
,  // measure 58
0010
1000
0100
0010
0001
0100
1000
0100
,  // measure 59
0010
0100
0010
0100
0010
0001
1000
0001
,  // measure 60
1000
0000
0001
1000
2002
0000
0000
0000
0000
0000
0000
0000
0000
0000
0000
0000
,  // measure 61
3003
0000
0000
0000
;
