#TITLE:crossingdays;
#SUBTITLE:;
#ARTIST:新谷良子;
#TITLETRANSLIT:;
#SUBTITLETRANSLIT:;
#ARTISTTRANSLIT:Ryoko Shintani;
#GENRE:J-Pop;
#CREDIT:;
#MUSIC:crossingdays.ogg;
#BANNER:crossingdays.png;
#BACKGROUND:crossingdays-bg.png;
#CDTITLE:Wrland Season 2.png;
#SAMPLESTART:46.138;
#SAMPLELENGTH:12.000;
#SELECTABLE:YES;
#OFFSET:-0.000;
#BPMS:0.000=145.000;
#STOPS:;
#JACKET:crossingdays-jacket.png;
#BGCHANGES:0.000=crossingdays.avi=1.000=0=0=0=StretchNoLoop====,
99999.000=-nosongbg-=1.000=0=0=0=StretchNoLoop====
;
#FGCHANGES:;

//--------------- dance-single - ----------------
#NOTES:
     dance-single:
     :
     Beginner:
     1:
     0,0,0,0,0:
0000
0000
0000
0000
,
0000
0000
0000
0000
,
0000
0000
0000
0000
,
0000
0000
0000
0000
,
0100
0000
0000
0000
,
0000
0000
0000
0000
,
0010
0000
0000
0000
,
0000
0000
0000
0000
,
0100
0000
0000
0000
,
0000
0000
0000
0000
,
0001
0000
0000
0000
,
0000
0000
0000
0000
,
1000
0000
0000
0000
,
0000
0000
0000
0000
,
1000
0000
0000
0000
,
0000
0000
0000
0000
,
0100
0000
0000
0000
,
0000
0000
0000
0000
,
0010
0000
0000
0000
,
0000
0000
0000
0000
,
0001
0000
0000
0000
,
0000
0000
0000
0000
,
0100
0000
0000
0000
,
0000
0000
0000
0000
,
0010
0000
0000
0000
,
0000
0000
0000
0000
,
1000
0000
0000
0000
,
0000
0000
0000
0000
,
0100
0000
0000
0000
,
0000
0000
0000
0000
,
0010
0000
0000
0000
,
0000
0000
0000
0000
,
1000
0000
0000
0000
,
0000
0000
0000
0000
,
0010
0000
0000
0000
,
0000
0000
0000
0000
,
0100
0000
0000
0000
,
0000
0000
0000
0000
,
0010
0000
0000
0000
,
0000
0000
0000
0000
,
1000
0000
0000
0000
,
0000
0000
0000
0000
,
0001
0000
0000
0000
,
0000
0000
0000
0000
,
0100
0000
0000
0000
,
0000
0000
0000
0000
,
0100
0000
0000
0000
,
0000
0000
0000
0000
,
0010
0000
0000
0000
,
0000
0000
0000
0000
,
1000
0000
0000
0000
,
0000
0000
0000
0000
,
0010
0000
0000
0000
,
0000
0000
0000
0000
,
0001
0000
0000
0000
,
0000
0000
0000
0000
,
0001
0000
0000
0000
,
0000
0000
0000
0000
,
0100
0000
0000
0000
,
0000
0000
0000
0000
,
2002
0000
0000
0000
,
0000
0000
0000
0000
,
3003
0000
0000
0000
;

//--------------- dance-single - ----------------
#NOTES:
     dance-single:
     :
     Easy:
     3:
     0,0,0,0,0:
0000
0000
0000
0000
,
0000
0000
0000
0000
,
0000
0000
0000
0000
,
0000
0000
0000
0000
,
1000
0000
0000
0000
,
0001
0000
0000
0000
,
1000
0000
0000
0000
,
0001
0000
0000
0000
,
0100
0000
0000
0000
,
1000
0000
0000
0000
,
0100
0000
0000
0000
,
1000
0000
0000
0000
,
0001
0000
0000
0000
,
0000
0000
0000
0000
,
1000
0000
0000
0000
,
0000
0000
0000
0000
,
0001
0000
0000
0000
,
0000
0000
0000
0000
,
1000
0000
0000
0000
,
0000
0000
0000
0000
,
0100
0000
0000
0000
,
0000
0000
0000
0000
,
0010
0000
0000
0000
,
0000
0000
0000
0000
,
0100
0000
0000
0000
,
0000
0000
0000
0000
,
0010
0000
0000
0000
,
0000
0000
0000
0000
,
1000
0000
0000
0000
,
0100
0000
0000
0000
,
1000
0000
0000
0000
,
0100
0000
0000
0000
,
0010
0000
0000
0000
,
0001
0000
0000
0000
,
0010
0000
0000
0000
,
0001
0000
0000
0000
,
0100
0000
0000
0000
,
0010
0000
0000
0000
,
0100
0000
0000
0000
,
1000
0000
0000
0000
,
0001
0000
0000
0000
,
1000
0000
0000
0000
,
0100
0000
0000
0000
,
0010
0000
0000
0000
,
0100
0000
0000
0000
,
1000
0000
0000
0000
,
0100
0000
0000
0000
,
1000
0000
0000
0000
,
0010
0000
0000
0000
,
0001
0000
0000
0000
,
0010
0000
0000
0000
,
0001
0000
0000
0000
,
1000
0000
0000
0000
,
0001
0000
0000
0000
,
0010
0000
0000
0000
,
0100
0000
0000
0000
,
0010
0000
0000
0000
,
0001
0000
0000
0000
,
0100
0000
0000
0000
,
0010
0000
0000
0000
,
2002
0000
0000
0000
,
0000
0000
0000
0000
,
3003
0000
0000
0000
;

//--------------- dance-single - ----------------
#NOTES:
     dance-single:
     :
     Medium:
     5:
     0,0,0,0,0:
0000
0000
0000
0000
,
0000
0000
0000
0000
,
0000
0000
0000
0000
,
0000
0000
0000
0000
,
0010
0000
0001
0000
,
0010
0000
0001
0000
,
0100
0000
0010
0000
,
0100
0000
0000
0000
,
1000
0000
0010
0000
,
1000
0000
0010
0000
,
0100
1001
0000
0100
1001
0000
0010
1001
,
0000
0100
1001
0000
1000
0110
0000
1001
,
0100
0000
0010
0000
,
0100
0000
0010
0000
,
0001
0000
0010
0000
,
0100
0000
0010
0000
,
0100
0000
1000
0000
,
0100
0000
0010
0000
,
0100
0000
0010
0000
,
0100
0000
0010
0000
,
0001
0000
0001
0000
,
1000
0000
1000
0000
,
0100
0000
0100
0000
,
1000
0000
1000
0000
,
0010
0000
0010
0000
,
0100
0000
0100
0000
,
0010
0000
0010
0000
,
0100
0000
0100
0000
,
1000
0000
1000
0000
1000
0000
0000
1000
,
0100
0100
0100
0000
,
0010
0000
0010
0000
0010
0000
0000
0001
,
0100
0000
0100
0000
0010
1000
0100
0010
,
0001
0000
0100
0000
0010
0000
0000
0100
,
0100
0000
0010
0100
0010
0001
1000
0001
,
1000
0101
0000
0010
0110
0000
0001
1001
,
0000
0100
1001
0000
0001
0000
0100
0010
,
0100
0000
1000
0000
0100
0000
0010
0000
0001
0000
0000
1000
0000
0000
0100
0000
,
0000
0000
0010
0000
0100
0000
0000
0000
0010
0000
0000
0100
0000
0000
0010
0000
,
0001
0100
0010
0100
,
1000
0000
0100
0000
0020
0000
0000
0030
,
0100
0000
0010
0000
0100
0000
0010
0001
,
0000
0100
0010
1000
0000
0000
1000
0000
,
0001
0000
1000
0001
1000
0000
0100
0010
,
0200
0000
0000
0000
0300
0000
0100
0010
,
0100
0000
0010
0000
0001
0000
0100
0000
0010
0000
0000
0100
0000
0000
1000
0000
,
0000
0000
0100
0000
0010
0000
0100
0000
0010
0000
0000
0001
0000
0000
0100
0000
,
0010
1000
0001
1000
,
0100
0000
0000
0010
0000
0000
0100
0000
0020
0000
0000
0000
0000
0000
0030
0000
,
0001
0000
0100
0000
0010
0000
0100
0010
,
0000
0100
0010
0002
0000
0003
0100
0000
,
0010
0000
0100
0010
0100
0000
0010
1000
,
0200
0000
0000
0300
0100
0000
0010
0000
,
0002
0000
0000
0000
,
0000
0000
0000
0003
,
2000
0000
0000
0000
,
0000
0000
0000
3000
,
0100
0100
0100
0000
,
0010
0010
0010
0000
,
0001
0000
1000
0000
,
0001
1000
0001
1000
,
2002
0000
0000
0000
,
0000
0000
0000
0000
,
3003
0000
0000
0000
;

//--------------- dance-single - ----------------
#NOTES:
     dance-single:
     :
     Hard:
     8:
     0,0,0,0,0:
0000
0000
0000
0000
,
0000
0000
0000
0000
,
0000
0000
0000
0000
,
0000
0000
0000
0000
,
1001
0000
0100
0010
0100
0001
0000
1000
,
0000
0100
1000
0100
0000
0001
0010
0001
,
0010
0000
0100
0010
0100
0010
0000
1001
,
0000
0100
0010
0100
0010
0001
1000
0001
,
1010
0000
0100
0010
0001
0100
0000
0010
,
0000
1000
0100
0010
0000
0000
0001
1000
,
0110
0110
0000
1001
1001
0000
0110
0110
,
0000
1100
1100
0000
0101
0101
0000
1001
,
0200
0000
0300
0010
2000
3000
0100
0020
,
0030
0000
0001
0000
2000
0000
0000
3000
0100
0000
0010
0000
0100
0000
0010
0000
,
0002
0000
0000
0003
0100
0000
0001
0000
2000
0000
0000
3000
0200
0000
0000
0300
,
0010
0000
0002
0000
0000
0003
2000
0000
0000
3000
0001
0000
2000
0000
0000
3000
,
0100
0000
0010
0000
0100
0000
0010
0000
0002
0000
0000
0003
0100
0000
0010
0000
,
1000
0000
0010
0000
0200
0000
0000
0300
0010
0000
0100
0000
0010
0000
0001
0000
,
0200
0000
0000
0300
0010
0000
0100
0000
0010
0000
0001
0000
1000
0000
0001
0000
,
2000
0000
0000
0000
0000
0000
0000
3000
0100
0010
0100
0010
0001
0010
0100
0010
,
0001
0000
1000
0000
0100
0000
0010
0000
0002
0000
0000
0003
0100
0000
0010
0000
,
0100
0000
1000
0000
0200
0000
0000
0300
0010
0000
0100
0000
0010
0000
0001
0000
,
0200
0000
0000
0300
0010
0000
1000
0000
0200
0000
0000
0300
1000
0000
0100
0000
,
0010
0000
0002
0000
0000
0003
1000
0000
0000
0000
0010
0000
0200
0000
0000
0000
,
0300
0000
0001
0000
1000
0000
0001
0000
0200
0000
0000
0300
0010
0000
0200
0000
,
0000
0300
1000
0000
0200
0000
0000
0300
0010
0000
0100
0000
0010
0000
0001
0000
,
0200
0300
0010
0100
1000
0100
0010
0001
,
2000
0000
0000
0000
0000
0000
0000
3000
0001
1000
0001
1000
0001
1000
0001
1000
,
0001
0010
0100
0000
0100
0010
0001
0000
0010
0100
0000
1000
0100
0000
0010
0001
,
0010
0000
0100
0000
0010
0000
0100
0000
1000
0100
0010
0001
0010
0100
1000
0100
,
1001
0000
0010
0000
0100
0010
0100
0001
0100
1000
0100
1000
0000
0000
0100
0010
,
0100
0000
1000
0000
0100
0000
0010
0000
0001
0010
0100
1000
0100
0010
0001
0010
,
0100
1000
0100
0010
0001
0010
0000
0100
0010
0001
0010
1000
0100
0000
0001
0000
,
0010
0000
0100
0000
0010
0001
0010
0100
1000
0100
0010
0001
0010
0100
1000
0100
,
0010
1001
0100
0010
1001
0000
1000
0101
,
1000
0000
0100
0000
0011
0000
0000
0000
1000
0000
0101
0000
0010
0100
0010
0001
,
1000
0000
0100
0000
0010
0000
0100
0000
0020
0000
0030
0002
0000
0003
0200
0000
,
0300
0000
0010
0000
1000
0000
0100
0000
0020
0000
0030
0002
0000
0003
0100
0000
,
0020
0030
2002
3003
0220
0330
1000
0100
,
0020
0000
0030
0002
0000
0003
0100
0000
0020
0000
0000
0000
0000
0000
0030
0000
,
0200
0300
2000
3000
0200
0300
0010
0002
,
0000
0003
0100
0000
0010
0000
2000
0000
0000
0000
0000
3000
0200
0000
0000
0300
,
1001
0000
0100
0010
0100
0000
1000
0100
,
0020
0000
0000
0000
0000
0000
0000
0000
0000
0030
0000
0000
0100
0000
0010
0000
,
0001
0000
1000
0000
0100
0000
0010
0000
1000
0000
0000
0100
0000
0000
0020
0000
,
0000
0030
1000
0000
0100
0000
0010
0000
0002
0000
0003
0200
0000
0300
0010
0000
,
2000
0000
3000
0000
2002
0000
0000
3003
0200
0000
0300
0000
0220
0000
0000
0330
,
1000
0000
0000
0100
0000
0000
0010
0000
0002
0000
0000
0000
0000
0000
0003
0000
,
0200
0000
0000
0300
0020
0000
0000
0030
0200
0000
0000
0300
0010
0000
2000
0000
,
0000
3000
0100
0000
0010
0000
0002
0000
0000
0000
0003
0000
0200
0000
0300
0000
,
0020
0000
0000
0030
0100
0000
0010
0000
0002
0000
0003
0000
1000
0000
0001
0000
,
2000
0000
0000
0000
0000
0000
3000
0000
2000
0000
0000
3000
0002
0000
0003
0000
,
2000
0000
0000
0000
3000
0000
0001
0000
2000
0000
0000
3000
0000
0000
2000
0000
,
0000
3000
0200
0000
0000
0300
0010
0000
0002
0000
0000
0003
0100
0000
0010
0000
,
0200
0000
0000
0000
0000
0300
0001
0000
0200
0000
0000
0000
0000
0300
2000
0000
,
3000
0000
2000
0000
3000
0000
0100
0000
0020
0000
0000
0030
0002
0000
0000
0003
,
0200
0000
0300
0010
0200
0000
0300
0002
,
0003
2000
3000
0100
0020
0030
0200
0300
,
0020
0000
0030
0100
0020
0000
0030
0002
,
0003
2000
3000
0001
1000
0000
1001
0000
,
2002
0000
0000
0000
,
0000
0000
0000
0000
,
3003
0000
0000
0000
;
