#TITLE:Tell Your World;
#SUBTITLE:;
#ARTIST:livetune;
#TITLETRANSLIT:;
#SUBTITLETRANSLIT:;
#ARTISTTRANSLIT:;
#GENRE:Vocaloid;
#CREDIT:;
#BANNER:Tell Your World.png;
#BACKGROUND:Tell Your World-bg.png;
#LYRICSPATH:;
#CDTITLE:Wrland Season 2.png;
#MUSIC:Tell Your World.ogg;
#OFFSET:-0.027000;
#SAMPLESTART:51.827000;
#SAMPLELENGTH:12.000000;
#SELECTABLE:YES;
#BPMS:0.000000=75.000000
,66.000000=150.000000
,162.000000=75.000000
;
#STOPS:
;
#BGCHANGES:0.000=Tell Your World.avi=1.000=0=0=0=StretchNoLoop====,
99999=-nosongbg-=1.000=0=0=0 // don't automatically add -songbackground-
;
#KEYSOUNDS:;
#ATTACKS:;

//---------------dance-single - ----------------
#NOTES:
     dance-single:
     :
     Beginner:
     1:
     0.033913,0.060666,0.008792,0.026376,0.000000,27.000000,26.000000,1.000000,3.000000,0.000000,0.000000,0.033913,0.060666,0.008792,0.026376,0.000000,27.000000,26.000000,1.000000,3.000000,0.000000,0.000000:
0000
0000
0000
0000
,
0000
0000
0000
0000
,
0000
0000
0000
0000
,
0000
0000
0000
0000
,
0000
0000
0000
0000
,
0000
0000
0000
0000
,
0000
0000
0000
0000
,
0000
0000
0000
0000
,
1000
0000
0000
0000
,
0100
0000
0000
0000
,
1000
0000
0000
0000
,
0010
0000
0000
0000
,
0100
0000
0000
0000
,
0001
0000
0000
0000
,
0100
0000
0000
0000
,
0001
0000
0000
0000
,
0020
0030
0000
0000
1000
0000
0000
0000
,
0000
0000
0000
0000
,
0000
0000
0100
0000
,
0000
0000
0000
0000
,
0000
0000
1000
0000
,
0000
0000
0000
0000
,
0000
0000
0010
0000
,
0000
0000
0000
0000
,
0000
0000
0100
0000
,
0000
0000
0000
0000
,
0000
0000
0001
0000
,
0000
0000
0000
0000
,
0000
0000
1000
0000
,
0000
0000
0000
0000
,
0000
0000
0100
0000
,
0000
0000
0000
0000
,
0000
0000
0010
0000
,
0000
0000
0000
0000
,
0000
0000
1000
0000
,
0000
0000
0000
0000
,
0000
0000
0100
0000
,
0000
0000
0000
0000
,
0000
0000
0001
0000
,
0000
0000
0000
0000
,
0000
0000
1000
0000
,
0000
0000
0001
0000
,
0000
0000
1000
0000
,
0000
0000
0001
0000
,
0000
0000
0000
0000
,
0000
2002
0000
0000
0000
0000
0000
0000
,
3003
0000
0000
0000
;

//---------------dance-single - ----------------
#NOTES:
     dance-single:
     :
     Easy:
     2:
     0.066569,0.141553,0.017584,0.026376,0.000000,53.000000,51.000000,2.000000,3.000000,0.000000,0.000000,0.066569,0.141553,0.017584,0.026376,0.000000,53.000000,51.000000,2.000000,3.000000,0.000000,0.000000:
0000
0000
0000
0000
,
0000
0000
0000
0000
,
0000
0000
0000
0000
,
0000
0000
0000
0000
,
0000
0000
0000
0000
,
0000
0000
0000
0000
,
0000
0000
0000
0000
,
0000
0000
0000
0000
,
0010
0000
0001
0000
,
0100
0000
0010
0000
,
1000
0000
0001
0000
,
1000
0000
0100
0000
,
0010
0000
0100
0000
,
0010
0000
0001
0000
,
0100
0000
0010
0000
,
0100
0000
0010
0000
,
0200
0300
0000
1001
0100
0000
0000
0000
,
0000
0000
0010
0000
,
0000
0000
0100
0000
,
0000
0000
0001
0000
,
0000
0000
1000
0000
,
0000
0000
0100
0000
,
0000
0000
1000
0000
,
0000
0000
0100
0000
,
0000
0000
0001
0000
,
0000
0000
0010
0000
,
0000
0000
0100
0000
,
0000
0000
0010
0000
,
0000
0000
1000
0000
,
0000
0000
0100
0000
,
0000
0000
0010
0000
,
0000
0000
0100
0000
,
0000
0000
0001
0000
,
0000
0000
1000
0000
,
0000
0000
0001
0000
,
0000
0000
1000
0000
,
0000
0000
0100
0000
,
0000
0000
1000
0000
,
0000
0000
0100
0000
,
0000
0000
1000
0000
,
0000
0000
0010
0000
,
0001
0000
0100
0000
,
1000
0000
0100
0000
,
0010
0000
0100
0000
,
0010
0000
0000
0000
,
0000
2002
0000
0000
0000
0000
0000
0000
,
3003
0000
0000
0000
;

//---------------dance-single - ----------------
#NOTES:
     dance-single:
     :
     Medium:
     4:
     0.155746,0.218210,0.026376,0.105506,0.000000,124.000000,121.000000,3.000000,12.000000,0.000000,0.000000,0.155746,0.218210,0.026376,0.105506,0.000000,124.000000,121.000000,3.000000,12.000000,0.000000,0.000000:
0000
0000
0000
0000
,
0000
0000
0000
0000
,
0000
0000
0000
0000
,
0000
0000
0000
0000
,
0000
0000
0000
0000
,
0000
0000
0000
0000
,
0000
0000
0000
0000
,
0000
0000
0000
0000
,
1000
0000
0100
0000
0010
0000
0100
0010
,
0100
0000
0001
0000
1000
0000
0001
1000
,
0001
0100
1000
0100
,
0010
0000
0001
0000
0100
0000
0010
0100
,
0010
0001
0010
0100
,
0010
0000
0100
0000
0010
0000
1000
0100
,
1000
0100
0010
0100
,
1000
0100
1000
0100
,
0020
0030
0000
1001
0100
0000
0010
0000
,
0100
0001
1000
0000
,
0100
0010
0100
0010
,
0001
0100
0010
0100
,
1000
0100
0010
0100
,
0010
0001
0100
0001
,
1000
0001
1000
0000
,
0100
0000
0010
0000
,
0100
0010
0100
1000
,
0100
0001
0100
0001
,
0010
1000
0100
1000
,
0100
0010
0100
0010
,
1000
0100
0010
0001
,
0100
0010
1000
0100
,
1000
0100
0010
0000
,
0100
0000
0010
0000
,
0001
0000
2000
0000
,
0000
3000
0200
0300
,
0020
0030
0200
0000
,
0000
0300
0020
0000
,
0030
0000
0002
0000
,
0000
0003
2000
3000
,
0002
0003
2000
0000
,
0000
3000
0100
1000
,
0100
0010
2002
0000
,
0000
3003
0100
0010
,
0100
0010
0001
1000
,
0001
1000
0100
1000
,
0100
0010
0000
0000
,
0000
1001
0000
0000
0000
0000
0000
0000
;

//---------------dance-single - ----------------
#NOTES:
     dance-single:
     :
     Hard:
     7:
     0.282604,0.505548,0.017584,0.140674,0.219803,225.000000,223.000000,2.000000,16.000000,0.000000,0.000000,0.282604,0.505548,0.017584,0.140674,0.219803,225.000000,223.000000,2.000000,16.000000,0.000000,0.000000:
// measure 0
0000
0000
0000
0000
,  // measure 1
0000
0000
0000
0000
,  // measure 2
0000
0000
0000
0000
,  // measure 3
0000
0000
0000
0000
,  // measure 4
0000
0000
0000
0000
,  // measure 5
0000
0000
0000
0000
,  // measure 6
0000
0000
0000
0000
,  // measure 7
0000
0000
0000
0000
0000
0000
0000
0000
0000
0000
0000
1000
0001
1000
0001
1000
,  // measure 8
0100
0000
0000
0001
0010
0000
0000
1000
0100
0000
0000
0000
0010
0000
0100
0000
,  // measure 9
0001
0000
2000
0000
0000
0000
3000
0000
0100
0000
0010
1000
0100
0000
0001
1000
,  // measure 10
0000
0100
0010
0000
0100
0000
0010
1000
0001
0000
0100
0000
0010
0000
0100
0000
,  // measure 11
2000
0000
3000
0000
0100
0000
0000
0001
0010
0000
0000
1000
0001
1000
0100
0010
,  // measure 12
1000
0000
0000
0100
0010
0000
0000
0100
1000
0000
0000
0100
0010
0001
0100
0010
,  // measure 13
0000
1000
0100
0000
2000
0000
3000
0000
0100
0000
0001
0010
0100
0000
0001
1000
,  // measure 14
0000
0001
0200
0000
0000
0000
0300
0010
1000
0000
0100
0001
0000
1000
0000
0100
,  // measure 15
0010
0000
0000
0010
1000
0000
0000
0100
0010
0000
0001
0000
1000
0000
0002
0000
,  // measure 16
0003
0000
0000
0001
1000
0100
0010
0001
0100
0000
0000
0000
0010
0000
0100
0000
,  // measure 17
0000
0010
0000
1000
0000
0100
0000
0001
,  // measure 18
0100
0010
1000
0100
0010
0000
0100
1000
,  // measure 19
0000
0100
0000
0010
0000
0100
0000
0010
,  // measure 20
0100
0010
0001
1000
0100
0000
1000
0100
,  // measure 21
0000
0000
0010
0000
0000
0000
0100
0000
0000
0100
0000
0000
0000
0000
1000
0000
,  // measure 22
0000
0100
0010
0001
0100
0000
0000
0010
,  // measure 23
0100
0000
0010
1000
0000
0100
0000
1000
,  // measure 24
0100
1000
0100
1000
0100
0000
0010
0100
,  // measure 25
0000
0010
0000
0001
0000
0100
0000
1000
,  // measure 26
0100
0001
1000
0001
0100
0000
0010
0100
,  // measure 27
0000
0100
0000
1000
0000
0100
0000
0001
,  // measure 28
0100
0010
1000
0100
0010
0000
0100
1000
,  // measure 29
0000
0100
0000
0010
0000
0100
0000
0010
,  // measure 30
1000
0001
0100
0010
0100
0000
0000
1000
,  // measure 31
0001
0000
0000
0010
0100
0000
0010
0000
,  // measure 32
1000
0100
0010
0001
2000
0000
0000
0000
,  // measure 33
0000
3000
0100
0000
0010
0000
0001
0000
,  // measure 34
2000
0000
3000
0001
0200
0000
0000
0000
,  // measure 35
0000
0000
0000
0300
0010
0000
0100
0000
,  // measure 36
0001
1000
2000
0000
,  // measure 37
0000
0000
0000
3000
0002
0000
0000
0003
,  // measure 38
2000
0000
3000
0100
0020
0000
0000
0000
,  // measure 39
0000
0000
0000
0030
0001
0000
1000
0000
,  // measure 40
0001
1000
2002
0000
,  // measure 41
0000
0000
0000
0000
0000
0000
3003
0000
1000
0000
0001
1000
0000
0100
0010
0001
,  // measure 42
0000
0100
0010
0001
0000
0001
1000
0001
1000
0000
0100
0010
0000
0001
0100
1000
,  // measure 43
0000
0100
0010
0001
0000
0100
0010
1000
0100
0000
0010
0100
0000
0010
0001
1000
,  // measure 44
0001
0000
0001
0000
1000
0000
0100
0000
0010
0000
0100
0000
0000
0001
0000
0000
,  // measure 45
0000
2002
0000
0000
0000
0000
0000
0000
,  // measure 46
3003
0000
0000
0000
;

//---------------dance-single - ----------------
#NOTES:
     dance-single:
     :
     Challenge:
     10:
     0.344149,0.505548,0.061545,0.219803,0.294537,274.000000,267.000000,7.000000,25.000000,0.000000,0.000000,0.344149,0.505548,0.061545,0.219803,0.294537,274.000000,267.000000,7.000000,25.000000,0.000000,0.000000:
0000
0000
0000
0000
,
0000
0000
0000
0000
,
0000
0000
0000
0000
,
0000
0000
0000
0000
,
0000
0000
0000
0000
,
0000
0000
0000
0000
,
0000
0000
0000
0000
,
0000
0000
0000
0000
0000
0000
0000
0000
0000
0000
0000
0001
1000
0001
0100
0010
,
2000
0000
3000
0100
0020
0000
0030
0100
0010
0000
0001
0010
1000
0001
0100
0010
,
0000
1000
0100
0000
0100
0000
1000
0000
0100
0000
0010
0001
1000
0001
1000
0100
,
0000
1000
0200
0000
0000
0000
0300
1000
0010
0000
0001
0000
1000
0000
0100
0000
,
2000
0000
3000
0000
0002
0000
0003
1000
0200
0000
0300
1000
0100
1000
0100
0010
,
0002
0000
0003
0100
0020
0000
0030
1000
0200
0000
0300
0001
1000
0100
1000
0100
,
0000
0100
1000
0000
0100
0000
0010
0000
0100
0000
0010
1000
0001
0000
0100
1000
,
0000
0100
0020
0000
0000
0000
0030
0100
0010
0000
0001
1000
0000
0010
0000
1000
,
0200
0000
0300
0001
0200
0000
0300
1000
0001
0000
0100
0000
0010
0000
0002
0000
,
0000
0000
0003
1000
0100
1000
0100
0010
1000
0000
0000
0000
0100
0000
0010
0000
,
0000
0100
0000
0010
0000
0001
0000
1000
,
0100
1000
0100
0010
0100
0000
1000
0100
,
0000
0010
0000
0100
0000
0010
0000
0100
,
1000
0100
0010
0001
1000
0000
0100
1000
,
0000
0100
0000
0010
0000
0100
0000
0010
,
0100
1000
0100
0010
0002
0000
0003
0100
,
0010
0000
1000
0100
0010
1000
0100
0010
,
1000
0100
1000
0100
1001
0000
0010
0000
0100
0000
0000
0000
1000
0000
0100
0000
,
0000
0010
0000
0100
0000
0010
0001
1000
,
0001
1000
0001
1000
0100
0000
0010
0100
,
0000
0001
0000
1000
0000
0100
0000
1000
,
0001
1000
0100
0010
0100
0000
1000
0100
,
0000
0010
0000
0100
0000
0010
0000
1000
,
0001
1000
0001
0100
0010
0000
0010
1000
,
0001
0000
0100
0010
1000
0000
0100
0000
,
0001
0000
1001
0000
2010
0000
0100
0010
,
0000
0001
0000
0100
0000
0010
0000
3001
,
0120
0000
1000
0130
0012
0000
1000
0100
,
0000
1000
0000
0010
0000
0100
0010
1000
,
0100
0010
1000
0000
0023
0000
0100
0001
,
0000
0100
0000
0031
2000
0100
0000
3010
,
0201
0000
1000
0001
0320
0000
0001
1000
,
0000
0100
0000
1000
0000
0100
0000
0001
,
2030
0000
0000
0000
0000
0000
0000
0000
3002
0000
0010
1000
0000
0100
1000
0010
,
0000
0100
0010
1000
0000
0100
0010
0100
1003
0000
0100
0010
0000
1000
0100
0010
,
0000
0001
1000
0100
0000
1000
0100
0010
0001
0000
0100
0010
0000
1000
0100
0010
,
0000
1000
0001
1000
0000
0001
1000
0100
0010
0000
1000
0100
0000
0010
1000
0100
,
0010
0000
0001
0000
1000
0000
0001
0000
1000
0000
0000
0010
0000
0000
0000
0001
0000
0000
0000
0000
1000
0000
0000
0000
,
0000
2002
0000
0000
0000
0000
0000
0000
,
3003
0000
0000
0000
;
