#VERSION:0.83;
#TITLE:Summer Again;
#SUBTITLE:;
#ARTIST:浜崎あゆみ;
#TITLETRANSLIT:;
#SUBTITLETRANSLIT:;
#ARTISTTRANSLIT:Ayumi Hamasaki;
#GENRE:J-Pop;
#ORIGIN:;
#CREDIT:;
#BANNER:Summer Again.png;
#BACKGROUND:Summer Again-bg.png;
#PREVIEWVID:;
#JACKET:Summer Again-jacket.png;
#CDIMAGE:;
#DISCIMAGE:;
#LYRICSPATH:;
#CDTITLE:Wrland Season 2.png;
#MUSIC:Summer Again.ogg;
#OFFSET:0.000000;
#SAMPLESTART:40.867001;
#SAMPLELENGTH:12.000000;
#SELECTABLE:YES;
#DISPLAYBPM:63.000000:127.000000;
#BPMS:0.000=125.300,
8.000=127.983,
86.000=63.992,
87.000=127.983;
#STOPS:;
#DELAYS:;
#WARPS:;
#TIMESIGNATURES:0.000=4=4;
#TICKCOUNTS:0.000=4;
#COMBOS:0.000=1;
#SPEEDS:0.000=1.000=0.000=0;
#SCROLLS:0.000=1.000;
#FAKES:;
#LABELS:0.000=Song Start;
#BGCHANGES:0.000=Summer Again.avi=1.000=0=0=0=StretchNoLoop====,
99999=-nosongbg-=1.000=0=0=0 // don't automatically add -songbackground-
;
#KEYSOUNDS:;
#ATTACKS:
;

//---------------dance-single - ----------------
#NOTEDATA:;
#CHARTNAME:;
#STEPSTYPE:dance-single;
#DESCRIPTION:;
#CHARTSTYLE:;
#DIFFICULTY:Beginner;
#METER:1;
#RADARVALUES:0.034650,0.052299,0.000000,0.010106,0.000000,24.000000,24.000000,0.000000,1.000000,0.000000,0.000000,0.000000,0.000000,0.000000,0.034650,0.052299,0.000000,0.010106,0.000000,24.000000,24.000000,0.000000,1.000000,0.000000,0.000000,0.000000,0.000000,0.000000;
#CREDIT:;
#DISPLAYBPM:63.000000:127.000000;
#NOTES:
0000
0000
0000
0000
,
0000
0000
0000
0000
,
0000
0000
0000
0000
,
0000
0000
0000
0000
,
0000
0000
0000
0000
,
0000
0000
0000
0000
,
0100
0000
0000
0000
,
0000
0000
0000
0000
,
0010
0000
0000
0000
,
0000
0000
0000
0000
,
1000
0000
0000
0000
,
0000
0000
0000
0000
,
0001
0000
0000
0000
,
0000
0000
0000
0000
,
0100
0000
0000
0000
,
0000
0000
0000
0000
,
0010
0000
0000
0000
,
0000
0000
0000
0000
,
0100
0000
0000
0000
,
0000
0000
0000
0000
,
1000
0000
0000
0000
,
0000
0000
0000
0100
,
0000
0000
0000
0000
,
0000
0000
0000
0010
,
0000
0000
0000
0000
,
0000
0000
0000
0001
,
0000
0000
0000
0000
,
0000
0000
0000
1000
,
0000
0000
0000
0000
,
0000
0000
0000
0100
,
0000
0000
0000
0000
,
0000
0000
0000
1000
,
0000
0000
0000
0000
,
0000
0000
0000
0001
,
0000
0000
0000
0000
,
0000
0000
0000
1000
,
0000
0000
0000
0000
,
0000
0000
0000
0100
,
0000
0000
0000
0000
,
0000
0000
0000
0010
,
0000
0000
0000
0000
,
0000
0000
0000
0100
,
0000
0000
0000
0000
,
0000
0000
0000
0010
,
0000
0000
0000
0000
,
0000
0000
0000
0200
,
0000
0000
0000
0000
,
0000
0000
0300
0010
,
0000
0000
0000
0000
,
0000
0000
0000
0100
,
0000
0000
0000
0000
,
0000
0000
0000
0010
;

//---------------dance-single - ----------------
#NOTEDATA:;
#CHARTNAME:;
#STEPSTYPE:dance-single;
#DESCRIPTION:;
#CHARTSTYLE:;
#DIFFICULTY:Easy;
#METER:2;
#RADARVALUES:0.067855,0.078449,0.000000,0.020212,0.000000,47.000000,47.000000,0.000000,2.000000,0.000000,0.000000,0.000000,0.000000,0.000000,0.067855,0.078449,0.000000,0.020212,0.000000,47.000000,47.000000,0.000000,2.000000,0.000000,0.000000,0.000000,0.000000,0.000000;
#CREDIT:;
#DISPLAYBPM:63.000000:127.000000;
#NOTES:
0000
0000
0000
0000
,
0000
0000
0000
0000
,
0000
0000
0000
0000
,
0000
0000
0000
0000
,
0000
0000
0000
0000
,
0000
0000
0000
0000
,
0010
0000
0000
0000
,
0010
0000
0000
0000
,
0100
0000
0000
0000
,
0100
0000
0000
0000
,
0010
0000
0000
0000
,
0010
0000
0000
0000
,
0001
0000
0000
0000
,
0001
0000
0000
0000
,
1000
0000
0000
0000
,
1000
0000
0000
0000
,
0100
0000
0000
0000
,
1000
0000
0000
0000
,
0100
0000
0000
0000
,
0001
0000
0000
0000
,
0100
0000
0000
0000
,
1000
0000
0000
0010
,
0000
0000
0000
0100
,
0000
0000
0000
0010
,
0000
0000
0000
0100
,
0000
0000
0000
0010
,
0000
0000
0000
0100
,
0000
0000
0000
1000
,
0000
0000
0000
0010
,
0000
0000
0000
0001
,
0000
0000
0000
0100
,
0000
0000
0000
0010
,
0000
0000
0000
0100
,
0000
0000
0000
1000
,
0000
0000
0000
0001
,
0000
0000
0000
1000
,
0000
0000
0000
0100
,
0000
0000
0000
1000
,
0000
0000
0000
0100
,
0000
0000
0000
0010
,
0000
0000
0000
0010
,
0000
0000
0000
0100
,
0000
0000
0000
0100
,
0000
0000
0000
0001
,
0000
0000
0000
0010
,
0000
0000
0000
0002
,
0000
0000
0003
0200
,
0000
0000
0300
0010
,
0000
0000
0000
0100
,
0000
0000
0000
0010
,
0000
0000
0000
0100
,
0000
0000
0000
0010
;

//---------------dance-single - ----------------
#NOTEDATA:;
#CHARTNAME:;
#STEPSTYPE:dance-single;
#DESCRIPTION:;
#CHARTSTYLE:;
#DIFFICULTY:Medium;
#METER:6;
#RADARVALUES:0.345052,0.443469,0.030318,0.192016,0.035371,239.000000,236.000000,3.000000,19.000000,0.000000,0.000000,0.000000,0.000000,0.000000,0.345052,0.443469,0.030318,0.192016,0.035371,239.000000,236.000000,3.000000,19.000000,0.000000,0.000000,0.000000,0.000000,0.000000;
#CREDIT:;
#DISPLAYBPM:63.000000:127.000000;
#NOTES:
// measure 0
0000
0000
0000
0000
,  // measure 1
0000
0000
0000
0000
,  // measure 2
0000
0000
0000
0000
,  // measure 3
0000
0000
0000
0000
,  // measure 4
0000
0000
0000
0000
,  // measure 5
0000
0000
0000
0000
,  // measure 6
0100
0100
0020
0000
,  // measure 7
0030
0001
1000
0001
,  // measure 8
1000
0001
1000
1000
,  // measure 9
1000
0100
1000
0100
,  // measure 10
0010
0100
0010
0010
,  // measure 11
0010
0100
0010
0001
,  // measure 12
0100
0010
0100
0010
,  // measure 13
0000
0100
0001
1000
0002
0000
0003
0000
,  // measure 14
0100
1000
0100
0010
,  // measure 15
0100
0010
0001
0100
,  // measure 16
0010
0100
0010
1000
,  // measure 17
0100
0000
1000
0000
0100
0000
0000
0010
,  // measure 18
0100
0000
0000
0100
0010
0000
0000
0001
,  // measure 19
1000
0000
0000
0001
0000
0000
1000
0000
0100
0000
0001
0000
0010
0000
0010
0000
,  // measure 20
0100
0000
0000
0010
0100
0010
0100
0010
,  // measure 21
0001
0100
0010
1000
0200
0300
0100
0010
,  // measure 22
0100
0010
0200
0000
0300
0000
1000
0100
,  // measure 23
0001
0100
0020
0000
0030
0000
1000
0100
,  // measure 24
0010
0001
0100
0010
1000
0010
0000
1000
,  // measure 25
0100
0010
1000
0100
2000
3000
0100
0010
,  // measure 26
0001
0100
0020
0000
0030
0000
0100
0010
,  // measure 27
0100
1000
0200
0000
0300
0000
0100
0010
,  // measure 28
0001
0100
0010
1000
0100
0010
0000
0100
,  // measure 29
0010
0000
0100
0000
0010
0000
0001
0000
0200
0000
0300
0000
1000
0000
0000
0001
,  // measure 30
0000
0000
1000
0000
0100
0000
0001
0000
0010
0000
0100
0000
0010
0000
0000
0100
,  // measure 31
0000
0000
0010
0000
0100
0000
0001
0000
1000
0000
0100
0000
0010
0000
0000
0001
,  // measure 32
0000
0000
0100
0000
0010
0000
0100
0000
0010
0000
0000
0000
1000
0000
0000
0100
,  // measure 33
0000
1000
0100
0010
0001
0000
0100
0010
,  // measure 34
0100
0010
0002
0003
0100
0020
0030
0100
,  // measure 35
0010
0100
0010
0001
0100
1000
0100
0000
,  // measure 36
0010
0000
0100
2002
0000
3003
0100
0000
,  // measure 37
0010
0000
1000
0220
0000
0330
0001
0000
,  // measure 38
1000
0000
0100
1000
0010
0100
0100
0000
,  // measure 39
0010
0000
0100
0100
0010
0001
0100
0010
,  // measure 40
0001
0100
0020
0000
0030
0000
0100
0010
,  // measure 41
0100
1000
0100
0000
0100
1000
0000
0001
,  // measure 42
0010
1000
0100
0001
1000
0001
0010
0100
,  // measure 43
1000
0010
0001
0100
0010
0100
0010
0100
,  // measure 44
0010
0100
0020
0030
0100
0010
0000
0001
,  // measure 45
1000
0100
1000
0001
1000
0100
0020
0000
,  // measure 46
0000
0000
0030
0200
,  // measure 47
0000
0000
0300
0110
,  // measure 48
0010
0100
0000
0010
,  // measure 49
0100
0000
0010
0000
0000
0001
1000
0000
,  // measure 50
0100
0000
0000
0000
1000
0000
0000
0100
0000
0000
0010
0000
0000
0000
0100
0000
,  // measure 51
0010
0000
0000
0000
0100
0000
0000
0010
0000
0000
0100
0000
0000
0000
0000
0000
;

//---------------dance-single - ----------------
#NOTEDATA:;
#CHARTNAME:;
#STEPSTYPE:dance-single;
#DESCRIPTION:;
#CHARTSTYLE:;
#DIFFICULTY:Hard;
#METER:9;
#RADARVALUES:0.459106,0.889085,0.121273,0.454775,0.131379,318.000000,306.000000,12.000000,45.000000,0.000000,0.000000,0.000000,0.000000,0.000000,0.459106,0.889085,0.121273,0.454775,0.131379,318.000000,306.000000,12.000000,45.000000,0.000000,0.000000,0.000000,0.000000,0.000000;
#CREDIT:;
#DISPLAYBPM:63.000000:127.000000;
#NOTES:
0000
0000
0000
0000
,
0000
0000
0000
0000
,
0000
0000
0000
0000
,
0000
0000
0000
0000
,
0000
0000
0000
0000
,
0000
0000
0000
0000
,
1000
0001
1000
0001
2000
3000
0002
0003
,
2000
3000
0001
0100
0010
0100
1000
0100
,
0010
0000
0001
0000
0100
0000
0001
0000
0200
0000
0000
0300
0002
0000
0000
0003
,
0200
0000
0000
0300
0010
0000
0100
0000
1000
0000
0100
0000
0010
0000
0100
0000
,
0010
0100
1000
0100
0020
0030
0200
0300
,
0020
0030
0100
0010
0100
1000
0100
0000
,
0010
0100
0010
0100
0010
0100
0010
0100
,
0000
0001
1000
0001
2000
0000
3000
0000
,
1000
0000
0010
0000
0100
0000
0010
0000
0200
0000
0300
0010
0000
0000
0100
0000
,
0010
0000
0100
0000
0010
0000
0001
0000
0200
0000
0300
1000
0000
0000
0100
0000
,
0010
0000
0100
0000
0010
0000
0001
0000
0200
0000
0300
0010
0000
0000
0100
0000
,
1000
0100
0010
1000
0200
0000
0300
0001
,
0200
0000
0300
1000
0200
0000
0300
0100
,
0020
0000
0030
0100
0000
0000
0010
0000
0001
0000
1000
0000
1000
0000
1000
0000
,
1000
0010
0001
0100
0010
0001
0100
1000
0010
0001
0100
1000
0010
0100
0001
0100
,
0010
0001
0100
1000
0010
0001
0100
0010
1001
0000
0101
1010
1001
0000
0100
0000
,
0010
0100
0020
0000
1030
0100
0100
0010
,
0001
0100
0020
0000
0031
0100
0100
0010
,
1000
0100
0010
0001
0100
0020
0030
0100
,
0010
0100
1000
0100
0020
0030
0100
0010
,
0001
0100
0020
0030
0110
0110
1001
0100
,
0010
0100
0020
0030
0110
1001
0100
0010
,
0100
0000
0010
0000
1000
0000
0100
0000
0010
0000
0002
0000
0003
0000
0100
0010
,
0100
0000
0100
0000
1000
0000
0100
0000
0020
0000
0030
0000
0200
0000
0300
0020
,
0000
0030
0100
0000
0010
0000
0001
0000
0100
0000
0010
0000
0200
0000
0300
0020
,
0000
0030
0100
0000
1000
0000
0100
0000
0010
0000
0100
0000
2000
0000
3000
0200
,
0000
0300
0010
0000
0001
0000
0100
0000
0020
0000
0030
0000
0100
0000
0000
0020
,
0000
0030
0100
0000
1000
0000
0100
0000
0020
0000
0030
0000
0100
0000
0010
0000
,
0100
0010
0002
0003
0100
2000
3000
0100
,
0010
0100
0010
0001
0100
0010
2020
0000
,
0000
3030
0000
1001
0100
0010
0100
0010
,
0100
1000
0001
1001
0100
0010
0100
0100
,
1000
0100
0010
0001
0100
0010
0100
1000
,
0100
0010
0001
0100
0010
0100
1000
0100
,
1000
0100
2000
0000
3000
0000
0100
0010
,
0100
0010
0200
0300
0010
0200
0300
0001
,
1000
0100
1000
0100
0010
0001
0100
0010
,
1000
0100
0010
0001
0100
0010
1000
0100
,
0010
0100
2000
3000
0100
2000
3000
0100
,
0010
0001
0100
0010
0100
1000
0200
0000
,
0000
0000
0300
0020
,
0000
0000
0030
0100
,
0010
0000
0000
0000
0100
0000
0000
1000
0000
0000
0100
0000
0000
0000
0001
0000
,
0100
0000
0010
0000
0100
0000
0000
1000
0000
0000
0100
0000
0001
0000
0000
0000
,
0100
0000
0000
0000
0010
0000
0000
0100
0000
0000
0010
0000
0000
0000
0100
0000
,
0010
0000
0100
0000
1000
0000
0000
0100
0000
0000
0001
0000
1000
0000
0000
0000
;
