#TITLE:Share the World;
#SUBTITLE:;
#ARTIST:東方神起;
#TITLETRANSLIT:;
#SUBTITLETRANSLIT:;
#ARTISTTRANSLIT:TVXQ!;
#GENRE:J-Pop;
#CREDIT:;
#BANNER:Share the World.png;
#BACKGROUND:Share the World-bg.png;
#LYRICSPATH:;
#CDTITLE:One Piece.png;
#MUSIC:Share the World.ogg;
#OFFSET:-0.028000;
#SAMPLESTART:42.023998;
#SAMPLELENGTH:12.000000;
#SELECTABLE:YES;
#DISPLAYBPM:60.000000:121.000000;
#BPMS:0.000000=120.000000
,81.000000=60.000000
,82.000000=121.000000
,83.000000=120.000000
;
#STOPS:
;
#BGCHANGES:0.000=Share the World.avi=1.000=0=0=0=StretchNoLoop====,
99999=-nosongbg-=1.000=0=0=0 // don't automatically add -songbackground-
;
#KEYSOUNDS:;
#ATTACKS:;

//---------------dance-single - ----------------
#NOTES:
     dance-single:
     :
     Beginner:
     1:
     0.050358,0.173107,0.043164,0.007194,0.000000,49.000000,43.000000,6.000000,1.000000,0.000000,0.000000,0.050358,0.173107,0.043164,0.007194,0.000000,49.000000,43.000000,6.000000,1.000000,0.000000,0.000000:
0000
0000
0000
0000
,
0000
0000
0000
0000
,
0000
0000
0000
0000
,
0000
0000
0000
0000
,
0000
0000
0000
0000
,
0000
1000
0000
0000
,
0000
0000
0000
0000
,
0000
0001
0000
0000
,
0000
0000
0000
0000
,
0000
0100
0000
0000
,
0000
0000
0000
0000
,
0000
0010
0000
0000
,
0000
0000
0000
0000
,
0000
0100
0000
0000
,
0000
0000
0000
0000
,
0000
0010
0000
0000
,
0000
0000
0000
0000
,
0000
0001
0000
0000
,
0000
1000
0000
0000
,
0000
0001
0000
0000
,
0000
2000
3000
0000
,
0100
0000
0000
0000
,
0000
0000
0000
0000
,
0010
0000
0000
0000
,
0000
0000
0000
0000
,
0100
0000
0000
0000
,
0000
0000
0000
0000
,
0000
0001
0000
1000
,
0000
0001
0000
0000
,
0100
0000
0000
0000
,
0010
0000
0000
0000
,
0000
0000
0000
0000
,
0100
0000
0000
0000
,
0000
0000
0000
0000
,
0010
0000
0000
0000
,
0000
0000
0000
0000
,
0001
0000
0000
0000
,
0000
0000
0000
0000
,
1000
0000
0000
0000
,
0000
0000
0000
0000
,
0001
0000
0000
0000
,
0000
0000
0000
0000
,
0100
0000
0000
0000
,
0000
0000
0000
0000
,
1000
0000
0000
0000
,
0000
0000
0000
0000
,
0010
0000
0000
0000
,
0001
0000
0000
0000
,
0000
0000
0000
0000
,
0100
0000
0000
0000
,
0000
0000
0000
0000
,
0010
0000
0000
0000
,
0000
0000
0000
0000
,
0000
1001
0000
1001
,
0000
0000
0000
0000
,
0100
0000
0000
0000
,
0010
0000
0000
0000
,
0000
0000
0000
0000
,
1000
0000
0000
0000
,
0000
0000
0000
0000
,
0100
0000
0000
0000
,
0000
0000
0000
0000
,
0000
0110
0000
1001
,
0000
0110
0000
0000
,
0001
0000
0000
0000
,
0010
0000
0000
0000
,
0000
0000
0000
0000
,
0010
0000
0000
0000
,
0100
0000
0000
0110
;

//---------------dance-single - ----------------
#NOTES:
     dance-single:
     :
     Easy:
     2:
     0.091467,0.222566,0.079134,0.028776,0.010791,89.000000,78.000000,11.000000,4.000000,0.000000,0.000000,0.091467,0.222566,0.079134,0.028776,0.010791,89.000000,78.000000,11.000000,4.000000,0.000000,0.000000:
0000
0000
0000
0000
,
0000
0000
0000
0000
,
0000
0000
0000
0000
,
0000
0000
0000
0000
,
0000
0000
0000
0000
,
0000
0010
0000
0000
,
0000
0100
0000
0000
,
0000
0010
0000
0000
,
0000
0100
0000
0000
,
1001
0100
0000
0000
,
0000
0100
0000
0000
,
0000
0001
0000
0000
,
0000
0100
0000
0000
,
0000
0001
0000
0000
,
0000
1000
0000
0000
,
0000
0001
0000
0000
,
0000
1000
0000
0000
,
0000
0010
0000
0000
,
0000
0100
0000
0000
,
0000
0010
0000
0000
,
0000
0002
0003
0000
,
1000
0000
0000
0000
,
1000
0000
0000
0000
,
0001
0000
0000
0000
,
0002
0000
0000
0003
,
0100
0000
0000
0000
,
0100
0000
0000
0000
,
0000
0110
0000
0110
,
0000
0001
0000
1000
,
0000
0000
0001
0000
0000
1000
0000
0000
0001
0000
0000
0000
0000
0000
0000
0000
,
0100
0000
0000
0000
,
0010
0000
0000
0000
,
0010
0000
0000
0000
,
0001
0000
0000
0000
,
1000
0000
0000
0000
,
1000
0000
0000
0000
,
0100
0000
0000
0000
,
0100
0000
0000
0000
,
0010
0000
0000
0000
,
0100
0000
0000
0000
,
0010
0000
0000
0000
,
0001
0000
0000
0000
,
1000
0000
0000
0000
,
0001
0000
0000
0000
,
1000
0000
0000
0000
,
0001
0000
0000
0000
,
0100
0000
0000
0000
,
0010
0000
0000
0000
,
0010
0000
0000
0000
,
0100
0000
0000
0000
,
0200
0000
0000
0300
,
0001
0000
0000
0000
,
1000
0000
0000
0000
,
0000
1001
0000
0110
,
0000
1001
0000
1000
,
0000
0000
0001
0000
0000
1000
0000
0000
0001
0000
0000
0000
0000
0000
0000
0000
,
0100
0000
0000
0000
,
0010
0000
0000
0000
,
0100
0000
0000
0000
,
2000
0000
0000
3000
,
0100
0000
0000
0000
,
0100
0000
0000
0000
,
0000
1100
0000
0101
,
0000
0110
0000
1001
,
0000
0000
0100
0000
0000
0010
0000
0000
0100
0000
0000
0000
0000
0000
0000
0000
,
0010
0000
0000
0000
,
0100
0000
0000
0000
,
0010
0000
0000
0000
,
0100
0000
0000
0110
;

//---------------dance-single - ----------------
#NOTES:
     dance-single:
     :
     Medium:
     6:
     0.372035,0.395672,0.086328,0.028776,0.161866,362.000000,350.000000,12.000000,4.000000,0.000000,0.000000,0.372035,0.395672,0.086328,0.028776,0.161866,362.000000,350.000000,12.000000,4.000000,0.000000,0.000000:
0000
0000
0000
0000
,
0000
0000
0000
0000
,
0000
0000
0000
0000
,
0000
0000
0000
0000
,
0000
0000
0000
0000
,
0000
0000
0000
0000
0100
0001
0000
0000
0010
0000
0000
0000
0100
0000
0010
0000
,
0100
0000
0010
0000
1000
0100
0000
0000
0010
0000
0000
0000
0100
0000
0000
0000
,
0110
0000
0000
0000
0001
1000
0000
0000
0100
0000
0000
0000
0100
0000
1000
0000
,
0100
0000
0010
0000
0001
0100
0000
0000
1000
0000
0100
0000
0010
0000
0000
0000
,
0110
0000
1000
0100
0010
0000
0100
0010
,
0100
0000
0001
1000
0001
1000
0100
0000
,
1000
0000
0100
0010
0100
0000
0010
0001
,
0100
0000
0010
1000
0100
0010
0100
0010
,
0000
0000
0100
0010
0100
0000
1000
0100
,
0010
0000
0001
0100
0001
0100
0010
1000
,
0010
0000
0100
0010
0100
0000
0100
0010
,
0001
0000
1000
0001
1000
0100
1000
0000
,
1001
0000
0000
0000
0100
0000
0000
0010
0000
0000
0100
0000
0010
0000
0000
0000
,
0100
0000
0000
0000
1000
0000
0000
1000
0000
0000
0100
0000
0010
0000
0000
0000
,
1001
0000
0000
0000
0100
0000
0000
0010
0000
0000
0001
0000
1000
0000
0000
0000
,
1001
0000
0000
0000
0000
0000
1000
0100
,
0010
0000
0100
0000
0010
0000
0001
0100
,
0010
0000
1000
0000
0100
0000
1000
0100
,
0010
0000
0100
0000
0010
0000
0100
0010
,
0001
0000
0000
0000
0100
0000
0010
0100
0000
0000
0020
0000
0000
0000
0030
0000
,
1000
0000
0100
0000
0010
0000
1000
0100
,
0010
0000
0000
0000
0001
0000
0000
0000
1000
0000
0001
0000
1000
0000
0010
1000
,
0000
0000
0000
0000
1000
0000
0100
0010
0000
0000
0001
0000
0100
0000
0010
0100
,
0000
0002
0000
0000
0000
0000
0000
0000
,
0003
0000
1000
0000
0000
0100
0000
0000
1000
0000
0000
0100
0000
0000
0001
0000
,
0100
0010
0000
0000
1000
0000
0000
0000
0010
0000
0100
0000
0010
0000
0001
0000
,
0100
0010
0000
1000
0000
0000
0100
0000
0010
0000
0000
0000
0110
0000
0000
0000
,
0100
0010
0000
0000
0001
0000
0000
0000
1000
0000
0010
0000
1000
0000
0100
0000
,
0010
0100
0000
0000
0010
0000
0001
0000
1000
0000
0000
0000
1001
0000
0000
0000
,
0100
0010
0000
0000
1000
0000
0000
0000
0100
0000
0010
0000
0100
0000
1000
0000
,
0100
1000
0000
0000
0100
0000
0001
0000
0100
0000
0000
0000
0011
0000
0000
0000
,
0010
0100
0000
0000
0010
0000
0000
0000
0100
0000
0010
0000
1000
0000
0100
0000
,
1000
0100
0000
1000
0000
0000
0010
0000
0001
0000
0000
0000
1001
0000
0000
0000
,
0100
0000
0000
0100
0000
0000
0010
0000
0100
0000
0000
0000
0000
0000
0000
0000
,
0001
0000
0000
0001
0000
0000
1000
0000
0001
0000
0000
0000
0000
0000
0000
0000
,
0100
0000
0000
1000
0000
0000
0100
0000
1000
0000
0000
0000
0000
0000
0000
0000
,
0010
0000
0000
0100
0000
0000
0010
0000
0100
0000
0000
0000
0000
0000
0000
0000
,
0100
0000
0000
0010
0000
0000
0001
0000
1000
0000
0000
0000
0000
0000
0000
0000
,
0100
0000
0000
1000
0000
0000
0100
0000
1000
0000
0000
0000
0000
0000
0000
0000
,
0100
0000
0000
0010
0000
0000
0100
0000
0010
0000
0000
0001
0000
0000
0100
0000
,
0010
0000
0000
0100
0000
0000
1000
0000
0100
0000
0000
0000
1001
0000
0000
0000
,
0100
0000
1000
0000
0100
1000
0100
0010
,
0100
0000
0010
0000
0100
0000
0010
0100
,
0010
0000
0001
0000
1000
0000
0100
1000
,
0100
0000
0010
0000
0100
0000
0010
0100
,
0010
0000
0001
0000
0100
0000
1000
0100
0000
0000
2000
0000
0000
0000
3000
0000
,
0100
0000
0010
0000
0100
0010
0100
0000
,
1000
0000
0000
0000
0100
0000
0000
0000
0010
0000
0100
0000
0010
0000
0001
1000
,
0100
0000
0000
0000
0010
0000
0100
0010
0000
0000
0100
0000
0010
0000
0001
1000
,
0200
0000
0000
0000
,
0300
0000
0100
0000
0000
0010
0000
0000
1000
0000
0000
0000
0100
0000
0010
0000
,
0100
0000
0010
0000
0100
0000
1000
0100
,
0010
0000
0100
0000
0010
0000
0001
0100
,
0010
0000
1000
0000
0100
0000
1000
0100
,
0010
0100
0010
0100
,
0001
0000
0100
0000
1000
0100
1000
0000
,
0100
0000
0010
0100
0010
0000
0001
0100
,
0100
0000
1000
1001
0100
0000
0010
0100
,
0010
0100
0010
0100
,
1000
0000
0000
0100
0000
0000
0010
0000
0100
0000
0000
1000
0000
0000
0100
0000
,
0010
0001
0000
0000
0100
0000
0000
0000
0010
0000
1000
0000
0100
0000
1000
0000
,
0100
1000
0000
0100
0001
0000
0010
0000
0100
0000
0000
0000
0100
0000
0000
0000
,
0010
0100
0000
0000
0010
0000
0100
0000
0001
0000
1000
0000
0100
0000
1000
0000
,
0100
0010
0000
0100
0000
0000
0010
0000
0001
0000
0000
0000
1001
0000
0000
0000
;

//---------------dance-single - ----------------
#NOTES:
     dance-single:
     :
     Hard:
     9:
     0.503583,0.766615,0.086328,0.352508,0.485598,490.000000,478.000000,12.000000,49.000000,0.000000,0.000000,0.503583,0.766615,0.086328,0.352508,0.485598,490.000000,478.000000,12.000000,49.000000,0.000000,0.000000:
0000
0000
0000
0000
,
0000
0000
0000
0000
,
0000
0000
0000
0000
,
0000
0000
0000
0000
,
0000
0000
0000
0000
,
0000
0000
0000
0000
0100
1000
0000
0000
0100
0000
0010
0000
0100
0000
1000
0000
,
0100
0000
0010
0000
0100
0010
0000
0100
0010
0000
0010
0000
0001
0000
0100
0000
,
0010
0000
0100
0010
0001
0000
1000
0000
0100
0000
0010
0000
0100
0000
0010
0000
,
0001
0000
0100
0000
0010
1000
0000
0100
0010
0000
0100
0000
0010
0000
0000
0000
,
1001
0000
0100
0000
0010
0000
0100
0010
0000
0000
0100
0000
1000
0000
0100
0010
,
0000
0000
0100
0000
0010
0000
0001
0100
0000
0000
1000
0000
0100
0000
0000
0000
,
0110
0000
0000
0000
1000
0000
0100
0010
0000
0000
0100
0000
0010
0000
0001
1000
,
0000
0000
0100
0000
1000
0000
0100
1000
0000
0000
0100
0000
0010
0000
0001
0100
,
0000
0000
0000
0000
0100
0000
0010
1000
0000
0000
0100
0000
0010
0000
0001
0100
,
0000
0000
0010
0000
0100
0000
0010
0100
0000
0000
1000
0000
0100
0000
0010
0001
,
0000
0000
0100
0000
0010
0000
0100
1000
0000
0000
0100
0000
0010
0000
0100
0010
,
0000
0001
1000
0000
0100
0000
0000
0010
0100
0000
1000
0000
0200
0000
0000
0000
,
0300
0000
0000
0000
0100
0000
0010
1000
0000
0100
0000
0000
1000
0000
0100
0000
,
0010
0000
0100
0000
0010
0000
0001
0100
0000
0010
1000
0000
0100
0000
0010
0000
,
1000
0000
0100
0000
0010
0000
0100
0010
0000
0100
0010
0000
1000
0000
0100
0000
,
0010
0000
0001
0000
0000
0000
0000
0000
0100
0000
0010
0001
0000
1000
0000
0000
2002
0000
0000
0000
3003
0000
0000
0000
0100
0000
0000
0000
0010
0000
0000
0000
,
0200
0000
0300
0000
0010
0000
0100
0020
0000
0030
0000
0000
0001
0000
1000
0000
,
0002
0000
0003
0000
0100
0000
1000
0200
0000
0000
0000
0000
0300
0000
0000
0000
,
0100
0000
0000
0000
0010
0000
0100
2000
0000
3000
0000
0000
0100
0000
0010
0000
,
0100
0000
0001
0000
0010
0000
1000
0010
0000
0000
0200
0000
0300
0000
0000
0000
,
0200
0000
0300
0000
0001
0000
0100
0020
0000
0030
0000
0000
0100
0000
1000
0000
,
0002
0000
0003
0000
0100
0000
0010
0200
0000
0300
0000
0000
1000
0000
0100
0020
,
0000
0030
0000
0000
0001
0000
0100
0001
0000
0000
0100
0000
0010
0000
1000
0100
,
0000
0100
0020
0000
0000
0000
0000
0000
,
0030
0000
0100
0000
0000
0010
0000
0000
0100
0000
0000
0001
0000
0000
0100
0000
,
0010
0000
0000
0100
0010
0000
1000
0000
0100
0000
0010
0000
0100
0000
1000
0000
,
0100
1000
0000
0000
0100
0000
0010
0000
0200
0000
0300
0000
0110
0000
0000
0000
,
0001
0100
0000
0010
1000
0000
0001
0000
0100
0000
1000
0000
0100
0000
0010
0000
,
0100
0010
0000
0001
1000
0000
0001
0000
0200
0000
0300
0000
0010
0000
0000
0000
,
0100
0010
0000
1000
0100
0000
1000
0000
0100
0000
0010
0000
0100
0000
0010
0000
,
0100
0010
0000
1000
0100
0000
0010
0000
0200
0000
0300
0000
1001
0000
0000
0000
,
0100
0010
0000
0100
0010
0000
1000
0000
0100
0000
0010
0000
0001
0000
0100
0000
,
0010
0100
0000
1000
0100
0000
0010
0000
0200
0000
0300
0000
0110
0000
0000
0000
,
0100
0010
0000
0010
0100
0000
1000
0000
0001
0010
0100
0010
0001
0010
0001
0000
,
0010
1000
0000
0100
0001
0000
0010
0000
1000
0100
0010
0100
1000
0100
0010
0001
,
0010
0100
0000
0010
0100
0000
0001
0000
1000
1000
1000
1000
0001
0001
0001
0001
,
0010
0100
0000
0010
0100
0000
1000
0100
0100
0100
0100
0010
0010
0010
0010
0100
,
0010
0100
0000
0001
1000
0000
0100
0000
0010
0001
0010
0100
0010
0001
0010
0100
,
1000
0100
0000
0010
0001
0000
0100
0000
0010
0100
0010
0100
1000
0100
0010
0001
,
1010
0100
0000
0101
0010
0000
1001
0000
0100
0010
0100
0010
0001
0100
1000
0100
,
0010
0001
0000
0010
0100
0000
1001
0000
0100
0010
0100
0010
0001
0100
1000
0001
,
0010
0000
0000
0100
0010
0000
0000
0100
1000
0000
0000
0000
0100
0000
0010
0000
,
0002
0000
0003
0000
0100
0000
0010
2000
0000
3000
0000
0000
0100
0000
0010
0000
,
2000
0000
3000
0000
0100
0000
0010
0200
0000
0000
0000
0000
0300
0000
0000
0000
,
0002
0000
0003
0000
1000
0000
0001
2000
0000
3000
0000
0000
0100
0000
0010
0000
,
0100
0000
0010
0000
0001
0000
0100
0020
0000
0030
2000
0000
3000
0000
0000
0000
,
1000
0000
0000
0000
0100
0000
1000
0200
0000
0300
0000
0000
0100
0000
0010
0000
,
0200
0000
0300
0000
0010
0000
0100
0020
0000
0030
0000
0000
0001
0000
0100
0020
,
0000
0030
0000
0000
0110
0000
1000
0200
0000
0300
0010
0000
0100
0000
0010
0200
,
0000
0300
1000
0000
0200
0000
0000
0000
0000
0000
0000
0000
0000
0000
0000
0000
,
0300
0000
0010
0000
0000
0100
0000
0000
0010
0000
0000
1000
0000
0000
0100
0000
,
0020
0000
0030
0000
1000
0000
0100
0020
0000
0000
0000
0000
0030
0000
0000
0000
,
0200
0000
0300
0000
0010
0000
0100
0020
0000
0000
0000
0000
0030
0000
0000
0000
,
0001
0000
0000
0000
1000
0000
0001
2000
0000
3000
0000
0000
0100
0000
0010
0000
,
0100
0000
0010
0000
0100
0000
1000
0200
0000
0300
0020
0000
0000
0030
0000
0000
,
0200
0000
0300
0000
0010
0000
0100
0020
0000
0000
0030
0000
0001
0000
1000
0000
,
0200
0000
0300
0000
0010
0000
0100
0020
0000
0030
0000
0000
0100
0000
0010
0002
,
0000
0003
0000
0000
1000
0000
0001
2000
0000
3000
0100
0000
0010
0000
0100
2000
,
0000
3000
0100
0000
0020
0000
0000
0000
0000
0000
0000
0000
0000
0000
0000
0000
,
0030
0000
0100
0000
0000
0010
0000
0000
1000
0000
0000
0100
0000
0000
0010
0000
,
0001
1000
0000
0010
0100
0000
0010
0000
0100
0000
0010
0000
0001
0000
1000
0000
,
0100
1000
0000
0100
0010
0000
0001
0000
1000
0000
0100
0000
0010
0000
1000
0100
,
1000
0010
0001
0100
0010
0100
1000
0100
,
1000
0100
0000
0010
0100
0000
0010
0000
0001
0000
0000
0000
1001
0000
0000
0000
;

//---------------dance-single - ----------------
#NOTES:
     dance-single:
     :
     Challenge:
     10:
     0.603271,0.717156,0.258985,0.582717,0.568329,587.000000,551.000000,36.000000,81.000000,0.000000,0.000000,0.603271,0.717156,0.258985,0.582717,0.568329,587.000000,551.000000,36.000000,81.000000,0.000000,0.000000:
// measure 0
0000
0000
0000
0000
,  // measure 1
0000
0000
0000
0000
,  // measure 2
0000
0000
0000
0000
,  // measure 3
0000
0000
0000
0000
,  // measure 4
0000
0000
0000
0000
,  // measure 5
2002
0000
0000
3003
0100
0010
0000
0100
0010
0001
1000
0100
0001
0000
0100
0000
,  // measure 6
1000
0000
0100
0000
0010
0100
0000
0010
0100
0010
0001
0100
1001
0000
0100
0000
,  // measure 7
0010
0000
1000
0100
0000
0001
0010
0000
0100
0000
0010
0000
1000
0000
0100
0000
,  // measure 8
0010
0000
0001
0000
0100
0010
0000
1000
0100
0001
0010
0000
0002
0000
0003
0000
,  // measure 9
1001
0000
0010
0000
0100
0000
0001
1000
0000
0000
0010
0000
0100
0000
0010
1000
,  // measure 10
0000
0000
0100
0000
0010
0000
0001
0100
0000
0010
1000
0000
0100
0000
0001
0010
,  // measure 11
0000
0000
0100
0000
0010
0000
1000
0100
0000
0000
0000
0000
0100
0000
0010
0001
,  // measure 12
0000
0000
0100
0000
0010
0000
1000
0100
0000
0010
0001
0000
0200
0000
0010
0000
,  // measure 13
0301
0000
1000
0000
0010
0000
0100
0020
0000
0030
0001
0000
1000
0000
0001
2000
,  // measure 14
0000
3000
0100
0000
0010
0100
0000
0010
0100
0000
0001
0000
1000
0000
0100
2000
,  // measure 15
0000
3000
0100
0000
0010
0000
0100
0020
0000
0030
0001
0000
0100
0000
0010
1000
,  // measure 16
0000
0001
0100
0010
0100
0000
0001
0010
0000
0100
1000
0000
0220
0000
0330
0000
,  // measure 17
2002
0000
0000
3003
0100
0000
0010
1000
0000
0100
0010
0000
0100
0000
0010
0000
,  // measure 18
0100
0000
1000
0000
0100
0000
0010
0100
0000
0010
1000
0000
0001
0000
0100
0000
,  // measure 19
0100
0000
0100
0000
1000
0000
0100
0010
0000
0100
0010
0000
0001
0000
0100
0000
,  // measure 20
0010
0000
0000
0000
0001
0000
0000
0000
1000
0000
0100
0010
0000
1000
0100
0000
0220
0000
0000
0000
0000
0000
0330
0000
1001
0000
0000
0000
0100
0000
0000
0000
,  // measure 21
0020
0000
1000
0030
0100
0000
0010
2000
0001
0000
0100
0000
0010
3000
0100
0000
,  // measure 22
0020
0000
0031
0000
1000
0000
0100
2000
0000
0000
0010
0000
3100
0000
0010
0000
,  // measure 23
2002
0000
0000
3003
0100
0000
0010
0200
1000
0000
1000
0000
0301
0000
0100
0000
,  // measure 24
0010
0000
1000
0000
0100
0000
0010
0200
1000
0300
0020
0000
0031
0000
1000
0000
,  // measure 25
0220
0000
0330
0000
0001
0000
1000
0002
0010
0000
0100
0000
0013
0000
0100
0000
,  // measure 26
1020
0000
0001
0030
0100
0000
1000
0200
0001
0000
0310
0000
0100
0000
0010
0200
,  // measure 27
0000
0300
0000
0000
0110
0000
0001
1000
0000
0000
0100
0000
1000
0000
0100
0010
,  // measure 28
0000
0000
0100
0000
2010
0100
0000
0100
0000
0000
0100
0000
0010
0000
0000
0000
,  // measure 29
3100
0000
1001
0000
0000
1001
0000
0000
1001
0000
0000
1001
0000
0000
1001
0000
,  // measure 30
0100
0010
0000
0100
0010
0000
1000
0000
0100
0000
0010
0000
0100
0000
0010
0000
,  // measure 31
0100
0010
0000
1000
0100
0000
0010
0000
2000
0000
3000
0000
2002
0000
3003
0000
,  // measure 32
0100
0010
0000
0100
0010
0000
0100
0000
1000
0000
0100
0000
0010
0000
0100
0000
,  // measure 33
0010
0100
0000
0010
1000
0000
0100
0000
0020
0000
0030
0000
0220
0000
0330
0000
,  // measure 34
0010
1000
0000
0100
0010
0000
0100
0000
1000
0000
1000
0000
1000
0000
1000
0000
,  // measure 35
0010
0001
0000
1000
0010
0000
0100
0000
0200
0000
0300
0000
0220
0000
0330
0000
,  // measure 36
0010
0100
0000
0010
0100
0000
0010
0000
0001
0000
0001
0000
0001
0000
0001
0000
,  // measure 37
0100
0010
0000
1000
0100
0000
0010
0000
0200
0000
0300
0000
0220
0000
0330
0000
,  // measure 38
0100
0010
0000
0100
0010
0000
0001
0000
1000
0001
1000
0001
1000
0001
1000
0000
,  // measure 39
0010
1000
0000
0100
0001
0000
0010
0000
0100
0100
0100
0100
0010
0010
0010
0010
,  // measure 40
0010
0100
0000
1000
0100
0000
0010
0000
0001
1000
0001
1000
0001
0100
1000
0100
,  // measure 41
1000
0100
0000
0010
0001
0000
0100
0000
0010
0100
0010
0001
1000
0100
0001
1000
,  // measure 42
0100
0010
0000
0100
0010
0000
0001
0000
1000
1000
1000
1000
0001
0001
0001
0001
,  // measure 43
0010
0100
0000
1000
0100
0000
0010
0000
0001
0010
0001
0010
0001
0100
0010
0100
,  // measure 44
1001
0000
0000
0101
0000
0000
1010
0000
0110
0100
0010
1000
0100
0100
1000
0100
,  // measure 45
0010
0000
0100
0010
0000
0000
1000
0000
0100
0010
0100
0010
0100
0001
1000
0001
,  // measure 46
2000
0000
3000
0100
0020
0000
0030
1000
0020
0000
0030
0000
0100
0000
0010
0000
,  // measure 47
2000
0000
3000
0000
0100
0000
1000
0200
0000
0000
0010
0000
0301
0000
0100
0000
,  // measure 48
0020
0000
0030
0000
0100
0000
0010
0002
0000
0000
1000
0000
0103
0000
0000
0000
,  // measure 49
0100
0000
0000
0000
0010
0000
1000
0200
0000
0000
0010
0000
0301
0000
0100
0000
,  // measure 50
1000
0000
0100
0000
0010
0000
0001
0200
0000
0300
0020
0000
0130
1000
0010
0100
,  // measure 51
2002
0000
3003
0000
0100
0000
1000
0200
0000
0000
0010
0000
0301
0000
1000
0000
,  // measure 52
0200
0000
0310
0000
0001
0000
0100
0020
0000
0000
1000
0030
0100
0000
0010
2002
,  // measure 53
0000
0000
3003
0000
0110
0000
0100
0020
0000
0030
0100
0000
0010
0000
0001
0200
,  // measure 54
0000
0300
0010
0000
2010
0100
0000
0010
0000
0000
0001
0000
0100
0000
0000
0000
,  // measure 55
3000
0000
2000
0000
3000
0200
0000
0300
0020
0000
0030
0002
0000
0003
0010
0000
,  // measure 56
0200
0000
1000
0300
0001
0000
0100
0020
0000
0000
1000
0000
0130
0000
0000
0000
,  // measure 57
0200
0000
0000
0300
0010
0000
0100
2000
0000
0000
0100
0000
3010
0000
0001
0000
,  // measure 58
0200
0000
0010
0300
1000
0000
0100
2000
0000
0000
0010
0000
0100
3000
0100
0000
,  // measure 59
0010
0000
0100
0000
1000
0000
0100
0010
0000
0000
0002
0000
1000
0000
0100
0003
,  // measure 60
0200
0000
0301
0000
0010
0000
0100
2000
0000
0000
0010
0000
0100
3000
0100
0000
,  // measure 61
0020
0000
1000
0030
0100
0000
0010
0200
0000
0000
0000
0300
1000
0000
0010
0200
,  // measure 62
0000
0000
0300
0000
1001
0000
0100
0010
0000
0000
0100
0000
1000
0000
0100
0020
,  // measure 63
0000
0030
0001
0000
1200
0001
0000
0010
0000
0000
0010
0000
0001
0000
0000
0000
,  // measure 64
0300
0000
0110
0000
0000
1100
0000
0000
0011
0000
0000
0110
0000
0000
0100
0000
,  // measure 65
0010
0100
0000
0010
1000
0001
0010
1000
0100
0000
0001
0000
1000
0000
0010
0000
,  // measure 66
0100
0010
0000
1000
0010
0001
0100
0000
0010
0000
0100
0000
0010
0000
1000
0010
,  // measure 67
0001
1000
0100
0000
1000
0000
0001
0000
0100
0000
0010
0000
1000
0000
0010
0000
,  // measure 68
0100
0010
0000
0100
0010
0000
0100
0000
0020
0000
0000
0030
1001
0000
0000
0000
;
