#TITLE:生命線;
#SUBTITLE:;
#ARTIST:ReoNa;
#TITLETRANSLIT:Seimeisen;
#SUBTITLETRANSLIT:;
#ARTISTTRANSLIT:;
#GENRE:Tsukihime -A piece of blue glass moon-;
#CREDIT:;
#BANNER:Seimeisen.png;
#BACKGROUND:Seimeisen-bg.png;
#LYRICSPATH:;
#CDTITLE:Tsukihime -A piece of blue glass moon-.png;
#MUSIC:Seimeisen.ogg;
#OFFSET:0.000000;
#SAMPLESTART:55.219002;
#SAMPLELENGTH:12.000000;
#SELECTABLE:YES;
#DISPLAYBPM:84.000000:169.000000;
#BPMS:0.000000=84.990997
,32.000000=169.981995
,198.000000=84.990997
;
#STOPS:62.000000=0.353000,
93.000000=0.353000
;
#BGCHANGES:0.000=Seimeisen.avi=1.000=0=0=0=StretchNoLoop====,
99999=-nosongbg-=1.000=0=0=0 // don't automatically add -songbackground-
;
#KEYSOUNDS:;
#ATTACKS:;

//---------------dance-single - ----------------
#NOTES:
     dance-single:
     :
     Beginner:
     1:
     0.047569,0.110995,0.040362,0.040362,0.000000,33.000000,29.000000,4.000000,4.000000,0.000000,0.000000,0.047569,0.110995,0.040362,0.040362,0.000000,33.000000,29.000000,4.000000,4.000000,0.000000,0.000000:
0000
0000
0000
0000
,
0000
0000
0000
0000
,
0000
0000
0000
0000
,
0000
0000
0000
0000
,
1000
0000
0000
0000
,
0001
0000
0000
0000
,
1000
0000
0000
0000
,
0001
0000
0000
0000
,
0100
0000
0000
0000
,
0000
0000
0000
0000
,
0010
0000
0000
0000
,
0000
0000
0000
0000
,
0100
0000
0000
0000
,
0000
0000
0000
0000
,
0010
0000
0000
0000
,
0000
0000
0000
0002
,
0000
0000
0000
0000
,
0003
0000
0000
2000
,
0000
0000
0000
0000
,
3000
0000
0000
0000
,
0002
0000
0000
0000
,
0003
0000
0000
2000
,
0000
0000
0000
0000
,
3000
0000
0100
0000
,
0000
0000
0000
0000
,
0000
0000
0010
0000
,
0000
0000
0000
0000
,
0000
0000
0100
0000
,
0000
0000
0000
0000
,
0000
0000
0010
0000
,
0000
0000
0000
0000
,
0000
0000
1001
0000
,
0000
0000
0000
0000
,
0000
0000
1000
0000
,
0000
0000
0000
0000
,
0000
0000
0010
0000
,
0000
0000
0000
0000
,
0000
0000
1000
0000
,
0000
0000
0000
0000
,
0000
0000
0101
0000
,
0000
0000
0000
0000
,
0000
0000
0001
0000
,
0000
0000
0000
0000
,
0000
0000
0100
0000
,
0000
0000
0000
0000
,
0000
0000
0001
0000
,
0000
0000
0000
0000
,
0000
0000
0110
0000
,
0000
0000
0000
0000
,
0000
0000
1001
0000
,
0000
0000
1000
0000
,
0000
0000
0000
0000
,
0000
0000
0001
0000
,
0000
0000
0000
0000
,
0000
0000
0000
0000
,
1000
0000
0000
0000
;

//---------------dance-single - ----------------
#NOTES:
     dance-single:
     :
     Easy:
     3:
     0.085048,0.166492,0.030271,0.080723,0.000000,59.000000,56.000000,3.000000,8.000000,0.000000,0.000000,0.085048,0.166492,0.030271,0.080723,0.000000,59.000000,56.000000,3.000000,8.000000,0.000000,0.000000:
0000
0000
0000
0000
,
0000
0000
0000
0000
,
0000
0000
0000
0000
,
0000
0000
0000
0000
,
1000
0000
0100
0000
,
1000
0000
0100
0000
,
0010
0000
0100
0000
,
0010
0000
0100
0000
,
0001
0000
0000
0000
,
1000
0000
0000
0000
,
0001
0000
0000
0000
,
1000
0000
0000
0000
,
0100
0000
0000
0000
,
0010
0000
0000
0000
,
0100
0000
0000
0000
,
0010
0000
0000
2000
,
0000
3000
0000
0200
,
0000
0300
0000
0020
,
0000
0030
0000
0002
,
0000
0003
0000
0020
,
0000
0030
0000
0200
,
0000
0300
0000
2000
,
0000
3000
0000
0200
,
0000
0300
1000
0000
,
0000
0000
0100
0000
,
0000
0000
1000
0000
,
0000
0000
0100
0000
,
0000
0000
0010
0000
,
0000
0000
0001
0000
,
0000
0000
0010
0000
,
0000
0000
0000
0000
,
0000
0000
1000
0000
,
0000
0000
0100
0000
,
0000
0000
0010
0000
,
0000
0000
0100
0000
,
0000
0000
0001
0000
,
0000
0000
1000
0000
,
0000
0000
0001
0000
,
0000
0000
1000
0000
,
0000
0000
0100
0000
,
0000
0000
1000
0000
,
0000
0000
0100
0000
,
0000
0000
1000
0000
,
0000
0000
0010
0000
,
0000
0000
0100
0000
,
0000
0000
0010
0000
,
0000
0000
0100
0000
,
0000
0000
0001
0000
,
0000
0000
1000
0000
,
0000
0000
1001
0000
,
0000
0110
1000
0000
,
0000
0000
0001
0000
,
0000
0000
1000
0000
,
0000
0000
0001
0000
,
0000
0000
0000
0000
,
1001
0000
0000
0000
;

//---------------dance-single - ----------------
#NOTES:
     dance-single:
     :
     Medium:
     6:
     0.269558,0.499475,0.070633,0.363255,0.050452,187.000000,180.000000,7.000000,36.000000,0.000000,0.000000,0.269558,0.499475,0.070633,0.363255,0.050452,187.000000,180.000000,7.000000,36.000000,0.000000,0.000000:
0000
0000
0000
0000
,
0000
0000
0000
0000
,
0000
0000
0000
0000
,
0000
0000
0000
0000
,
1000
0001
1000
0100
0010
0100
0010
0100
,
0000
1000
0001
0010
1000
0000
0100
0000
0010
0000
0100
0000
0010
0000
0100
0020
,
0000
0000
0000
0000
0030
0000
1000
0002
0000
0000
0000
0000
0003
0000
1000
0200
,
0000
0000
0000
0000
0300
0000
0100
0020
0000
0000
0030
0000
0200
0000
0300
0000
,
0010
0100
0001
1000
,
0001
1000
0001
0010
,
0000
1000
0010
0001
0100
0000
0001
0000
,
1000
0001
0100
0010
,
0200
0000
0000
0000
0300
0000
1000
0002
,
0000
0000
0000
0000
0003
0000
0100
0020
,
0000
0000
0000
0000
0030
0000
1000
0200
,
0000
0300
1001
0200
,
0000
0000
0300
0000
0010
2000
0000
0000
,
3000
0000
0100
0000
0010
0002
0000
0000
,
0003
0000
0000
0000
1000
0002
0000
0000
,
0000
0000
0003
0000
0100
0020
0000
0000
,
0000
0000
0030
0000
1000
0200
0000
0000
,
0000
0000
0300
0000
0100
0020
0000
0000
,
0000
0000
0030
0000
0001
2000
0000
0000
,
3000
1001
0200
0000
,
0300
0000
0100
0020
0000
0000
0000
0000
,
0030
0000
0001
2000
0000
0000
0000
0000
,
3000
0000
0100
0020
0000
0000
0000
0000
,
0030
0000
1000
0200
0000
0000
0000
0000
,
0300
0000
0100
0020
0000
0000
0000
0000
,
0030
0000
0001
0200
0000
0000
0000
0000
,
0300
0000
0000
0000
0000
1000
0100
0001
,
0010
1000
0100
0000
0010
0000
0100
0000
,
0010
0000
1000
0100
0000
0000
0000
0100
,
0010
0001
1000
0100
0020
0000
0000
0000
,
0030
0100
0000
0020
0000
0000
0030
0100
,
0010
0100
1000
0100
0020
0000
0000
0000
,
0030
0000
0100
0020
0000
0000
0030
1000
,
0100
0000
0010
0000
1000
0000
0100
0010
,
0000
0001
0100
0000
0000
1000
0100
0010
,
0001
0100
1001
0000
0220
0000
0000
0000
,
0330
0000
0100
0020
0000
0000
0030
0100
,
0010
0000
0100
0000
0001
0000
1000
0100
,
0000
0001
0100
0000
0010
0000
0100
0000
,
0010
0001
2000
0000
,
3000
0000
0100
0020
0000
0000
0030
0000
,
0100
0000
0010
0000
0001
0000
1000
0001
,
0000
1000
0001
0000
0100
0000
0010
0000
,
0100
0010
2002
0000
,
3003
0000
1000
0200
0000
0000
0300
0000
,
0100
0000
0000
0000
0010
0000
0000
0000
0100
0000
0010
1000
0000
0100
0010
0000
,
1001
0000
0000
1000
0001
0000
0000
0000
1000
0000
0000
0000
0001
0000
0000
0000
,
1000
0001
1000
0001
,
1000
0001
0100
0010
,
0100
0010
0100
0010
,
0000
0100
0000
0000
0000
0000
0000
0000
0010
0000
0000
0000
0000
0000
0000
0000
,
1001
0000
0000
0000
;

//---------------dance-single - ----------------
#NOTES:
     dance-single:
     :
     Hard:
     11:
     0.552090,0.971202,0.242170,0.322893,0.529747,383.000000,359.000000,24.000000,32.000000,0.000000,0.000000,0.552090,0.971202,0.242170,0.322893,0.529747,383.000000,359.000000,24.000000,32.000000,0.000000,0.000000:
// measure 0
0000
0000
0000
0000
,  // measure 1
0000
0000
0000
0000
,  // measure 2
0000
0000
0000
0000
,  // measure 3
0000
0000
0000
0000
,  // measure 4
1000
0001
1000
0100
0010
0000
0001
1000
0000
0100
0000
0100
1000
0100
0010
0000
,  // measure 5
0000
0100
0010
0100
0010
0000
0001
1000
0000
0001
0000
0100
0010
0000
0100
0020
,  // measure 6
0000
0000
0000
0000
0030
0000
1000
0200
0000
0000
0000
0000
0300
0000
0100
0020
,  // measure 7
0000
0000
0000
0000
0030
0000
0001
2000
0000
0000
3000
0000
2002
0000
3003
0000
,  // measure 8
0100
0010
0100
0010
0100
0000
1000
0100
,  // measure 9
0000
0010
0000
0100
0010
0001
0100
0000
,  // measure 10
0000
0100
0010
1000
0100
0000
0010
0100
,  // measure 11
0000
0000
0010
0000
0000
0100
0000
0000
0010
0000
0000
0000
0100
0000
2000
0000
,  // measure 12
0000
0000
0000
0000
3000
0000
0100
0020
,  // measure 13
0000
0000
0030
0000
1001
0000
0100
0020
,  // measure 14
0000
0000
0000
0000
0030
0000
0100
0020
,  // measure 15
0000
0000
0000
0000
0000
0000
0000
0000
0000
0000
0000
0000
0000
0000
0000
0000
0000
0000
0000
0000
0000
0000
0000
0000
0000
0000
0000
0000
0000
0000
0000
0000
0000
0000
0000
0000
0000
0000
0000
0000
0000
0000
0000
0000
0000
0000
0000
0000
0030
0000
0000
0000
0000
0000
0000
0000
0000
0000
0000
0000
0000
0000
0000
0000
0000
0000
0000
0000
0000
0000
0000
0000
0000
0000
0000
0000
0000
0000
0000
0000
0000
0000
0000
0000
0000
0000
0000
0000
0000
0000
0000
0000
0000
0000
0000
0000
1001
1000
0000
0000
0000
0000
0000
0000
0000
0000
0000
0000
0000
0000
0000
0000
0000
0000
0000
0000
0000
0000
0000
0000
0001
0000
0000
0000
0000
0000
0000
0000
0000
0000
0000
0000
0000
0000
0000
0000
0000
0000
0000
0000
0000
0000
0000
0000
0010
0000
0000
0000
0000
0000
0000
0000
0000
0000
0000
0000
1000
0000
0000
0000
0000
0000
0000
0000
0000
0000
0000
0000
0100
0000
0000
0000
0000
0000
0000
0000
0000
0000
0000
0000
0100
0000
0000
0000
0000
0000
0000
0000
0000
0000
0000
0000
,  // measure 16
0010
0100
0010
0100
0001
0010
0001
0010
1000
0000
0100
0001
0010
0001
0010
0100
,  // measure 17
0010
0100
0010
0001
1000
0001
0100
0010
0100
0000
0010
0001
0010
0100
1000
0100
,  // measure 18
0010
0001
0010
0100
1000
0100
0010
0001
0100
0000
0010
0001
0010
0100
0010
0100
,  // measure 19
0010
0000
0000
0000
1000
0000
0000
0000
0001
0000
0000
0000
1000
0000
0000
0000
0100
0000
0000
0000
0010
0000
0000
0000
0001
0000
0000
0000
0000
0000
1000
0000
0000
0000
0000
0000
0100
0000
0000
0010
0000
0000
0100
0000
0000
0010
0000
0000
,  // measure 20
0100
0010
0001
0100
0010
1000
0100
0010
1000
0000
0001
0000
0000
1000
0001
0100
,  // measure 21
0010
0100
1000
0100
0010
0100
0010
0001
0100
0000
0010
0000
1000
0100
1000
0100
,  // measure 22
1000
0100
1000
0100
0010
0001
0010
0000
0001
0000
1000
0000
0100
0010
0100
0010
,  // measure 23
0100
0000
0000
0000
0000
0000
0000
0000
0000
0000
0000
0000
0010
0000
0000
0000
0000
0000
0000
0000
0000
0000
0000
0000
0001
0000
0000
0000
0000
0000
0000
0000
0000
0000
0000
0000
0100
0000
0000
0000
0000
0000
0000
0000
0000
0000
0000
0000
1001
0001
0000
0000
0000
0000
0000
0000
0000
0000
0000
0000
0000
0000
0000
0000
0000
0000
0000
0000
0000
0000
0000
0000
1000
0000
0000
0000
0000
0000
0000
0000
0000
0000
0000
0000
0000
0000
0000
0000
0000
0000
0000
0000
0000
0000
0000
0000
0010
0000
0000
0000
0000
0000
0000
0000
0000
0000
0000
0000
0000
0000
0000
0000
0000
0000
0000
0000
0000
0000
0000
0000
0000
0000
0000
0000
0000
0000
0000
0000
0000
0000
0000
0000
0000
0000
0000
0000
0000
0000
0000
0000
0000
0000
0000
0000
0100
0000
0000
0000
0000
0000
0000
0000
0000
0000
0000
0000
0000
0000
0000
0000
0000
0000
0000
0000
0000
0000
0000
0000
0000
0000
0000
0000
0000
0000
0000
0000
0000
0000
0000
0000
0000
0000
0000
0000
0000
0000
0000
0000
0000
0000
0000
0000
,  // measure 24
0010
0000
0001
1000
0000
0000
0100
0000
,  // measure 25
0010
0000
0100
0010
0000
0000
0001
0000
,  // measure 26
1000
0000
0100
1000
0000
0000
0100
0000
,  // measure 27
0010
0000
0100
0001
1000
0100
0010
0100
,  // measure 28
0010
0001
0100
0010
1000
0100
0010
0001
,  // measure 29
0100
0010
0100
1000
0100
0010
0100
0010
,  // measure 30
0001
0010
0100
0010
0100
0010
0100
0010
0100
0000
1000
0000
0100
0000
0010
0000
,  // measure 31
1001
0010
1001
0000
0220
0000
0000
0000
,  // measure 32
0330
0000
1000
0002
0000
0000
0003
0100
,  // measure 33
0010
0100
2000
0010
,  // measure 34
3001
0000
0100
0020
0000
0000
0030
1000
,  // measure 35
0001
0100
0010
0100
0020
0000
0000
0000
,  // measure 36
0030
0000
1000
0200
0000
0000
0300
0000
,  // measure 37
0100
0000
0010
0000
0002
0003
1000
0100
,  // measure 38
0000
0000
1000
0000
0200
0000
0300
0000
0000
0000
0001
1000
0100
0010
0001
0010
,  // measure 39
0100
0010
0001
0010
0001
0010
0001
0010
2002
0000
0000
0000
0000
0000
0000
0000
,  // measure 40
3003
0000
0100
0020
0000
0000
0030
1000
,  // measure 41
0100
0000
0010
0000
0001
0000
1000
0100
,  // measure 42
0000
0010
0100
0000
1000
0001
0100
0010
,  // measure 43
1001
1010
2002
0000
,  // measure 44
3003
0000
0101
2020
0000
0000
3030
0000
,  // measure 45
0101
0000
0011
0000
1001
0000
0100
0010
,  // measure 46
0000
0100
0011
0000
0100
0010
0100
0010
,  // measure 47
1001
0100
0020
0000
,  // measure 48
0030
0000
1000
0200
0000
0000
0300
0000
,  // measure 49
0100
0000
0000
0000
0010
0000
0000
0000
0110
0000
0100
0010
0000
0100
1001
0000
,  // measure 50
0000
0000
0000
0000
0000
0000
0000
1000
0001
0000
0000
0000
0000
0000
0000
0000
0100
0000
0010
0000
0100
0000
1000
0000
0100
0000
0010
0000
0001
0000
0100
0000
,  // measure 51
0010
0100
1000
0100
0010
0001
0100
0010
0001
0100
1000
0100
0010
0001
0100
0010
,  // measure 52
0100
1000
0100
0010
0100
0010
0100
0010
1001
0100
0010
1000
0100
0010
0001
0100
,  // measure 53
0010
0001
0100
1000
0010
0001
0100
0010
0202
0000
0000
0000
0000
0000
0000
0000
,  // measure 54
0303
0000
0000
2002
0000
0000
0000
0000
0000
0000
0000
0000
0000
0000
0000
0000
0000
0000
0000
0000
0000
0000
0000
0000
3003
0000
0000
0000
0000
0000
0000
0000
,  // measure 55
1001
0000
0000
0000
;
