#TITLE:Secret;
#SUBTITLE:;
#ARTIST:우주소녀;
#TITLETRANSLIT:;
#SUBTITLETRANSLIT:;
#ARTISTTRANSLIT:WJSN;
#GENRE:K-Pop;
#CREDIT:;
#BANNER:Secret.png;
#BACKGROUND:Secret-bg.png;
#LYRICSPATH:;
#CDTITLE:Wrland Season 2.png;
#MUSIC:Secret.ogg;
#OFFSET:0.000000;
#SAMPLESTART:61.875000;
#SAMPLELENGTH:12.000000;
#SELECTABLE:YES;
#DISPLAYBPM:55.000000:111.000000;
#BPMS:0.000000=111.498001
,112.000000=55.749001
,114.000000=111.498001
,178.000000=55.749001
,180.000000=111.498001
;
#STOPS:180.000000=0.538000
;
#BGCHANGES:0.000=Secret.avi=1.000=0=0=0=StretchNoLoop====,
99999=-nosongbg-=1.000=0=0=0 // don't automatically add -songbackground-
;
#KEYSOUNDS:;
#ATTACKS:;

//---------------dance-single - ----------------
#NOTES:
     dance-single:
     :
     Beginner:
     1:
     0.065192,0.109808,0.022817,0.007606,0.003803,60.000000,57.000000,3.000000,1.000000,0.000000,0.000000,0.065192,0.109808,0.022817,0.007606,0.003803,60.000000,57.000000,3.000000,1.000000,0.000000,0.000000:
0000
0000
0000
0000
,
0000
0000
0000
0000
,
0000
0000
0000
0000
,
0000
0000
0000
0000
,
1000
0000
0000
0000
,
0001
0000
0000
0000
,
1000
0000
0000
0000
,
0001
0000
0000
0000
,
0100
0000
0000
0000
,
0100
0000
0000
0000
,
0010
0000
0000
0000
,
0010
0000
0000
0000
,
1000
0000
0000
0000
,
0100
0000
0000
0000
,
1000
0000
0000
0000
,
0100
0000
0000
0000
,
0010
0000
0000
0000
,
0010
0000
0000
0000
,
0001
0000
0000
0000
,
0001
0000
0000
0000
,
0100
0000
0000
0000
,
0100
0000
0000
0000
,
0010
0000
0000
0000
,
0010
0000
0000
0000
,
1000
0000
0000
0000
,
0001
0000
0000
0000
,
1000
0000
0000
0000
,
0001
0000
0000
0000
,
1000
0000
0001
0000
,
0000
0000
0100
0000
,
0000
0000
0010
0000
,
0000
0000
0100
0000
,
0000
0000
0010
0000
,
0000
0000
0001
0000
,
0000
0000
0010
0000
,
0000
0000
0001
0000
,
0000
0000
0100
0000
,
0000
0000
1000
0000
,
0000
0000
0100
0000
,
0000
0000
1000
0000
,
0000
0000
0100
0000
,
0000
0000
0010
0000
,
0000
0000
0100
0000
,
0000
0000
0010
0000
,
0000
0000
0200
0310
,
0000
1001
0000
0000
0000
0000
0000
0000
0000
0000
0000
0000
0000
0000
0000
0000
0000
0000
0000
0000
0000
0000
0000
0000
0000
0000
0000
0000
0000
0000
0000
0000
0000
0000
0000
0000
0000
0000
0000
0000
0000
0000
0000
0000
0000
0000
0000
0000
0000
0000
0000
0000
0000
0000
0000
0000
0000
0000
0000
0000
0000
0000
0000
0000
0000
0000
0000
0000
0000
0000
0000
0000
0000
0000
0000
0000
0000
0000
0000
0000
0000
0000
0000
0000
0000
0000
0000
0000
0000
0000
0000
0000
0000
0000
0000
0000
0000
0000
0000
0000
0000
0000
0000
0000
0000
0000
0000
0000
0000
0000
0000
0000
0000
0000
0000
0000
0000
0000
0000
0000
0000
0000
0000
0000
0000
0000
0000
0000
0000
0000
0000
0000
0000
0000
0000
0000
0000
0000
0000
0000
0000
0000
0000
0000
0100
0000
0000
0000
0000
0000
0000
0000
0000
0000
0000
0000
0000
0000
0000
0000
0000
0000
0000
0000
0000
0000
0000
0000
0000
0000
0000
0000
0000
0000
0000
0000
0000
0000
0000
0000
0000
0000
0000
0000
0000
0000
0000
0000
0000
0000
0000
0000
,
0000
0000
0000
0010
,
0000
0000
0000
0100
,
0000
0000
0000
0001
,
0000
0000
0000
0010
,
0000
0000
0000
0001
,
0000
0000
0000
0010
,
0000
0000
0000
0100
,
0000
0000
0000
1000
,
0000
0000
0000
0100
,
0000
0000
0000
0010
,
0000
0000
0000
0110
,
0000
0000
0000
1001
;

//---------------dance-single - ----------------
#NOTES:
     dance-single:
     :
     Easy:
     3:
     0.126039,0.156061,0.068452,0.030423,0.003803,116.000000,107.000000,9.000000,4.000000,0.000000,0.000000,0.126039,0.156061,0.068452,0.030423,0.003803,116.000000,107.000000,9.000000,4.000000,0.000000,0.000000:
0000
0000
0000
0000
,
0000
0000
0000
0000
,
0000
0000
0000
0000
,
0000
0000
0000
0000
,
1000
0000
1000
0000
,
0001
0000
0001
0000
,
1000
0000
1000
0000
,
0001
0000
0001
0000
,
0100
0000
0100
0000
,
0100
0000
0100
0000
,
0010
0000
0010
0000
,
0010
0000
0010
0000
,
1000
0000
0000
0000
,
0001
0000
1000
0000
,
0001
0000
0100
0000
,
0010
0000
0100
0000
,
1000
0000
1000
0000
,
0001
0000
0001
0000
,
0100
0000
1000
0000
,
0100
0000
1000
0000
,
0010
0000
0100
0000
,
0010
0000
0100
0000
,
0001
0000
0100
0000
,
0010
0000
0100
0000
,
1000
0000
0100
0000
,
1000
0000
0100
0000
,
0010
0000
0100
0000
,
0010
0000
0001
0000
,
2002
0000
0000
3003
1000
0000
0000
0000
,
0100
0000
1000
0000
,
0100
0000
0010
0000
,
0100
0000
0010
0000
,
0100
0000
0001
0000
,
0001
0000
1000
0000
,
1000
0000
0001
0000
,
0001
0000
1000
0000
,
1000
0000
0100
0000
,
0010
0000
0100
0000
,
0110
0000
0001
0000
,
1000
0000
0001
0000
,
1001
0000
1000
0000
,
0100
0000
1000
0000
,
1100
0000
0010
0000
,
0001
0000
0010
0000
,
0001
0000
0000
0000
0022
0000
0000
0033
,
0000
1001
0000
0000
0000
0000
0000
0000
0000
0000
0000
0000
0000
0000
0000
0000
0000
0000
0000
0000
0000
0000
0000
0000
0000
0000
0000
0000
0000
0000
0000
0000
0000
0000
0000
0000
0000
0000
0000
0000
0000
0000
0000
0000
0000
0000
0000
0000
0000
0000
0000
0000
0000
0000
0000
0000
0000
0000
0000
0000
0000
0000
0000
0000
0000
0000
0000
0000
0000
0000
0000
0000
0000
0000
0000
0000
0000
0000
0000
0000
0000
0000
0000
0000
0000
0000
0000
0000
0000
0000
0000
0000
0000
0000
0000
0000
1000
0000
0000
0000
0000
0000
0000
0000
0000
0000
0000
0000
0000
0000
0000
0000
0000
0000
0000
0000
0000
0000
0000
0000
0000
0000
0000
0000
0000
0000
0000
0000
0000
0000
0000
0000
0000
0000
0000
0000
0000
0000
0000
0000
0000
0000
0000
0000
0000
0000
0000
0000
0000
0000
0000
0000
0000
0000
0000
0000
0000
0000
0000
0000
0000
0000
0000
0000
0000
0000
0000
0000
0000
0000
0000
0000
0000
0000
0000
0000
0000
0000
0000
0000
0000
0000
0000
0000
0000
0000
0000
0000
0000
0000
0000
0000
,
0100
0000
0010
0000
,
0100
0000
0010
0000
,
0100
0000
0000
1000
,
0000
0001
0000
1000
,
0000
0001
0000
0100
,
0000
0010
0000
0100
,
0000
0010
0000
0001
,
0000
1000
0000
0001
,
0000
1000
0000
0001
,
0000
1000
0000
0100
,
0000
0010
0000
0110
,
0000
0000
0000
1001
,
0000
0000
0000
0000
0000
1001
0000
0000
;

//---------------dance-single - ----------------
#NOTES:
     dance-single:
     :
     Medium:
     6:
     0.402020,0.422691,0.136904,0.387895,0.064649,370.000000,352.000000,18.000000,51.000000,0.000000,0.000000,0.402020,0.422691,0.136904,0.387895,0.064649,370.000000,352.000000,18.000000,51.000000,0.000000,0.000000:
0000
0000
0000
0000
,
0000
0000
0000
0000
,
0000
0000
0000
0000
,
0000
0000
0000
0000
,
1000
0000
0000
0000
0100
0000
0000
0000
1000
0000
0000
0001
0000
0000
1000
0000
,
0000
0001
0100
0010
,
0100
0000
0000
0000
0010
0000
0000
0000
0001
0000
0000
1000
0000
0000
0001
0000
,
0000
1000
0000
0001
0000
0000
0010
0100
,
1001
0010
0100
0001
1000
0010
0100
1000
,
0011
0000
1100
0000
0011
0000
1100
0010
,
0001
0100
1000
0010
0001
0100
1000
0011
,
0000
0100
1000
0001
0000
1000
0100
0001
,
0010
0000
0001
0000
0100
0000
1000
0000
0010
0000
0100
0001
0000
0000
0000
0000
,
1000
0000
0001
0000
0100
0000
1000
0000
0010
0000
0100
0001
0010
0000
0001
0000
,
1000
0001
0100
0010
1000
0010
0100
1000
,
0020
0030
0000
0010
1000
0100
0020
0030
,
0101
0000
1000
0000
0010
0000
0001
0000
2020
0000
3030
0202
0000
0303
0010
0000
,
1000
0000
0100
0000
0010
0000
0100
0000
0020
0000
0030
2000
0000
3000
0100
0000
,
0010
0000
0100
0000
0010
0000
0001
0000
2000
0000
3000
0002
0000
0003
1000
0000
,
0002
0003
0100
0010
0100
0010
0100
2000
,
3000
0000
0100
0000
0010
0000
0001
0000
0100
0000
0000
2000
0000
3000
0000
0000
,
0100
0000
0010
0000
0100
0000
0010
0000
0002
0000
0003
0200
0000
0300
0010
0000
,
0100
0010
0001
1000
0001
1000
0001
0200
,
0300
0000
0100
0000
1000
0000
0100
0000
0020
0000
0030
0200
0000
0300
0010
0000
,
0100
0000
1000
0000
0001
0000
0100
0000
0010
0000
0000
0100
0000
0000
0020
0000
,
0030
0000
0000
0000
0100
0000
1000
0000
0100
0000
0000
0010
0000
0000
0100
0000
,
0020
0030
0000
1000
0001
1000
0001
0100
,
0010
0100
0010
0100
0010
0100
0010
0100
,
0220
0000
0330
1000
0002
0003
1000
0001
,
0200
0300
0100
0010
0100
0001
1000
0100
,
0010
0100
0010
0001
1000
0100
0010
0100
,
0020
0030
1000
0100
0010
0100
0010
0200
,
0300
0002
0003
1000
0001
1000
0100
0010
,
0100
0020
0030
0000
0100
0010
0100
0010
,
0001
1000
0100
0000
0100
0010
0100
0010
,
0001
0000
0100
0000
0010
0000
0100
0000
2000
0000
3000
0200
0000
0300
0020
0000
,
0030
0000
0200
0300
0010
0100
0010
0001
,
1000
0100
1000
0200
0300
0001
0010
0001
,
0020
0030
0000
0100
0010
0100
1000
0200
,
0300
1000
0100
0010
0002
0003
1000
0100
,
0010
0100
0010
0100
0020
0030
0000
1000
,
0100
0010
0001
0200
0300
0000
0100
0010
,
0100
0010
0001
0100
0020
0030
0000
1000
,
0100
0010
0001
0100
0010
0100
0010
0100
,
0010
0100
0010
0100
0220
0000
0000
0330
,
0000
1001
0000
0000
0000
0000
0000
0000
0000
0000
0000
0000
0000
0000
0000
0000
0000
0000
0000
0000
0000
0000
0000
0000
0100
0000
0000
0000
0000
0000
0000
0000
0000
0000
0000
0000
0000
0000
0000
0000
0000
0000
0000
0000
0000
0000
0000
0000
0020
0000
0000
0000
0000
0000
0000
0000
0000
0000
0000
0000
0000
0000
0000
0000
0000
0000
0000
0000
0000
0000
0000
0000
0030
0000
0000
0000
0000
0000
0000
0000
0000
0000
0000
0000
0000
0000
0000
0000
0000
0000
0000
0000
0000
0000
0000
0000
0100
0000
0000
0000
0000
0000
0000
0000
0000
0000
0000
0000
0000
0000
0000
0000
0000
0000
0000
0000
0000
0000
0000
0000
0010
0000
0000
0000
0000
0000
0000
0000
0000
0000
0000
0000
0000
0000
0000
0000
0000
0000
0000
0000
0000
0000
0000
0000
0001
0000
0000
0000
0000
0000
0000
0000
0000
0000
0000
0000
0000
0000
0000
0000
0000
0000
0000
0000
0000
0000
0000
0000
1000
0000
0000
0000
0000
0000
0000
0000
0000
0000
0000
0000
0000
0000
0000
0000
0000
0000
0000
0000
0000
0000
0000
0000
,
0100
1000
0100
0100
0010
0001
1000
0100
,
0010
0100
0020
0030
0100
0010
0001
0100
,
0010
2000
3000
0100
0010
0001
0100
0010
,
1000
0100
1000
0200
0300
0000
0010
0100
,
0010
0001
0100
0010
0200
0300
0010
0100
,
0010
0000
0100
0000
0010
0000
1000
0000
0100
0000
1000
0000
0200
0000
0300
0002
,
0000
0003
0200
0000
0300
0000
0000
0000
0001
0000
1000
0000
0001
0000
0100
0000
,
0010
0000
0100
0000
0020
0000
0030
0000
0100
0001
0000
1000
0000
0000
0100
0000
,
1000
0100
0020
0030
0000
0100
0010
0001
,
0100
0001
0100
1000
0100
0010
0100
0010
,
0100
1000
0100
0001
1000
0001
1001
0000
,
1001
1001
1001
0110
,
0100
0010
0100
0000
1001
0000
0000
0000
;

//---------------dance-single - ----------------
#NOTES:
     dance-single:
     :
     Hard:
     8:
     0.474818,0.646539,0.121692,0.593251,0.433529,437.000000,421.000000,16.000000,78.000000,0.000000,0.000000,0.474818,0.646539,0.121692,0.593251,0.433529,437.000000,421.000000,16.000000,78.000000,0.000000,0.000000:
// measure 0
0000
0000
0000
0000
,  // measure 1
0000
0000
0000
0000
,  // measure 2
0000
0000
0000
0000
,  // measure 3
0000
0000
0000
0000
,  // measure 4
0000
1000
0001
0000
0100
0000
0010
0000
0100
0000
0000
0010
0000
0000
0200
0000
,  // measure 5
0000
0000
0300
0000
1000
0000
0000
0001
1000
0000
0000
0100
0010
0000
0000
0000
,  // measure 6
0100
0001
1000
0000
0100
0000
0010
0000
0100
0000
0000
0010
0000
0000
0002
0000
,  // measure 7
0003
2000
3000
0200
0000
0300
0010
0100
,  // measure 8
0010
0000
0100
0000
0010
0000
0001
0000
0100
0000
1000
0200
0000
0300
0001
0000
,  // measure 9
0200
0000
0300
0020
0000
0030
2000
0000
3000
0200
0000
0300
0010
0000
0100
0000
,  // measure 10
0010
0000
0010
0000
0010
0000
0010
0000
0100
0000
0100
0200
0000
0300
0020
0000
,  // measure 11
0030
0100
0010
0002
0003
1000
0001
2000
,  // measure 12
3000
0000
1000
0001
1000
0000
0100
0000
0010
0000
0100
0010
0000
0000
0000
0000
,  // measure 13
0100
0000
0001
1000
0100
0000
0010
0000
0100
0000
0010
0100
0020
0000
0030
0000
,  // measure 14
0010
0000
1000
0100
0010
0001
0010
0100
1000
0000
0100
0010
0001
0000
1000
0000
,  // measure 15
0002
0000
0003
1000
0001
1000
0002
0003
,  // measure 16
1001
0000
0100
0010
0100
0000
0100
0010
2000
0000
3000
0200
0000
0300
0100
0000
,  // measure 17
0010
0000
0100
0001
0010
1000
0001
0010
0200
0000
0300
2000
0000
3000
0100
0010
,  // measure 18
0100
0000
1000
0000
0100
0000
0100
0000
0020
0000
0030
0200
0000
0300
0010
0000
,  // measure 19
0001
0100
0010
0100
0010
0100
1000
0200
,  // measure 20
0300
0000
0100
0010
0100
0000
1000
0100
0020
0000
0030
0002
0000
0003
1000
0000
,  // measure 21
0001
0000
0100
0010
0100
0010
0100
0010
0200
0000
0300
2000
0000
3000
0100
0010
,  // measure 22
0100
0010
0100
1000
0100
0010
0001
0200
,  // measure 23
0300
0000
0010
0000
0100
0000
1000
0000
0200
0000
0300
0020
0000
0030
0100
0000
,  // measure 24
0010
0000
0001
0000
0100
0000
0010
0000
2000
0000
3000
0200
0000
0300
0020
0000
,  // measure 25
0030
0000
0000
0000
0100
0000
0010
0000
0200
0000
0300
0020
0000
0030
1000
0000
,  // measure 26
0200
0000
0300
0000
0000
0000
0100
0000
0010
0100
0000
0010
0000
0100
0000
2000
,  // measure 27
0000
3000
0010
0100
0010
0100
0010
0100
0010
0100
0010
0001
0100
0010
0100
0010
,  // measure 28
2002
0000
0000
0000
0000
0000
0000
0000
3003
0000
0000
0000
0100
0010
0000
0000
2002
0000
0000
0000
0000
0000
3003
0000
0010
0000
0000
0000
0100
0000
0000
0000
,  // measure 29
0020
0000
0030
0000
1000
0000
0100
0000
0010
0000
0100
0020
0000
0030
0001
0000
,  // measure 30
0100
0020
0000
0030
1000
0100
0000
0020
0000
0030
0100
0000
0010
0000
0100
0000
,  // measure 31
0002
0000
0003
0000
1000
0001
0000
0200
0000
0300
0010
0000
0100
0000
0020
0000
,  // measure 32
0030
0000
2000
0000
3000
0000
0100
0000
0010
0000
0100
0000
0010
0000
0001
0200
,  // measure 33
0000
0300
0020
0000
0030
0000
0000
0000
0100
0000
0010
0000
0100
0000
0010
0200
,  // measure 34
0000
0300
2000
0000
3000
0000
0000
0000
0100
0010
0100
0010
0100
0000
0001
1000
,  // measure 35
0000
0000
0100
0000
0010
0000
0100
0000
0020
0000
0030
0002
0000
0003
2000
0000
,  // measure 36
3000
0000
0000
0000
0100
0010
0100
0010
,  // measure 37
0100
1000
0100
0010
0000
0100
0010
0001
,  // measure 38
0100
0000
0010
0000
0000
0000
0100
0001
0110
0000
0100
0000
1000
0000
0100
0000
,  // measure 39
0000
0010
0100
0010
0001
0000
0000
1000
,  // measure 40
0001
1000
0000
0100
0000
0001
0000
0000
0100
0000
0000
0000
0000
0000
0100
0010
,  // measure 41
0100
0000
0100
0000
0010
0000
1000
0000
0000
0000
0000
0000
0100
0010
0100
0010
,  // measure 42
0001
0000
1000
0000
0100
0000
0010
0000
0100
0000
0000
0000
0000
0000
0100
0010
,  // measure 43
0100
0000
0010
0000
0001
0000
1000
0001
1000
0001
1000
0001
1000
0001
1000
0001
,  // measure 44
1000
0000
0001
0000
1000
0000
0001
0000
1000
0000
0001
0000
1000
0000
0001
0000
2002
0000
0000
0000
0000
0000
0000
0000
3003
0000
0000
0000
0100
0001
0000
1000
,  // measure 45
0000
1001
0000
0000
0000
0000
0000
0000
0000
0000
0000
0000
0000
0000
0000
0000
0000
0000
0000
0000
0000
0000
0000
0000
0100
0000
0000
0000
0000
0000
0000
0000
0000
0000
0000
0000
0000
0000
0000
0000
0000
0000
0000
0000
0000
0000
0000
0000
0020
0000
0000
0000
0000
0000
0000
0000
0000
0000
0000
0000
0000
0000
0000
0000
0000
0000
0000
0000
0000
0000
0000
0000
0030
0000
0000
0000
0000
0000
0000
0000
0000
0000
0000
0000
0000
0000
0000
0000
0000
0000
0000
0000
0000
0000
0000
0000
0100
0000
0000
0000
0000
0000
0000
0000
0000
0000
0000
0000
0000
0000
0000
0000
0000
0000
0000
0000
0000
0000
0000
0000
0010
0000
0000
0000
0000
0000
0000
0000
0000
0000
0000
0000
0000
0000
0000
0000
0000
0000
0000
0000
0000
0000
0000
0000
1000
0000
0000
0000
0000
0000
0000
0000
0000
0000
0000
0000
0000
0000
0000
0000
0000
0000
0000
0000
0000
0000
0000
0000
0100
0000
0000
0000
0000
0000
0000
0000
0000
0000
0000
0000
0020
0000
0000
0000
0000
0000
0000
0000
0000
0000
0000
0000
,  // measure 46
0000
0030
0100
0000
0010
0002
0000
0003
0001
1000
0000
0200
0000
0300
0010
0000
,  // measure 47
0100
0000
0010
0000
0002
0000
0003
0000
1000
0001
0000
0100
0000
0000
0010
0000
,  // measure 48
0100
0020
0030
0100
0010
1000
0100
0001
,  // measure 49
0100
0000
0010
0200
0000
0300
0020
0000
0030
0000
0000
0000
1000
0000
1000
0000
,  // measure 50
0001
0000
0001
0002
0000
0003
2000
0000
3000
0000
0000
0000
0100
0010
0100
0110
,  // measure 51
0010
0000
0001
2000
0000
3000
0100
0000
0010
0000
0100
0000
2002
0000
3003
0220
,  // measure 52
0000
0330
1001
0000
0100
0000
0010
0100
0010
0100
0000
0001
0000
0000
1000
0000
,  // measure 53
0100
0000
0010
0000
0200
0000
0300
0000
0100
0010
0000
2000
0000
3000
0100
0000
,  // measure 54
0010
0000
1000
0000
0200
0000
0300
0000
0000
0000
1000
0010
0100
0000
0010
2000
,  // measure 55
0000
3000
1000
0000
1001
0200
0000
0300
0100
0010
0100
0010
0100
1000
0001
0010
,  // measure 56
0100
0001
0010
1000
0100
0001
0010
0001
1000
0010
0100
1000
1001
0000
0000
0000
,  // measure 57
1001
0000
0000
0000
1001
0000
0000
0000
1001
0000
0000
0000
0110
0001
1000
0000
,  // measure 58
0100
0000
0010
0000
0100
0000
0000
0001
0000
0000
1000
0000
0000
0000
0000
0000
;
