#VERSION:0.83;
#TITLE:직진;
#SUBTITLE:;
#ARTIST:트레저;
#TITLETRANSLIT:STRAIGHT;
#SUBTITLETRANSLIT:;
#ARTISTTRANSLIT:TREASURE;
#GENRE:K-Pop;
#ORIGIN:;
#CREDIT:;
#BANNER:STRAIGHT.png;
#BACKGROUND:STRAIGHT-bg.png;
#PREVIEWVID:;
#JACKET:STRAIGHT-jacket.png;
#CDIMAGE:;
#DISCIMAGE:;
#LYRICSPATH:;
#CDTITLE:Wrland Season 2.png;
#MUSIC:STRAIGHT.ogg;
#OFFSET:0.000000;
#SAMPLESTART:47.855000;
#SAMPLELENGTH:12.000000;
#SELECTABLE:YES;
#DISPLAYBPM:65.000000:130.000000;
#BPMS:0.000=44.500,
4.000=65.000,
18.000=130.000,
42.000=65.000,
44.000=130.000,
46.000=65.000,
55.000=130.000,
71.000=65.000,
74.000=130.000,
75.000=65.000,
82.000=130.000,
83.000=65.000,
104.000=130.000,
170.000=65.000;
#STOPS:8.000=0.923,
15.000=0.923,
72.000=0.462,
80.000=0.462,
103.000=1.846;
#DELAYS:;
#WARPS:;
#TIMESIGNATURES:0.000=4=4;
#TICKCOUNTS:0.000=4;
#COMBOS:0.000=1;
#SPEEDS:0.000=1.000=0.000=0;
#SCROLLS:0.000=1.000;
#FAKES:;
#LABELS:0.000=Song Start;
#BGCHANGES:0.000=STRAIGHT.avi=1.000=0=0=0=StretchNoLoop====,
99999=-nosongbg-=1.000=0=0=0 // don't automatically add -songbackground-
;
#KEYSOUNDS:;
#ATTACKS:
;

//---------------dance-single - ----------------
#NOTEDATA:;
#CHARTNAME:;
#STEPSTYPE:dance-single;
#DESCRIPTION:;
#CHARTSTYLE:;
#DIFFICULTY:Beginner;
#METER:1;
#RADARVALUES:0.048200,0.110303,0.051907,0.069210,0.000000,39.000000,33.000000,6.000000,8.000000,0.000000,0.000000,0.000000,0.000000,0.000000,0.048200,0.110303,0.051907,0.069210,0.000000,39.000000,33.000000,6.000000,8.000000,0.000000,0.000000,0.000000,0.000000,0.000000;
#CREDIT:;
#DISPLAYBPM:65.000000:130.000000;
#NOTES:
0000
0000
0000
0000
,
1000
0000
0000
0000
,
0001
0000
0000
0100
,
0000
0000
0000
0010
,
0000
0000
1000
0000
,
0000
0000
0000
0000
,
0000
0000
0001
0000
,
0000
0000
0000
0000
,
0000
0000
0100
0000
,
0000
0000
0000
0000
,
0000
0000
0010
0000
,
1000
0000
0001
2002
,
0000
3003
0000
2000
,
0000
3000
0000
0200
,
0000
0000
0000
0300
,
0000
0000
0000
2000
,
0000
0000
0000
3000
,
0000
0000
0000
0110
,
0000
0000
0000
1001
,
0000
0000
0000
1001
,
0000
0000
0000
0110
,
0000
0000
0000
1000
,
0000
0002
0000
0003
,
0000
2000
0000
3000
,
0000
0200
0000
0300
,
0000
1000
0000
0001
,
0000
0000
1000
0000
,
0000
0000
0000
0000
,
0000
0000
0001
0000
,
0000
0000
0000
0000
,
0000
0000
0100
0000
,
0000
0000
0000
0000
,
0000
0000
0010
0000
,
0000
0000
0000
0000
,
0000
0000
1000
0000
,
0000
0000
0000
0000
,
0000
0000
0010
0000
,
0000
0000
0000
0000
,
0000
0000
0100
0000
,
0000
0000
0000
0000
,
0000
0000
0001
0000
,
0000
0000
0000
0000
,
0000
0000
1001
0000
;

//---------------dance-single - ----------------
#NOTEDATA:;
#CHARTNAME:;
#STEPSTYPE:dance-single;
#DESCRIPTION:;
#CHARTSTYLE:;
#DIFFICULTY:Easy;
#METER:3;
#RADARVALUES:0.111230,0.202222,0.155721,0.121117,0.000000,90.000000,72.000000,18.000000,14.000000,0.000000,0.000000,0.000000,0.000000,0.000000,0.111230,0.202222,0.155721,0.121117,0.000000,90.000000,72.000000,18.000000,14.000000,0.000000,0.000000,0.000000,0.000000,0.000000;
#CREDIT:;
#DISPLAYBPM:65.000000:130.000000;
#NOTES:
0000
0000
0000
0000
,
1000
0000
0001
0000
,
1000
0001
0000
0100
,
0000
0010
0000
0100
,
0010
0000
0001
0000
,
0000
0000
1000
0000
,
0000
0000
0001
0000
,
0000
0000
1000
0000
,
0000
0000
0100
0000
,
0000
0000
1000
0000
,
0000
0000
0100
0000
,
1000
0000
0000
0002
,
0003
0200
0300
0020
,
0030
0200
0300
2000
,
0000
3000
0000
0200
,
0000
0300
0000
0020
,
0000
0030
0000
0100
,
0000
0000
1001
1001
,
0000
0000
1001
1001
,
0000
0000
1000
0000
0000
0110
0110
0000
,
0000
0000
0110
0110
,
0000
0100
0010
1001
,
0000
0200
0300
0020
,
0030
0200
0300
0020
,
0030
0002
0003
0020
,
0030
0002
0003
0010
,
0000
1001
1001
0000
,
0000
1000
0000
0000
,
0001
0000
0110
0000
,
0000
0100
0000
0000
,
1000
0000
1001
0000
,
0000
0100
0000
0000
,
0001
0000
1000
0000
,
0000
1001
0100
0000
,
0000
0110
0110
0000
,
0000
0001
0000
0000
,
1000
0000
0001
0000
,
0000
1000
0000
0000
,
0100
0000
0010
0000
,
0000
0100
0000
0000
,
0100
0000
0001
0000
,
0000
0010
0100
0000
,
0000
1001
1001
0000
;

//---------------dance-single - ----------------
#NOTEDATA:;
#CHARTNAME:;
#STEPSTYPE:dance-single;
#DESCRIPTION:;
#CHARTSTYLE:;
#DIFFICULTY:Medium;
#METER:6;
#RADARVALUES:0.292905,0.350319,0.250885,0.268187,0.043256,237.000000,208.000000,29.000000,31.000000,0.000000,0.000000,0.000000,0.000000,0.000000,0.292905,0.350319,0.250885,0.268187,0.043256,237.000000,208.000000,29.000000,31.000000,0.000000,0.000000,0.000000,0.000000,0.000000;
#CREDIT:;
#DISPLAYBPM:65.000000:130.000000;
#NOTES:
0000
0000
0000
0000
,
1000
0001
1000
0100
0010
0100
0010
1000
,
0001
0000
1000
0001
1000
0100
0010
0100
,
0010
0001
0100
0010
0100
1000
0001
0000
,
1000
0100
1000
0100
0010
0000
0100
0000
,
0010
0100
0010
0001
,
0010
0000
0100
1000
,
0100
1000
0100
1000
,
0100
0000
0001
1000
,
0001
1000
0001
1000
,
0001
0000
0000
0000
0000
0000
0000
0000
0101
1000
0000
0000
0101
0010
0000
0000
,
0101
0000
0000
0000
1010
0000
0000
0000
1001
0000
0000
0000
2000
0000
3000
0001
,
2000
0000
3000
0001
0010
0000
0100
0000
0010
0000
0100
0000
0010
0000
0001
0000
,
1000
0100
0010
0100
0010
0001
2002
3003
,
0000
1000
0200
0300
0000
0001
0010
0000
,
0100
0010
0100
0010
,
0100
0000
0010
0001
0100
0000
0100
0000
,
0010
0000
0100
0010
0001
0000
2002
3003
,
1000
0000
0000
1000
0001
1000
0001
0000
0000
0000
0000
0000
2002
0000
3003
0000
,
0100
0000
0000
0000
0100
0000
0010
0000
0100
0010
0100
0000
0220
0000
0330
0000
,
1001
0000
0000
1000
1000
1000
1000
0000
0000
0000
0000
0000
2002
0000
3003
0000
,
0100
0000
0010
0100
0010
0100
2002
0000
,
3003
0000
2000
3000
0200
0300
2000
3000
,
0200
0300
0020
0030
0200
0300
0020
0030
,
0200
0300
0002
0003
0200
0300
0002
0003
,
0200
0000
0000
0000
0000
0000
0000
0000
0000
0000
0000
0000
0000
0000
0000
0000
0000
0000
0000
0000
0000
0000
0000
0000
0300
0000
0000
0000
0000
0000
0000
0000
0000
0000
0000
0000
0000
0000
0000
0000
0000
0000
0000
0000
0000
0000
0000
0000
0020
0000
0000
0000
0000
0000
0000
0000
0000
0000
0000
0000
0000
0000
0000
0000
0000
0000
0000
0000
0000
0000
0000
0000
0030
0000
0000
0000
0000
0000
0000
0000
0000
0000
0000
0000
0000
0000
0000
0000
0000
0000
0000
0000
0000
0000
0000
0000
0200
0000
0000
0000
0000
0000
0000
0000
0000
0000
0000
0000
0000
0000
0000
0000
0000
0000
0000
0000
0000
0000
0000
0000
0300
0000
0000
0000
0000
0000
0000
0000
0000
0000
0000
0000
0000
0000
0000
0000
0000
0000
0000
0000
0000
0000
0000
0000
0110
0100
0000
0000
0000
0000
0000
0000
0000
0000
0000
0000
0000
0000
0000
0000
0000
0000
0000
0000
0000
0000
0000
0000
0010
0000
0000
0000
0000
0000
0000
0000
0000
0000
0000
0000
0000
0000
0000
0000
0000
0000
0000
0000
0000
0000
0000
0000
,
0100
0010
0100
0000
1001
0000
1000
0000
,
0100
0000
1000
0000
0001
1000
0001
1000
,
0001
0100
0010
0100
,
0010
0100
0011
1001
,
0110
1001
1000
0100
,
0010
0000
0100
0000
0010
0001
0001
0001
,
0001
1000
0100
1000
,
0100
0010
0110
1001
,
1000
0100
0010
0000
1001
0000
0100
0000
,
0010
0100
0010
0100
,
0010
0001
1001
1000
,
0100
0010
0101
1001
,
1010
1001
0100
0010
,
0100
0000
0010
0001
1000
0100
0010
0100
,
0010
0100
1001
0100
,
0100
1000
0100
0010
,
0100
0010
0110
0000
2002
3003
0000
0000
;

//---------------dance-single - ----------------
#NOTEDATA:;
#CHARTNAME:;
#STEPSTYPE:dance-single;
#DESCRIPTION:;
#CHARTSTYLE:;
#DIFFICULTY:Hard;
#METER:9;
#RADARVALUES:0.467164,0.536266,0.389304,0.475816,0.350373,378.000000,333.000000,45.000000,55.000000,0.000000,0.000000,0.000000,0.000000,0.000000,0.467164,0.536266,0.389304,0.475816,0.350373,378.000000,333.000000,45.000000,55.000000,0.000000,0.000000,0.000000,0.000000,0.000000;
#CREDIT:;
#DISPLAYBPM:65.000000:130.000000;
#NOTES:
// measure 0
0000
0000
0000
0000
,  // measure 1
1000
0000
0000
0000
0100
0000
0010
0000
0100
0000
0000
0000
0010
0000
0100
0001
0010
0000
0000
1000
0000
0000
0010
0000
0001
0000
0000
0000
0100
0000
0010
0000
,  // measure 2
0100
0000
1000
0000
0001
0000
1000
0000
0100
0000
0000
0010
0000
0000
0100
0000
0010
0000
0100
0000
0010
0000
1000
0000
0100
0000
0000
0000
0100
0000
0010
0000
,  // measure 3
0001
0000
0000
0000
1000
0000
0010
0001
1000
0000
0000
0100
0000
0000
0010
0000
0100
0000
0000
0000
0010
0000
0001
0000
0100
0000
0000
0000
1000
0000
0001
0000
,  // measure 4
1000
0001
0100
0010
0100
0000
0010
0100
0010
0000
0001
0000
1000
0000
0100
0000
,  // measure 5
0010
0001
0100
0010
0100
1000
0100
0010
,  // measure 6
0100
0000
0100
0010
0001
1000
0100
0010
,  // measure 7
0100
0010
0001
0100
0010
1000
0100
1000
,  // measure 8
0100
0000
0000
0000
0100
0000
0010
0000
0100
0000
0000
0001
2000
0000
3000
0000
,  // measure 9
0100
0000
0010
0000
0100
0000
0010
0000
0001
0000
0000
1000
0002
0000
0003
0000
,  // measure 10
0000
0000
0010
0000
0100
0010
0100
0010
0100
0001
0010
0100
1000
0100
0010
0001
,  // measure 11
0101
0010
0000
0000
1010
0100
0000
0000
0220
0330
2002
3003
0200
0000
0300
0010
,  // measure 12
0200
0000
0300
0010
0002
0003
0100
0010
0000
0100
0000
0001
2000
3000
0100
0010
,  // measure 13
0000
0200
0300
0000
0200
0300
0020
0030
0200
0300
1000
0001
0200
0000
0300
0000
,  // measure 14
0000
0100
0020
0030
0000
0001
2000
3000
,  // measure 15
0100
0020
0030
0200
0300
1000
0010
0001
,  // measure 16
0100
0000
1000
0100
0010
0001
0100
0010
0100
0010
0001
0100
2002
0000
3003
0000
,  // measure 17
0200
0300
0010
0100
0010
0000
2002
3003
,  // measure 18
0100
1001
0000
0000
0000
0000
0000
0000
0000
0000
0000
0000
0000
0000
0000
0000
0000
0000
0000
0000
0000
0000
0000
0000
0000
0000
0000
0000
0000
0000
0000
0000
0000
0000
0000
0000
0100
0000
0000
0000
0000
0000
0000
0000
0000
0000
0000
0000
0010
0000
0000
0000
0000
0000
0000
0000
0000
0000
0000
0000
0001
0000
0000
0000
0000
0000
0000
0000
0000
0000
0000
0000
0100
0000
0000
0000
0000
0000
0000
0000
0000
0000
0000
0000
0000
0000
0000
0000
0000
0000
0000
0000
0000
0000
0000
0000
0010
0000
0000
0000
0000
0000
0000
0000
0000
0000
0000
0000
0000
0000
0000
0000
0000
0000
0000
0000
0000
0000
0000
0000
0000
0000
0000
0000
0000
0000
0000
0000
0000
0000
0000
0000
0000
0000
0000
0000
0000
0000
0000
0000
0000
0000
0000
0000
0220
0000
0000
0000
0000
0000
0000
0000
0000
0000
0000
0000
0000
0000
0000
0000
0000
0000
0000
0000
0000
0000
0000
0000
0330
0000
0000
0000
0000
0000
0000
0000
0000
0000
0000
0000
0000
0000
0000
0000
0000
0000
0000
0000
0000
0000
0000
0000
,  // measure 19
1001
0010
0100
0010
0100
0000
1000
0000
0100
0001
0100
0000
2002
0000
3003
0000
,  // measure 20
1001
0110
0000
0000
0000
0000
0000
0000
0000
0000
0000
0000
0000
0000
0000
0000
0000
0000
0000
0000
0000
0000
0000
0000
0000
0000
0000
0000
0000
0000
0000
0000
0000
0000
0000
0000
1000
0000
0000
0000
0000
0000
0000
0000
0000
0000
0000
0000
1000
0000
0000
0000
0000
0000
0000
0000
0000
0000
0000
0000
0001
0000
0000
0000
0000
0000
0000
0000
0000
0000
0000
0000
0001
0000
0000
0000
0000
0000
0000
0000
0000
0000
0000
0000
0000
0000
0000
0000
0000
0000
0000
0000
0000
0000
0000
0000
1000
0000
0000
0000
0000
0000
0000
0000
0000
0000
0000
0000
0000
0000
0000
0000
0000
0000
0000
0000
0000
0000
0000
0000
0000
0000
0000
0000
0000
0000
0000
0000
0000
0000
0000
0000
0000
0000
0000
0000
0000
0000
0000
0000
0000
0000
0000
0000
0200
0000
0000
0000
0000
0000
0000
0000
0000
0000
0000
0000
0000
0000
0000
0000
0000
0000
0000
0000
0000
0000
0000
0000
0300
0000
0000
0000
0000
0000
0000
0000
0000
0000
0000
0000
0000
0000
0000
0000
0000
0000
0000
0000
0000
0000
0000
0000
,  // measure 21
0010
0000
0000
0100
0000
0000
0001
0000
0000
0100
0000
0000
1000
0000
0000
0000
0000
0000
0100
0000
0000
0000
0000
0000
0010
0000
0001
0000
1000
0000
0001
0000
0100
0000
0010
0000
2002
0000
0000
0000
0000
0000
0000
0000
0000
0000
0000
0000
,  // measure 22
3003
0000
0000
0000
1000
0000
0001
0000
0200
0000
0300
0000
0010
0000
0100
0000
0020
0000
0030
0000
0100
0000
0010
0000
0002
0000
0003
1000
0000
0000
0100
0000
,  // measure 23
0020
0000
0030
0000
0100
0000
0010
0000
0002
0000
0003
0000
1000
0000
0001
0000
0200
0000
0300
0000
0100
0000
0010
0000
2000
0000
3000
0100
0000
0000
0100
0000
,  // measure 24
0020
0030
0100
0010
0002
0003
1000
0001
0100
0010
0100
0010
0001
1000
0100
0010
,  // measure 25
0200
0000
0000
0000
0000
0000
0000
0000
0000
0000
0000
0000
0300
0000
0000
0000
0000
0000
0000
0000
0000
0000
0000
0000
0010
0000
0000
0000
0000
0000
0000
0000
0000
0000
0000
0000
0100
0000
0000
0000
0000
0000
0000
0000
0000
0000
0000
0000
0010
0000
0000
0000
0000
0000
0000
0000
0000
0000
0000
0000
0001
0000
0000
0000
0000
0000
0000
0000
0000
0000
0000
0000
1000
0000
0000
0000
0000
0000
0000
0000
0000
0000
0000
0000
0100
0000
0000
0000
0000
0000
0000
0000
0000
0000
0000
0000
0010
0000
0000
0000
0000
0000
0000
0000
0000
0000
0000
0000
0100
0000
0000
0000
0000
0000
0000
0000
0000
0000
0000
0000
0020
0000
0000
0000
0000
0000
0000
0000
0000
0000
0000
0000
0030
0000
0000
0000
0000
0000
0000
0000
0000
0000
0000
0000
0000
0002
0000
0000
0000
0000
0000
0000
0000
0000
0000
0000
0003
0000
0000
0000
0000
0000
0000
0000
0000
0000
0000
0000
2000
0000
0000
0000
0000
0000
0000
0000
0000
0000
0000
0000
3000
0000
0000
0000
0000
0000
0000
0000
0000
0000
0000
0000
,  // measure 26
0100
0010
0100
0000
0110
0010
0100
1000
,  // measure 27
0100
0010
0002
0000
0003
0100
0010
1000
,  // measure 28
0100
0000
1001
0000
0110
0100
0010
0001
,  // measure 29
1000
0100
0010
0100
0011
0000
1010
0000
,  // measure 30
0101
0000
1001
0000
1000
0001
0100
0010
,  // measure 31
0100
1000
0200
0000
0300
0010
0010
0010
,  // measure 32
0100
0001
1000
0001
0100
0010
0001
0100
,  // measure 33
0010
0100
0010
0100
1001
0000
0110
0000
,  // measure 34
1001
0100
1010
0000
1001
0100
0010
0100
,  // measure 35
2000
3000
0100
0010
0100
0010
0001
0100
,  // measure 36
0011
0000
1100
0000
0202
0000
0000
0303
,  // measure 37
1001
0101
1010
1001
,  // measure 38
0110
0000
1001
0000
0220
0000
0000
0330
,  // measure 39
1001
0000
0110
0001
1000
0100
0010
0100
,  // measure 40
0010
0000
1001
0000
0220
0000
0000
0330
,  // measure 41
1010
1001
1001
0110
,  // measure 42
0010
0100
0011
0000
0220
0000
0330
0000
;
