#TITLE:시간을 달려서;
#SUBTITLE:;
#ARTIST:여자친구;
#TITLETRANSLIT:Rough;
#SUBTITLETRANSLIT:;
#ARTISTTRANSLIT:GFRIEND;
#GENRE:K-Pop;
#CREDIT:;
#BANNER:Rough.png;
#BACKGROUND:Rough-bg.png;
#LYRICSPATH:;
#CDTITLE:Wrland Season 2.png;
#MUSIC:Rough.ogg;
#OFFSET:-0.000000;
#SAMPLESTART:100.713997;
#SAMPLELENGTH:12.000000;
#SELECTABLE:YES;
#DISPLAYBPM:112.000000;
#BPMS:0.000000=112.000000
;
#STOPS:
;
#BGCHANGES:0.000=Rough.avi=1.000=0=0=0=StretchNoLoop====,
99999=-nosongbg-=1.000=0=0=0 // don't automatically add -songbackground-
;
#KEYSOUNDS:;
#ATTACKS:;

//---------------dance-single - ----------------
#NOTES:
     dance-single:
     :
     Beginner:
     1:
     0.030709,0.068519,0.006718,0.033588,0.000000,32.000000,31.000000,1.000000,5.000000,0.000000,0.000000,0.030709,0.068519,0.006718,0.033588,0.000000,32.000000,31.000000,1.000000,5.000000,0.000000,0.000000:
0000
0000
0000
0000
,
0000
0000
0000
0000
,
0000
0000
0000
0000
,
0000
0000
0000
0000
,
0000
0000
0000
0000
,
0000
0000
0000
0000
,
0000
0000
0000
0000
,
0000
0000
0000
0000
,
1000
0000
0000
0000
,
0000
0000
0000
0000
,
0001
0000
0000
0000
,
0000
0000
0000
0000
,
1000
0000
0000
0000
,
0000
0000
0000
0000
,
0001
0000
0000
0000
,
0000
0000
0000
0000
,
0010
0000
0000
0000
,
0000
0000
0000
0000
,
0010
0000
0000
0000
,
0000
0000
0000
0000
,
0100
0000
0000
0000
,
0000
0000
0000
0000
,
0200
0000
0000
0000
,
0300
0000
0000
0000
,
1000
0000
0000
0000
,
0000
0000
0000
0000
,
0100
0000
0000
0000
,
0000
0000
0000
0000
,
0010
0000
0000
0000
,
0000
0000
0000
0000
,
0001
0000
0000
0000
,
0000
0000
0000
0000
,
0010
0000
0000
0000
,
0000
0000
0000
0000
,
0100
0000
0000
0000
,
0000
0000
0000
0000
,
0001
0000
0000
0000
,
0000
0000
0000
0000
,
1000
0000
0000
0000
,
0000
0000
0000
0000
,
0001
0000
0000
0000
,
0000
0000
0000
0000
,
1000
0000
0000
0000
,
0000
0000
0000
0000
,
0100
0000
0000
0000
,
0000
0000
0000
0000
,
0010
0000
0000
0000
,
0000
0000
0000
0000
,
2002
0000
0000
0000
,
0000
3003
0000
0000
,
0100
0000
0000
0000
,
0000
0000
0000
0000
,
0010
0000
0000
0000
,
0000
0000
0000
0000
,
0100
0000
0000
0000
,
0000
0000
0000
0000
,
0002
0000
0003
0000
,
0000
0000
0000
0000
,
2000
0000
3000
0000
,
0000
0000
0000
0000
,
0000
0100
0000
0000
,
0000
0000
0000
0000
,
1000
0000
0000
0000
,
0000
0000
0000
0000
,
0010
0000
0000
0000
,
0000
0000
0000
0000
,
0100
0000
0000
0000
,
0000
0000
0000
0000
,
0010
0000
0000
0000
;

//---------------dance-single - ----------------
#NOTES:
     dance-single:
     :
     Easy:
     3:
     0.063337,0.114198,0.026870,0.094046,0.000000,66.000000,62.000000,4.000000,14.000000,0.000000,0.000000,0.063337,0.114198,0.026870,0.094046,0.000000,66.000000,62.000000,4.000000,14.000000,0.000000,0.000000:
0000
0000
0000
0000
,
0000
0000
0000
0000
,
0000
0000
0000
0000
,
0000
0000
0000
0000
,
0000
0000
0000
0000
,
0000
0000
0000
0000
,
0000
0000
0000
0000
,
0000
0000
0000
0000
,
1000
0000
0000
0000
,
0001
0000
0000
0000
,
1000
0000
0000
0000
,
0001
0000
0000
0000
,
0100
0000
0000
0000
,
0010
0000
0000
0000
,
0100
0000
0000
0000
,
0010
0000
0000
0000
,
0100
0000
0000
0000
,
1000
0000
0000
0000
,
0100
0000
0000
0000
,
0020
0000
0030
0000
,
0100
0000
0000
0000
,
0001
0000
0000
0000
,
0100
0000
0000
0000
,
0220
0000
0330
0000
,
1000
0000
0000
0000
,
0100
0000
0000
0000
,
1000
0000
0000
0000
,
0100
0000
0000
0000
,
0010
0000
0000
0000
,
0001
0000
0000
0000
,
0010
0000
0000
0000
,
0001
0000
0000
0000
,
0100
0000
0000
0000
,
0010
0000
0000
0000
,
0100
0000
0000
0000
,
0010
0000
0000
0000
,
0002
0000
0003
0000
,
2000
0000
3000
0000
,
0002
0000
0003
0000
,
2000
0000
3000
0000
,
1000
0000
0000
0000
,
1000
0000
0000
0000
,
0001
0000
0000
0000
,
0001
0000
0000
0000
,
0100
0000
0000
0000
,
0010
0000
0000
0000
,
0100
0000
0000
0000
,
0010
0000
0000
1000
,
2002
0000
0000
3003
,
0100
0000
0000
0000
,
0010
0000
0000
0000
,
0100
0000
0000
0000
,
0010
0000
0000
0000
,
1000
0000
0000
0000
,
0001
0000
0000
0000
,
0100
0000
0000
0000
,
0220
0000
0000
0330
,
0002
0000
0000
0003
,
2000
0000
0000
3000
,
0200
0000
0000
0300
,
0000
0001
0000
0000
,
1000
0000
0000
0000
,
0100
0000
0000
0000
,
0010
0000
0000
0000
,
0100
0000
0000
0000
,
0010
0000
0000
0000
,
0001
0000
0000
0000
,
1000
0000
0000
0000
,
1001
0000
0000
0000
;

//---------------dance-single - ----------------
#NOTES:
     dance-single:
     :
     Medium:
     5:
     0.190010,0.296915,0.033588,0.060458,0.000000,198.000000,193.000000,5.000000,9.000000,0.000000,0.000000,0.190010,0.296915,0.033588,0.060458,0.000000,198.000000,193.000000,5.000000,9.000000,0.000000,0.000000:
0000
0000
0000
0000
,
0000
0000
0000
0000
,
0000
0000
0000
0000
,
0000
0000
0000
0000
,
1000
0000
1000
0000
,
0100
0000
0100
0000
,
1000
0000
1000
0000
,
0001
1000
0001
1000
,
1001
0000
0100
0000
,
0010
0000
0100
0000
,
0010
0000
1000
0000
,
0001
0000
1000
0000
,
0100
0000
0100
0000
,
1000
0000
0100
0000
,
0010
0010
0001
0000
,
0100
0100
1000
0001
,
1001
0000
1000
0000
,
0100
0000
1000
0000
,
0100
0000
0010
0000
,
0100
0000
0010
0000
,
0001
0000
0100
0000
,
0010
0000
0100
0000
,
1000
0000
0100
0000
,
0010
0000
0001
0100
,
0010
0100
2000
3000
,
0010
0000
0100
0000
0010
0000
0100
1000
,
0001
0000
0100
0000
0001
1000
0001
0000
,
0100
0000
0010
0000
0100
0010
0100
0000
,
1000
0000
0100
0000
0010
0000
1000
0001
,
0100
0010
0001
0100
,
0010
0100
0010
0100
,
1000
0001
1000
0001
,
1001
0000
1000
0000
,
0100
0000
1000
0000
,
0100
0000
0010
0000
,
0100
0000
0010
0000
,
0002
0000
0003
0000
,
2000
0000
3000
0000
,
0200
0000
0300
0000
,
2000
0000
3000
0000
,
0001
0000
0001
0000
,
1000
0000
1000
0000
,
0100
0000
0100
0000
,
0010
0000
0010
0000
,
0100
0000
0100
0000
,
0010
0000
0010
0000
,
0100
0000
0100
0000
,
1000
0001
1000
0001
,
1001
0100
1000
0100
,
0010
0000
1000
0000
0100
0000
0010
1000
,
0001
0000
0100
0000
0001
1000
0001
0000
,
0100
0000
0010
0001
0100
0010
0100
1000
,
0001
0100
1000
0100
,
0010
1000
0100
0010
,
0100
1000
0001
0100
,
0010
0001
1000
0010
0000
0100
0010
0100
,
0002
0003
0020
0030
,
0200
0300
0020
0030
,
0001
0000
1000
0000
0100
0010
0100
0000
,
0010
0000
0001
0000
0100
0001
0100
0000
,
0010
1001
0100
0010
,
0100
0010
0001
0100
,
0010
0100
0010
0100
,
0010
0100
1000
0100
0000
0100
0010
0001
,
1000
0000
0001
0000
,
1000
0000
0001
0000
,
0100
0000
0010
0000
,
0100
0000
0010
0000
,
0100
0000
0000
0000
;

//---------------dance-single - ----------------
#NOTES:
     dance-single:
     :
     Hard:
     9:
     0.384819,0.416404,0.020153,0.423205,0.006718,401.000000,398.000000,3.000000,63.000000,0.000000,0.000000,0.384819,0.416404,0.020153,0.423205,0.006718,401.000000,398.000000,3.000000,63.000000,0.000000,0.000000:
// measure 0
0000
0000
0000
0000
,  // measure 1
0000
0000
0000
0000
,  // measure 2
0000
0000
0000
0000
,  // measure 3
0000
0000
0000
0000
,  // measure 4
1000
0000
0001
1000
0000
0100
0010
0100
,  // measure 5
0000
0000
0010
0100
0000
0000
0001
0100
,  // measure 6
0010
0000
0100
1000
0000
0000
0100
0010
,  // measure 7
0001
0000
0100
0000
1000
0100
0010
0100
,  // measure 8
0001
0100
0010
0100
,  // measure 9
1000
0000
0100
0010
0001
0200
0000
0300
,  // measure 10
0010
0000
0100
0010
0001
0100
0010
1000
,  // measure 11
0100
0000
0010
0100
0010
0001
0100
0010
,  // measure 12
1000
0100
0010
0100
,  // measure 13
0001
0100
0010
1000
0100
0000
0100
0010
,  // measure 14
0200
0300
0020
0030
0200
0300
0001
1000
,  // measure 15
0001
1000
0001
1000
0000
0100
0020
0030
,  // measure 16
0100
0010
0001
0100
,  // measure 17
0010
0000
1000
0000
0100
0000
1000
0100
,  // measure 18
0010
0000
0100
0000
0010
0001
0100
0001
,  // measure 19
0200
0300
0020
0030
0200
0300
0020
0030
,  // measure 20
1000
0000
0000
1000
0000
0001
1000
0001
,  // measure 21
0000
0100
0000
0010
0000
0100
0010
0100
,  // measure 22
0020
0030
0000
0100
0010
0001
0100
0020
,  // measure 23
0030
1000
0001
1000
0200
0300
0000
0100
,  // measure 24
0010
0100
0010
0001
1000
0000
1000
0001
,  // measure 25
1000
0001
1000
0001
1000
0000
0100
0010
,  // measure 26
0002
0000
0003
0000
2000
0000
3000
0000
1000
0000
0001
1000
0000
0000
0100
0000
,  // measure 27
0020
0000
0030
0000
0200
0000
0300
0000
0010
0000
0100
0020
0000
0030
0000
0000
,  // measure 28
1000
0000
0100
0000
0010
0000
0100
0010
,  // measure 29
0001
0100
0010
1000
,  // measure 30
0100
0000
0010
0100
0010
0001
1000
0100
,  // measure 31
0010
0100
0010
0100
0000
0100
0010
0001
,  // measure 32
2000
3000
0200
0300
1000
0100
0010
0100
,  // measure 33
0020
0030
0002
0003
1000
0001
1000
0001
,  // measure 34
0200
0300
0020
0030
0100
0010
0001
0100
,  // measure 35
0002
0003
0200
0300
0010
1000
0100
0010
,  // measure 36
0100
0010
0100
0010
0001
0000
1000
0001
,  // measure 37
1000
0001
1000
0001
2000
3000
0200
0300
,  // measure 38
0001
0010
0100
0010
0001
0000
0100
0010
,  // measure 39
0100
1000
0100
0010
0002
0003
0200
0300
,  // measure 40
0000
0100
0010
0001
2000
3000
0200
0300
,  // measure 41
0010
0100
0010
0001
1000
0100
0010
0100
,  // measure 42
0020
0030
0001
1000
0002
0003
0100
0010
,  // measure 43
0200
0300
0020
0030
0100
0010
0001
1000
,  // measure 44
0100
0001
1000
0001
1000
0100
0010
0100
,  // measure 45
0010
0000
0100
0010
0001
1000
0100
0010
,  // measure 46
0001
0100
0010
0100
0010
1000
0100
0010
,  // measure 47
0001
1000
0001
1000
0001
1000
0220
0330
,  // measure 48
1001
0100
0010
0100
0010
0000
0001
1000
,  // measure 49
0001
1000
0001
1000
0001
0000
0100
0010
,  // measure 50
2000
3000
0200
0300
0010
0100
0020
0030
,  // measure 51
0002
0003
1000
0001
1000
0001
0200
0300
,  // measure 52
0010
0100
0010
1000
0200
0300
0010
0100
,  // measure 53
0002
0003
2000
3000
0100
0010
0100
0010
,  // measure 54
0001
1000
0100
0010
0100
0001
0100
1000
,  // measure 55
0100
0010
0001
2000
3000
0100
0010
0100
,  // measure 56
2000
3000
0100
0010
0002
0003
0100
0010
,  // measure 57
0100
1000
0100
0010
0002
0003
0100
0010
,  // measure 58
0200
0300
0020
0030
1000
0100
0010
1000
,  // measure 59
0002
0003
0200
0300
0010
0100
0020
0030
,  // measure 60
1000
0001
1001
0100
0010
0000
0100
0010
,  // measure 61
0200
0300
0020
0030
0001
0100
0010
1000
,  // measure 62
0100
0010
0001
0100
0010
0100
1000
0001
,  // measure 63
1000
0001
1000
0002
0003
0100
0010
0100
,  // measure 64
0020
0030
2000
3000
0001
1000
0001
1000
,  // measure 65
0002
0003
0200
0300
0010
0100
0010
0100
,  // measure 66
2000
3000
0200
0300
1000
0100
1000
0100
,  // measure 67
0001
0100
0010
0100
1000
0100
0010
0001
,  // measure 68
1000
0001
1000
0001
1000
0001
1000
0001
;

//---------------dance-single - ----------------
#NOTES:
     dance-single:
     :
     Challenge:
     12:
     0.541242,1.041009,0.275419,0.597861,0.517251,564.000000,523.000000,41.000000,89.000000,0.000000,0.000000,0.541242,1.041009,0.275419,0.597861,0.517251,564.000000,523.000000,41.000000,89.000000,0.000000,0.000000:
0000
0000
0000
0000
,
0000
0000
0000
0000
,
0000
0000
0000
0000
,
0000
0000
0000
0000
,
2000
0000
0000
0000
,
3000
0000
0001
0200
0000
0300
0010
2000
,
0000
3000
0100
0020
0000
0030
0100
0010
,
1000
0000
0000
0100
0010
0000
0000
0100
0010
0000
0001
0000
1000
0000
0001
0000
,
2002
0000
3003
0000
0100
0010
0100
1000
0010
0000
0001
1000
0000
0100
0000
0010
,
0000
0000
0001
0100
0010
0000
0001
1000
0010
0000
0100
0000
0010
0000
0100
0000
,
2002
0000
3003
0000
0100
0010
0100
0010
0100
0000
0010
0001
0000
0100
0000
2000
,
0000
3000
0100
0010
0000
1000
0001
0100
0010
0000
0010
0000
0100
0000
0010
0000
,
0002
0000
0003
0000
1000
0000
0001
0000
0100
0000
0010
0100
0000
0010
0000
0002
,
0000
0003
1000
0100
0000
0010
0000
0200
0000
0000
0300
0000
1000
0000
0100
0000
,
0002
0000
0003
0200
0000
0300
0020
0000
0000
0000
0030
0000
0100
0000
0010
0000
,
0001
1000
0100
2000
3000
0100
0020
0030
,
0200
0300
0010
0001
1000
0001
1000
0200
,
0300
0000
0100
0000
0010
0000
1000
0002
0000
0000
0003
0000
0100
0000
0010
0000
,
0101
0000
0000
0000
1010
0000
0000
0001
1000
0000
0001
0000
0100
0000
0010
0000
,
0200
0300
0100
0010
0001
0100
0010
0001
,
2000
3000
0000
0002
0003
1000
0100
0002
,
0003
0200
0300
0020
0030
0100
0010
0100
,
0020
0000
0030
1000
0001
1000
0001
0200
,
0300
0010
0100
0010
0001
1000
0001
1000
,
0001
0000
0100
0010
0000
0200
0000
0300
0020
0000
0030
0000
0100
0000
1000
0000
,
0100
0000
0001
0100
0000
0020
0000
0030
0200
0000
0300
0000
1000
0000
0100
0000
,
2000
0000
3000
0000
0200
0000
0300
0000
0010
0000
0100
0010
0000
0000
0001
0000
,
0200
0000
0300
0000
0020
0000
0030
0000
0100
0000
0010
2000
0000
3000
0000
0000
,
0100
0001
0010
1000
0001
0020
0000
0030
0200
0000
0300
0000
1000
0000
0100
0000
,
2000
0000
3000
0000
0200
0000
0300
0000
0010
0000
0001
0100
0000
0001
0000
0200
,
0000
0300
0010
0000
0100
0000
1000
0100
0000
0010
0000
0200
0000
0300
0010
0000
,
0100
0010
0001
2000
3000
1000
0001
1000
,
0100
0001
1000
0001
1000
0001
1000
0001
0000
0100
0010
0100
0010
0100
0010
0100
,
0010
0001
1000
0001
1000
0001
1000
0001
0000
0100
0010
1000
0100
0010
0001
0010
,
0100
1000
0100
1000
0100
1000
0100
0010
0000
0001
0100
0010
1001
0100
0010
0100
,
0011
0001
1010
0100
1001
0010
0110
0011
1010
1001
0011
0101
2020
0000
3030
0000
,
0100
0000
0010
0000
1000
0000
0100
0020
0000
0000
0030
0000
0100
0000
0010
0000
,
0001
0000
1000
0000
0001
0000
1000
0000
0002
0000
0003
0000
0200
0000
0000
0300
,
0000
0000
0100
0000
0010
0000
1000
0200
0000
0300
0000
0000
0100
0000
0010
0000
,
0001
0000
1000
0000
0001
0000
1000
0000
0002
0000
0003
0000
0200
0000
0000
0300
,
0000
1000
0100
1000
0200
0300
0020
0030
,
0000
0010
0001
0010
0002
0003
0020
0030
,
0100
0000
0000
1000
0000
0000
0100
0000
0001
0000
0000
0100
0000
0000
0010
0000
,
1000
0000
0001
0000
1000
0000
0001
0000
1000
0000
0001
0000
1001
0100
0010
0001
,
0100
0010
0100
0001
1000
0100
0010
0001
0100
0001
0010
1000
0100
0010
0001
1000
,
0100
0000
0010
0001
0000
0100
0010
0001
0010
0000
0100
0010
1001
0000
0100
0000
,
0010
0100
0010
0001
1000
0001
0100
0010
0100
1000
0100
0001
1010
0001
0100
0010
,
1001
0101
0011
0110
1001
0110
2002
3003
,
1001
0000
0100
0010
0000
2000
0000
3000
0200
0000
0300
0000
0100
0000
0010
0000
,
0001
0000
1000
0001
0000
0200
0000
0300
0010
0000
0001
0000
0010
0000
0100
0000
,
2000
0000
3000
0000
0200
0000
0300
0000
0001
0000
0100
0020
0000
0030
1000
0000
,
0200
0000
0300
0000
0010
0000
0100
0000
0001
0000
0010
0200
0000
0300
0010
0000
,
0001
1000
0001
0100
0010
0002
0000
0003
0200
0000
0300
0000
0010
0000
0100
0000
,
0020
0000
0030
0000
0002
0000
0003
0000
0100
0000
0010
0100
0000
0020
0000
0030
,
0001
0000
1000
0000
0100
0000
0001
0100
0000
0010
0000
2000
0000
3000
0001
0000
,
1000
0100
0010
0002
0003
1000
0001
1000
,
0001
0000
0100
0010
0000
1000
0000
0000
0200
0000
0300
0000
0010
0000
0100
0000
,
0001
0010
0001
0010
0000
0200
0000
0300
2000
0000
3000
0000
0100
0000
0010
0000
,
0002
0000
0003
0000
0200
0000
0300
0000
0010
0000
0100
0010
0000
0000
0010
0000
,
0200
0000
0300
0000
2000
0000
3000
0000
0001
0000
1000
0002
0000
0003
0000
0000
,
0100
0010
0100
0000
1001
0000
0100
0000
0020
0000
0030
0000
0100
0000
0010
0000
,
0002
0000
0003
0000
2000
0000
3000
0000
0100
0000
0010
0100
0000
0020
0000
0030
,
0001
0000
1000
0000
0100
0000
0010
0100
0000
1000
0000
0200
0000
0300
0010
0000
,
0001
0100
0010
0200
0300
0001
0010
1000
,
0100
0010
0100
0010
0100
0010
0100
0010
0000
0001
1000
0001
1000
0100
0010
0100
,
1000
0100
1000
0100
1000
0100
1000
0100
0000
0100
0010
0001
0010
0100
1000
0100
,
0010
0001
0010
0001
0010
0001
0010
0001
0000
1000
0001
1000
0001
1000
0001
1000
,
0011
0110
1001
0011
1100
0011
0110
1001
1001
0011
0110
1001
2002
0000
3003
0000
,
0100
0010
0100
0010
0001
1000
0001
1001
;
